999
dxfrw 0.6.3
  0
SECTION
  2
HEADER
  9
$ACADVER
  1
AC1021
  9
$DWGCODEPAGE
  3
ANSI_1252
  9
$INSBASE
 10
0
 20
0
 30
0
  9
$EXTMIN
 10
10000000000
 20
10000000000
 30
0
  9
$EXTMAX
 10
-10000000000
 20
-10000000000
 30
0
  9
$LIMMIN
 10
0
 20
0
  9
$LIMMAX
 10
420
 20
297
  9
$ORTHOMODE
 70
    0
  9
$REGENMODE
 70
    1
  9
$FILLMODE
 70
    1
  9
$QTEXTMODE
 70
    0
  9
$MIRRTEXT
 70
    0
  9
$LTSCALE
 40
1
  9
$ATTMODE
 70
    0
  9
$TEXTSIZE
 40
2.5
  9
$TRACEWID
 40
15.68
  9
$TEXTSTYLE
  7
STANDARD
  9
$CLAYER
  8
0
  9
$CELTYPE
  6
BYLAYER
  9
$CECOLOR
 62
  256
  9
$CELTSCALE
 40
1
  9
$DISPSILH
 70
    0
  9
$DIMSCALE
 40
1
  9
$DIMASZ
 40
1
  9
$DIMEXO
 40
1
  9
$DIMDLI
 40
3.75
  9
$DIMRND
 40
0
  9
$DIMDLE
 40
0
  9
$DIMEXE
 40
1
  9
$DIMTP
 40
0
  9
$DIMTM
 40
0
  9
$DIMTXT
 40
1
  9
$DIMCEN
 40
2.5
  9
$DIMTSZ
 40
0
  9
$DIMTOL
 70
    0
  9
$DIMLIM
 70
    0
  9
$DIMTIH
 70
    0
  9
$DIMTOH
 70
    0
  9
$DIMSE1
 70
    0
  9
$DIMSE2
 70
    0
  9
$DIMTAD
 70
    1
  9
$DIMZIN
 70
    1
  9
$DIMBLK
  1

  9
$DIMASO
 70
    1
  9
$DIMSHO
 70
    1
  9
$DIMPOST
  1

  9
$DIMAPOST
  1

  9
$DIMALT
 70
    0
  9
$DIMALTD
 70
    3
  9
$DIMALTF
 40
0.03937
  9
$DIMLFAC
 40
1
  9
$DIMTOFL
 70
    1
  9
$DIMTVP
 40
0
  9
$DIMTIX
 70
    0
  9
$DIMSOXD
 70
    0
  9
$DIMSAH
 70
    0
  9
$DIMBLK1
  1

  9
$DIMBLK2
  1

  9
$DIMSTYLE
  2
Standard
  9
$DIMCLRD
 70
    0
  9
$DIMCLRE
 70
    0
  9
$DIMCLRT
 70
    0
  9
$DIMTFAC
 40
1
  9
$DIMGAP
 40
1
  9
$DIMJUST
 70
    0
  9
$DIMSD1
 70
    0
  9
$DIMSD2
 70
    0
  9
$DIMTOLJ
 70
    0
  9
$DIMTZIN
 70
    8
  9
$DIMALTZ
 70
    0
  9
$DIMALTTZ
 70
    0
  9
$DIMUPT
 70
    0
  9
$DIMDEC
 70
    2
  9
$DIMTDEC
 70
    2
  9
$DIMALTU
 70
    2
  9
$DIMALTTD
 70
    3
  9
$DIMTXSTY
  7
standard
  9
$DIMAUNIT
 70
    0
  9
$DIMADEC
 70
    0
  9
$DIMALTRND
 40
0
  9
$DIMAZIN
 70
    0
  9
$DIMDSEP
 70
    0
  9
$DIMATFIT
 70
    3
  9
$DIMFRAC
 70
    0
  9
$DIMLDRBLK
  1
STANDARD
  9
$DIMLUNIT
 70
    2
  9
$DIMLWD
 70
   -2
  9
$DIMLWE
 70
   -2
  9
$DIMTMOVE
 70
    0
  9
$DIMFXL
 40
0.04
  9
$DIMFXLON
 70
    0
  9
$DIMJOGANG
 40
0.7854
  9
$DIMTFILL
 70
    0
  9
$DIMTFILLCLR
 70
    0
  9
$DIMARCSYM
 70
    0
  9
$DIMLTYPE
  6

  9
$DIMLTEX1
  6

  9
$DIMLTEX2
  6

  9
$LUNITS
 70
    2
  9
$LUPREC
 70
    2
  9
$SKETCHINC
 40
1
  9
$FILLETRAD
 40
0
  9
$AUNITS
 70
    0
  9
$AUPREC
 70
    2
  9
$MENU
  1
.
  9
$ELEVATION
 40
0
  9
$PELEVATION
 40
0
  9
$THICKNESS
 40
0
  9
$LIMCHECK
 70
    0
  9
$CHAMFERA
 40
0
  9
$CHAMFERB
 40
0
  9
$CHAMFERC
 40
0
  9
$CHAMFERD
 40
0
  9
$SKPOLY
 70
    0
  9
$USRTIMER
 70
    1
  9
$ANGBASE
 50
0
  9
$ANGDIR
 70
    0
  9
$PDMODE
 70
   34
  9
$PDSIZE
 40
0
  9
$PLINEWID
 40
0
  9
$SPLFRAME
 70
    0
  9
$SPLINETYPE
 70
    2
  9
$SPLINESEGS
 70
    8
  9
$HANDSEED
  5
20000
  9
$SURFTAB1
 70
    6
  9
$SURFTAB2
 70
    6
  9
$SURFTYPE
 70
    6
  9
$SURFU
 70
    6
  9
$SURFV
 70
    6
  9
$UCSBASE
  2

  9
$UCSNAME
  2

  9
$UCSORG
 10
0
 20
0
 30
0
  9
$UCSXDIR
 10
1
 20
0
 30
0
  9
$UCSYDIR
 10
0
 20
1
 30
0
  9
$UCSORTHOREF
  2

  9
$UCSORTHOVIEW
 70
    0
  9
$UCSORGTOP
 10
0
 20
0
 30
0
  9
$UCSORGBOTTOM
 10
0
 20
0
 30
0
  9
$UCSORGLEFT
 10
0
 20
0
 30
0
  9
$UCSORGRIGHT
 10
0
 20
0
 30
0
  9
$UCSORGFRONT
 10
0
 20
0
 30
0
  9
$UCSORGBACK
 10
0
 20
0
 30
0
  9
$PUCSBASE
  2

  9
$PUCSNAME
  2

  9
$PUCSORG
 10
0
 20
0
 30
0
  9
$PUCSXDIR
 10
1
 20
0
 30
0
  9
$PUCSYDIR
 10
0
 20
1
 30
0
  9
$PUCSORTHOREF
  2

  9
$PUCSORTHOVIEW
 70
    0
  9
$PUCSORGTOP
 10
0
 20
0
 30
0
  9
$PUCSORGBOTTOM
 10
0
 20
0
 30
0
  9
$PUCSORGLEFT
 10
0
 20
0
 30
0
  9
$PUCSORGRIGHT
 10
0
 20
0
 30
0
  9
$PUCSORGFRONT
 10
0
 20
0
 30
0
  9
$PUCSORGBACK
 10
0
 20
0
 30
0
  9
$USERI1
 70
    0
  9
$USERI2
 70
    0
  9
$USERI3
 70
    0
  9
$USERI4
 70
    0
  9
$USERI5
 70
    0
  9
$USERR1
 40
0
  9
$USERR2
 40
0
  9
$USERR3
 40
0
  9
$USERR4
 40
0
  9
$USERR5
 40
0
  9
$WORLDVIEW
 70
    1
  9
$SHADEDGE
 70
    3
  9
$SHADEDIF
 70
   70
  9
$TILEMODE
 70
    1
  9
$MAXACTVP
 70
   64
  9
$PINSBASE
 10
0.4921258764509981
 20
5.844909533996049
 30
0
  9
$PLIMCHECK
 70
    0
  9
$PEXTMIN
 10
0
 20
0
 30
0
  9
$PEXTMAX
 10
0
 20
0
 30
0
  9
$GRIDMODE
 70
    1
  9
$SNAPSTYLE
 70
    0
  9
$GRIDUNIT
 10
0
 20
0
  9
$PLIMMIN
 10
0
 20
0
  9
$PLIMMAX
 10
8.267716535433072
 20
11.69291338582677
  9
$UNITMODE
 70
    0
  9
$VISRETAIN
 70
    1
  9
$PLINEGEN
 70
    0
  9
$PSLTSCALE
 70
    1
  9
$TREEDEPTH
 70
 3020
  9
$CMLSTYLE
  2
Standard
  9
$CMLJUST
 70
    0
  9
$CMLSCALE
 40
20
  9
$PROXYGRAPHICS
 70
    1
  9
$MEASUREMENT
 70
    1
  9
$CELWEIGHT
370
   -1
  9
$ENDCAPS
280
    0
  9
$JOINSTYLE
280
    0
  9
$LWDISPLAY
290
    0
  9
$INSUNITS
 70
    1
  9
$HYPERLINKBASE
  1

  9
$STYLESHEET
  1

  9
$XEDIT
290
    1
  9
$CEPSNTYPE
380
    0
  9
$PSTYLEMODE
290
    1
  9
$EXTNAMES
290
    1
  9
$PSVPSCALE
 40
0.1095257862034748
  9
$OLESTARTUP
290
    0
  9
$SORTENTS
280
  127
  9
$INDEXCTL
280
    0
  9
$HIDETEXT
280
    1
  9
$XCLIPFRAME
290
    0
  9
$HALOGAP
280
    0
  9
$OBSCOLOR
 70
  257
  9
$OBSLTYPE
280
    0
  9
$INTERSECTIONDISPLAY
280
    0
  9
$INTERSECTIONCOLOR
 70
  257
  9
$DIMASSOC
280
    1
  9
$PROJECTNAME
  1

  9
$CAMERADISPLAY
290
    0
  9
$LENSLENGTH
 40
50
  9
$CAMERAHEIGHT
 40
0
  9
$STEPSPERSEC
 40
2
  9
$STEPSIZE
 40
50
  9
$3DDWFPREC
 40
2
  9
$PSOLWIDTH
 40
5
  9
$PSOLHEIGHT
 40
80
  9
$LOFTANG1
 40
1.570796326794897
  9
$LOFTANG2
 40
1.570796326794897
  9
$LOFTMAG1
 40
0
  9
$LOFTMAG2
 40
0
  9
$LOFTPARAM
 70
    7
  9
$LOFTNORMALS
280
    1
  9
$LATITUDE
 40
1
  9
$LONGITUDE
 40
1
  9
$NORTHDIRECTION
 40
0
  9
$TIMEZONE
 70
-8000
  9
$LIGHTGLYPHDISPLAY
280
    1
  9
$TILEMODELIGHTSYNCH
280
    1
  9
$SOLIDHIST
280
    1
  9
$SHOWHIST
280
    1
  9
$DWFFRAME
280
    2
  9
$DGNFRAME
280
    0
  9
$REALWORLDSCALE
290
    1
  9
$INTERFERECOLOR
 62
    1
  9
$CSHADOW
280
    0
  9
$SHADOWPLANELOCATION
 40
0
  0
ENDSEC
  0
SECTION
  2
CLASSES
  0
ENDSEC
  0
SECTION
  2
TABLES
  0
TABLE
  2
VPORT
  5
8
330
0
100
AcDbSymbolTable
 70
    1
  0
VPORT
  5
31
330
2
100
AcDbSymbolTableRecord
100
AcDbViewportTableRecord
  2
*ACTIVE
 70
    0
 10
0
 20
0
 11
1
 21
1
 12
18.77252268791611
 22
6.421221423289134
 13
0
 23
0
 14
10
 24
10
 15
10
 25
10
 16
0
 26
0
 36
1
 17
0
 27
0
 37
0
 40
33.03381899346478
 41
1.488986784140969
 42
50
 43
0
 44
0
 50
0
 51
0
 71
    0
 72
  100
 73
    1
 74
    3
 75
    0
 76
    1
 77
    0
 78
    0
281
    0
 65
    1
110
0
120
0
130
0
111
1
121
0
131
0
112
0
122
1
132
0
 79
    0
146
0
348
10020
 60
    7
 61
    5
292
1
282
    1
141
0
142
0
 63
  250
421
3358443
  0
ENDTAB
  0
TABLE
  2
LTYPE
  5
5
330
0
100
AcDbSymbolTable
 70
    4
  0
LTYPE
  5
14
330
5
100
AcDbSymbolTableRecord
100
AcDbLinetypeTableRecord
  2
ByBlock
 70
    0
  3

 72
   65
 73
    0
 40
0
  0
LTYPE
  5
15
330
5
100
AcDbSymbolTableRecord
100
AcDbLinetypeTableRecord
  2
ByLayer
 70
    0
  3

 72
   65
 73
    0
 40
0
  0
LTYPE
  5
16
330
5
100
AcDbSymbolTableRecord
100
AcDbLinetypeTableRecord
  2
Continuous
 70
    0
  3
Solid line
 72
   65
 73
    0
 40
0
  0
LTYPE
  5
32
330
5
100
AcDbSymbolTableRecord
100
AcDbLinetypeTableRecord
  2
DOT
 70
    0
  3
Dot . . . . . . . . . . . . . . . . . . . . . .
 72
   65
 73
    2
 40
6.35
 49
0
 74
    0
 49
-6.35
 74
    0
  0
LTYPE
  5
33
330
5
100
AcDbSymbolTableRecord
100
AcDbLinetypeTableRecord
  2
DOTTINY
 70
    0
  3
Dot (.15x) .....................................
 72
   65
 73
    2
 40
0.9525
 49
0
 74
    0
 49
-0.9525
 74
    0
  0
LTYPE
  5
34
330
5
100
AcDbSymbolTableRecord
100
AcDbLinetypeTableRecord
  2
DOT2
 70
    0
  3
Dot (.5x) .....................................
 72
   65
 73
    2
 40
3.175
 49
0
 74
    0
 49
-3.175
 74
    0
  0
LTYPE
  5
35
330
5
100
AcDbSymbolTableRecord
100
AcDbLinetypeTableRecord
  2
DOTX2
 70
    0
  3
Dot (2x) .  .  .  .  .  .  .  .  .  .  .  .  .
 72
   65
 73
    2
 40
12.7
 49
0
 74
    0
 49
-12.7
 74
    0
  0
LTYPE
  5
36
330
5
100
AcDbSymbolTableRecord
100
AcDbLinetypeTableRecord
  2
DASHED
 70
    0
  3
Dashed _ _ _ _ _ _ _ _ _ _ _ _ _ _ _ _ _
 72
   65
 73
    2
 40
19.05
 49
12.7
 74
    0
 49
-6.35
 74
    0
  0
LTYPE
  5
37
330
5
100
AcDbSymbolTableRecord
100
AcDbLinetypeTableRecord
  2
DASHEDTINY
 70
    0
  3
Dashed (.15x) _ _ _ _ _ _ _ _ _ _ _ _ _ _ _ _ _
 72
   65
 73
    2
 40
2.8575
 49
1.905
 74
    0
 49
-0.9525
 74
    0
  0
LTYPE
  5
38
330
5
100
AcDbSymbolTableRecord
100
AcDbLinetypeTableRecord
  2
DASHED2
 70
    0
  3
Dashed (.5x) _ _ _ _ _ _ _ _ _ _ _ _ _ _ _ _ _
 72
   65
 73
    2
 40
9.524999999999999
 49
6.35
 74
    0
 49
-3.175
 74
    0
  0
LTYPE
  5
39
330
5
100
AcDbSymbolTableRecord
100
AcDbLinetypeTableRecord
  2
DASHEDX2
 70
    0
  3
Dashed (2x) ____  ____  ____  ____  ____  ___
 72
   65
 73
    2
 40
38.09999999999999
 49
25.4
 74
    0
 49
-12.7
 74
    0
  0
LTYPE
  5
3A
330
5
100
AcDbSymbolTableRecord
100
AcDbLinetypeTableRecord
  2
DASHDOT
 70
    0
  3
Dash dot __ . __ . __ . __ . __ . __ . __ . __
 72
   65
 73
    4
 40
25.4
 49
12.7
 74
    0
 49
-6.35
 74
    0
 49
0
 74
    0
 49
-6.35
 74
    0
  0
LTYPE
  5
3B
330
5
100
AcDbSymbolTableRecord
100
AcDbLinetypeTableRecord
  2
DASHDOTTINY
 70
    0
  3
Dash dot (.15x) _._._._._._._._._._._._._._._.
 72
   65
 73
    4
 40
3.81
 49
1.905
 74
    0
 49
-0.9525
 74
    0
 49
0
 74
    0
 49
-0.9525
 74
    0
  0
LTYPE
  5
3C
330
5
100
AcDbSymbolTableRecord
100
AcDbLinetypeTableRecord
  2
DASHDOT2
 70
    0
  3
Dash dot (.5x) _._._._._._._._._._._._._._._.
 72
   65
 73
    4
 40
12.7
 49
6.35
 74
    0
 49
-3.175
 74
    0
 49
0
 74
    0
 49
-3.175
 74
    0
  0
LTYPE
  5
3D
330
5
100
AcDbSymbolTableRecord
100
AcDbLinetypeTableRecord
  2
DASHDOTX2
 70
    0
  3
Dash dot (2x) ____  .  ____  .  ____  .  ___
 72
   65
 73
    4
 40
50.8
 49
25.4
 74
    0
 49
-12.7
 74
    0
 49
0
 74
    0
 49
-12.7
 74
    0
  0
LTYPE
  5
3E
330
5
100
AcDbSymbolTableRecord
100
AcDbLinetypeTableRecord
  2
DIVIDE
 70
    0
  3
Divide ____ . . ____ . . ____ . . ____ . . ____
 72
   65
 73
    6
 40
31.75
 49
12.7
 74
    0
 49
-6.35
 74
    0
 49
0
 74
    0
 49
-6.35
 74
    0
 49
0
 74
    0
 49
-6.35
 74
    0
  0
LTYPE
  5
3F
330
5
100
AcDbSymbolTableRecord
100
AcDbLinetypeTableRecord
  2
DIVIDETINY
 70
    0
  3
Divide (.15x) __..__..__..__..__..__..__..__.._
 72
   65
 73
    6
 40
4.7625
 49
1.905
 74
    0
 49
-0.9525
 74
    0
 49
0
 74
    0
 49
-0.9525
 74
    0
 49
0
 74
    0
 49
-0.9525
 74
    0
  0
LTYPE
  5
40
330
5
100
AcDbSymbolTableRecord
100
AcDbLinetypeTableRecord
  2
DIVIDE2
 70
    0
  3
Divide (.5x) __..__..__..__..__..__..__..__.._
 72
   65
 73
    6
 40
15.875
 49
6.35
 74
    0
 49
-3.175
 74
    0
 49
0
 74
    0
 49
-3.175
 74
    0
 49
0
 74
    0
 49
-3.175
 74
    0
  0
LTYPE
  5
41
330
5
100
AcDbSymbolTableRecord
100
AcDbLinetypeTableRecord
  2
DIVIDEX2
 70
    0
  3
Divide (2x) ________  .  .  ________  .  .  _
 72
   65
 73
    6
 40
63.5
 49
25.4
 74
    0
 49
-12.7
 74
    0
 49
0
 74
    0
 49
-12.7
 74
    0
 49
0
 74
    0
 49
-12.7
 74
    0
  0
LTYPE
  5
42
330
5
100
AcDbSymbolTableRecord
100
AcDbLinetypeTableRecord
  2
BORDER
 70
    0
  3
Border __ __ . __ __ . __ __ . __ __ . __ __ .
 72
   65
 73
    6
 40
44.45
 49
12.7
 74
    0
 49
-6.35
 74
    0
 49
12.7
 74
    0
 49
-6.35
 74
    0
 49
0
 74
    0
 49
-6.35
 74
    0
  0
LTYPE
  5
43
330
5
100
AcDbSymbolTableRecord
100
AcDbLinetypeTableRecord
  2
BORDERTINY
 70
    0
  3
Border (.15x) __.__.__.__.__.__.__.__.__.__.__.
 72
   65
 73
    6
 40
6.6675
 49
1.905
 74
    0
 49
-0.9525
 74
    0
 49
1.905
 74
    0
 49
-0.9525
 74
    0
 49
0
 74
    0
 49
-0.9525
 74
    0
  0
LTYPE
  5
44
330
5
100
AcDbSymbolTableRecord
100
AcDbLinetypeTableRecord
  2
BORDER2
 70
    0
  3
Border (.5x) __.__.__.__.__.__.__.__.__.__.__.
 72
   65
 73
    6
 40
22.225
 49
6.35
 74
    0
 49
-3.175
 74
    0
 49
6.35
 74
    0
 49
-3.175
 74
    0
 49
0
 74
    0
 49
-3.175
 74
    0
  0
LTYPE
  5
45
330
5
100
AcDbSymbolTableRecord
100
AcDbLinetypeTableRecord
  2
BORDERX2
 70
    0
  3
Border (2x) ____  ____  .  ____  ____  .  ___
 72
   65
 73
    6
 40
88.89999999999999
 49
25.4
 74
    0
 49
-12.7
 74
    0
 49
25.4
 74
    0
 49
-12.7
 74
    0
 49
0
 74
    0
 49
-12.7
 74
    0
  0
LTYPE
  5
46
330
5
100
AcDbSymbolTableRecord
100
AcDbLinetypeTableRecord
  2
CENTER
 70
    0
  3
Center ____ _ ____ _ ____ _ ____ _ ____ _ ____
 72
   65
 73
    4
 40
50.8
 49
31.75
 74
    0
 49
-6.35
 74
    0
 49
6.35
 74
    0
 49
-6.35
 74
    0
  0
LTYPE
  5
47
330
5
100
AcDbSymbolTableRecord
100
AcDbLinetypeTableRecord
  2
CENTERTINY
 70
    0
  3
Center (.15x) ___ _ ___ _ ___ _ ___ _ ___ _ ___
 72
   65
 73
    4
 40
7.619999999999999
 49
4.7625
 74
    0
 49
-0.9525
 74
    0
 49
0.9525
 74
    0
 49
-0.9525
 74
    0
  0
LTYPE
  5
48
330
5
100
AcDbSymbolTableRecord
100
AcDbLinetypeTableRecord
  2
CENTER2
 70
    0
  3
Center (.5x) ___ _ ___ _ ___ _ ___ _ ___ _ ___
 72
   65
 73
    4
 40
28.575
 49
19.05
 74
    0
 49
-3.175
 74
    0
 49
3.175
 74
    0
 49
-3.175
 74
    0
  0
LTYPE
  5
49
330
5
100
AcDbSymbolTableRecord
100
AcDbLinetypeTableRecord
  2
CENTERX2
 70
    0
  3
Center (2x) ________  __  ________  __  _____
 72
   65
 73
    4
 40
101.6
 49
63.5
 74
    0
 49
-12.7
 74
    0
 49
12.7
 74
    0
 49
-12.7
 74
    0
  0
ENDTAB
  0
TABLE
  2
LAYER
  5
2
330
0
100
AcDbSymbolTable
 70
    1
  0
LAYER
  5
10
330
2
100
AcDbSymbolTableRecord
100
AcDbLayerTableRecord
  2
0
 70
    0
 62
    7
  6
CONTINUOUS
370
    0
390
F
  0
LAYER
  5
4A
330
2
100
AcDbSymbolTableRecord
100
AcDbLayerTableRecord
  2
Bolts
 70
    0
 62
    7
  6
CONTINUOUS
370
    0
390
F
  0
LAYER
  5
4B
330
2
100
AcDbSymbolTableRecord
100
AcDbLayerTableRecord
  2
OSE4"x4"Frame
 70
    0
 62
    4
  6
CONTINUOUS
370
    0
390
F
  0
LAYER
  5
4C
330
2
100
AcDbSymbolTableRecord
100
AcDbLayerTableRecord
  2
OSEFingerPlate
 70
    0
 62
    5
  6
CONTINUOUS
370
   -3
390
F
  0
LAYER
  5
4D
330
2
100
AcDbSymbolTableRecord
100
AcDbLayerTableRecord
  2
OSEFingerPlate_DIM
 70
    0
 62
    3
  6
DASHDOT2
370
    0
390
F
  0
LAYER
  5
4E
330
2
100
AcDbSymbolTableRecord
100
AcDbLayerTableRecord
  2
OSELatchParts
 70
    0
 62
    1
  6
CONTINUOUS
370
    0
390
F
  0
LAYER
  5
4F
330
2
100
AcDbSymbolTableRecord
100
AcDbLayerTableRecord
  2
OSELatch_DIM
 70
    0
 62
    3
  6
DASHDOT2
370
   -3
390
F
  0
LAYER
  5
50
330
2
100
AcDbSymbolTableRecord
100
AcDbLayerTableRecord
  2
OSESkidSteerPlate
 70
    0
 62
    6
  6
CONTINUOUS
370
    0
390
F
  0
LAYER
  5
51
330
2
100
AcDbSymbolTableRecord
100
AcDbLayerTableRecord
  2
OSESkidSterrPlate_DIM
 70
    0
 62
    3
  6
DASHDOT2
370
    0
390
F
  0
LAYER
  5
52
330
2
100
AcDbSymbolTableRecord
100
AcDbLayerTableRecord
  2
SAE_DIM
 70
    0
 62
    3
  6
DASHDOTX2
370
    0
390
F
  0
LAYER
  5
53
330
2
100
AcDbSymbolTableRecord
100
AcDbLayerTableRecord
  2
SAE_j2513
 70
    0
 62
    9
  6
CONTINUOUS
370
   -3
390
F
  0
ENDTAB
  0
TABLE
  2
STYLE
  5
3
330
0
100
AcDbSymbolTable
 70
    3
  0
STYLE
  5
54
330
2
100
AcDbSymbolTableRecord
100
AcDbTextStyleTableRecord
  2
iso
 70
    0
 40
0
 41
1
 50
0
 71
    0
 42
1
  3
iso
  4

  0
STYLE
  5
55
330
2
100
AcDbSymbolTableRecord
100
AcDbTextStyleTableRecord
  2
Standard
 70
    0
 40
0
 41
1
 50
0
 71
    0
 42
1
  3
txt
  4

  0
ENDTAB
  0
TABLE
  2
VIEW
  5
6
330
0
100
AcDbSymbolTable
 70
    0
  0
ENDTAB
  0
TABLE
  2
UCS
  5
7
330
0
100
AcDbSymbolTable
 70
    0
  0
ENDTAB
  0
TABLE
  2
APPID
  5
9
330
0
100
AcDbSymbolTable
 70
    1
  0
APPID
  5
12
330
9
100
AcDbSymbolTableRecord
100
AcDbRegAppTableRecord
  2
ACAD
 70
    0
  0
APPID
  5
56
330
9
100
AcDbSymbolTableRecord
100
AcDbRegAppTableRecord
  2
LibreCad
 70
    0
  0
ENDTAB
  0
TABLE
  2
DIMSTYLE
  5
A
330
0
100
AcDbSymbolTable
 70
    1
100
AcDbDimStyleTable
 71
    1
  0
DIMSTYLE
105
57
330
A
100
AcDbSymbolTableRecord
100
AcDbDimStyleTableRecord
  2
Standard
 70
    0
 40
1
 41
1
 42
1
 43
0.38
 44
1
 45
0
 46
0
 47
0
 48
0
 49
0.04
140
1
141
0.09
142
0
143
25.4
144
1
145
0
146
1
147
1
148
0
 71
    0
 72
    0
 73
    0
 74
    1
 75
    0
 76
    0
 77
    0
 78
    1
 79
    0
170
    0
171
    2
172
    0
173
    0
174
    0
175
    0
176
    0
177
    0
178
    0
179
    0
271
    2
272
    4
273
    2
274
    2
275
    0
276
    0
277
    2
278
    0
279
    0
280
    0
281
    0
282
    0
283
    1
284
    0
285
    0
286
    0
288
    0
289
    3
340
standard
341

371
   -2
372
   -2
  0
ENDTAB
  0
TABLE
  2
BLOCK_RECORD
  5
1
330
0
100
AcDbSymbolTable
 70
    2
  0
BLOCK_RECORD
  5
1F
330
1
100
AcDbSymbolTableRecord
100
AcDbBlockTableRecord
  2
*Model_Space
 70
    0
280
    1
281
    0
  0
BLOCK_RECORD
  5
1E
330
1
100
AcDbSymbolTableRecord
100
AcDbBlockTableRecord
  2
*Paper_Space
 70
    0
280
    1
281
    0
  0
BLOCK_RECORD
  5
58
330
1
100
AcDbSymbolTableRecord
100
AcDbBlockTableRecord
  2
*D11
 70
    0
280
    1
281
    0
  0
BLOCK_RECORD
  5
5B
330
1
100
AcDbSymbolTableRecord
100
AcDbBlockTableRecord
  2
*D23
 70
    0
280
    1
281
    0
  0
BLOCK_RECORD
  5
5E
330
1
100
AcDbSymbolTableRecord
100
AcDbBlockTableRecord
  2
*D4
 70
    0
280
    1
281
    0
  0
BLOCK_RECORD
  5
61
330
1
100
AcDbSymbolTableRecord
100
AcDbBlockTableRecord
  2
*D5
 70
    0
280
    1
281
    0
  0
BLOCK_RECORD
  5
64
330
1
100
AcDbSymbolTableRecord
100
AcDbBlockTableRecord
  2
*D13
 70
    0
280
    1
281
    0
  0
BLOCK_RECORD
  5
67
330
1
100
AcDbSymbolTableRecord
100
AcDbBlockTableRecord
  2
*D19
 70
    0
280
    1
281
    0
  0
BLOCK_RECORD
  5
6A
330
1
100
AcDbSymbolTableRecord
100
AcDbBlockTableRecord
  2
*D34
 70
    0
280
    1
281
    0
  0
BLOCK_RECORD
  5
6D
330
1
100
AcDbSymbolTableRecord
100
AcDbBlockTableRecord
  2
*D30
 70
    0
280
    1
281
    0
  0
BLOCK_RECORD
  5
70
330
1
100
AcDbSymbolTableRecord
100
AcDbBlockTableRecord
  2
*D12
 70
    0
280
    1
281
    0
  0
BLOCK_RECORD
  5
73
330
1
100
AcDbSymbolTableRecord
100
AcDbBlockTableRecord
  2
*D7
 70
    0
280
    1
281
    0
  0
BLOCK_RECORD
  5
76
330
1
100
AcDbSymbolTableRecord
100
AcDbBlockTableRecord
  2
*D37
 70
    0
280
    1
281
    0
  0
BLOCK_RECORD
  5
79
330
1
100
AcDbSymbolTableRecord
100
AcDbBlockTableRecord
  2
*D3
 70
    0
280
    1
281
    0
  0
BLOCK_RECORD
  5
7C
330
1
100
AcDbSymbolTableRecord
100
AcDbBlockTableRecord
  2
*D20
 70
    0
280
    1
281
    0
  0
BLOCK_RECORD
  5
7F
330
1
100
AcDbSymbolTableRecord
100
AcDbBlockTableRecord
  2
*D36
 70
    0
280
    1
281
    0
  0
BLOCK_RECORD
  5
82
330
1
100
AcDbSymbolTableRecord
100
AcDbBlockTableRecord
  2
*D15
 70
    0
280
    1
281
    0
  0
BLOCK_RECORD
  5
85
330
1
100
AcDbSymbolTableRecord
100
AcDbBlockTableRecord
  2
*D28
 70
    0
280
    1
281
    0
  0
BLOCK_RECORD
  5
88
330
1
100
AcDbSymbolTableRecord
100
AcDbBlockTableRecord
  2
*D18
 70
    0
280
    1
281
    0
  0
BLOCK_RECORD
  5
8B
330
1
100
AcDbSymbolTableRecord
100
AcDbBlockTableRecord
  2
*D33
 70
    0
280
    1
281
    0
  0
BLOCK_RECORD
  5
8E
330
1
100
AcDbSymbolTableRecord
100
AcDbBlockTableRecord
  2
*D21
 70
    0
280
    1
281
    0
  0
BLOCK_RECORD
  5
91
330
1
100
AcDbSymbolTableRecord
100
AcDbBlockTableRecord
  2
*D14
 70
    0
280
    1
281
    0
  0
BLOCK_RECORD
  5
94
330
1
100
AcDbSymbolTableRecord
100
AcDbBlockTableRecord
  2
*D35
 70
    0
280
    1
281
    0
  0
BLOCK_RECORD
  5
97
330
1
100
AcDbSymbolTableRecord
100
AcDbBlockTableRecord
  2
*D17
 70
    0
280
    1
281
    0
  0
BLOCK_RECORD
  5
9A
330
1
100
AcDbSymbolTableRecord
100
AcDbBlockTableRecord
  2
*D24
 70
    0
280
    1
281
    0
  0
BLOCK_RECORD
  5
9D
330
1
100
AcDbSymbolTableRecord
100
AcDbBlockTableRecord
  2
*D10
 70
    0
280
    1
281
    0
  0
BLOCK_RECORD
  5
A0
330
1
100
AcDbSymbolTableRecord
100
AcDbBlockTableRecord
  2
*D9
 70
    0
280
    1
281
    0
  0
BLOCK_RECORD
  5
A3
330
1
100
AcDbSymbolTableRecord
100
AcDbBlockTableRecord
  2
*D2
 70
    0
280
    1
281
    0
  0
BLOCK_RECORD
  5
A6
330
1
100
AcDbSymbolTableRecord
100
AcDbBlockTableRecord
  2
*D29
 70
    0
280
    1
281
    0
  0
BLOCK_RECORD
  5
A9
330
1
100
AcDbSymbolTableRecord
100
AcDbBlockTableRecord
  2
*D8
 70
    0
280
    1
281
    0
  0
BLOCK_RECORD
  5
AC
330
1
100
AcDbSymbolTableRecord
100
AcDbBlockTableRecord
  2
*D6
 70
    0
280
    1
281
    0
  0
BLOCK_RECORD
  5
AF
330
1
100
AcDbSymbolTableRecord
100
AcDbBlockTableRecord
  2
*D32
 70
    0
280
    1
281
    0
  0
BLOCK_RECORD
  5
B2
330
1
100
AcDbSymbolTableRecord
100
AcDbBlockTableRecord
  2
*D27
 70
    0
280
    1
281
    0
  0
BLOCK_RECORD
  5
B5
330
1
100
AcDbSymbolTableRecord
100
AcDbBlockTableRecord
  2
*D16
 70
    0
280
    1
281
    0
  0
BLOCK_RECORD
  5
B8
330
1
100
AcDbSymbolTableRecord
100
AcDbBlockTableRecord
  2
*D22
 70
    0
280
    1
281
    0
  0
BLOCK_RECORD
  5
BB
330
1
100
AcDbSymbolTableRecord
100
AcDbBlockTableRecord
  2
*D26
 70
    0
280
    1
281
    0
  0
BLOCK_RECORD
  5
BE
330
1
100
AcDbSymbolTableRecord
100
AcDbBlockTableRecord
  2
*D25
 70
    0
280
    1
281
    0
  0
BLOCK_RECORD
  5
C1
330
1
100
AcDbSymbolTableRecord
100
AcDbBlockTableRecord
  2
*D31
 70
    0
280
    1
281
    0
  0
BLOCK_RECORD
  5
C4
330
1
100
AcDbSymbolTableRecord
100
AcDbBlockTableRecord
  2
*D1
 70
    0
280
    1
281
    0
  0
BLOCK_RECORD
  5
C7
330
1
100
AcDbSymbolTableRecord
100
AcDbBlockTableRecord
  2
Pin
 70
    0
280
    1
281
    0
  0
BLOCK_RECORD
  5
CA
330
1
100
AcDbSymbolTableRecord
100
AcDbBlockTableRecord
  2
FingerRearBlock
 70
    0
280
    1
281
    0
  0
BLOCK_RECORD
  5
CD
330
1
100
AcDbSymbolTableRecord
100
AcDbBlockTableRecord
  2
4"x4"FingerTube
 70
    0
280
    1
281
    0
  0
BLOCK_RECORD
  5
D0
330
1
100
AcDbSymbolTableRecord
100
AcDbBlockTableRecord
  2
4"x4"SideTube
 70
    0
280
    1
281
    0
  0
BLOCK_RECORD
  5
D3
330
1
100
AcDbSymbolTableRecord
100
AcDbBlockTableRecord
  2
1"BoltHeadSide
 70
    0
280
    1
281
    0
  0
BLOCK_RECORD
  5
D6
330
1
100
AcDbSymbolTableRecord
100
AcDbBlockTableRecord
  2
1"BoltHeadTop
 70
    0
280
    1
281
    0
  0
BLOCK_RECORD
  5
D9
330
1
100
AcDbSymbolTableRecord
100
AcDbBlockTableRecord
  2
OSESkidSteerPlateTop
 70
    0
280
    1
281
    0
  0
BLOCK_RECORD
  5
DC
330
1
100
AcDbSymbolTableRecord
100
AcDbBlockTableRecord
  2
OSEsideFingerPlate
 70
    0
280
    1
281
    0
  0
BLOCK_RECORD
  5
DF
330
1
100
AcDbSymbolTableRecord
100
AcDbBlockTableRecord
  2
1"NutSide
 70
    0
280
    1
281
    0
  0
BLOCK_RECORD
  5
E2
330
1
100
AcDbSymbolTableRecord
100
AcDbBlockTableRecord
  2
5/8"NutSide
 70
    0
280
    1
281
    0
  0
BLOCK_RECORD
  5
E5
330
1
100
AcDbSymbolTableRecord
100
AcDbBlockTableRecord
  2
5/8"ShaftCollar
 70
    0
280
    1
281
    0
  0
BLOCK_RECORD
  5
E8
330
1
100
AcDbSymbolTableRecord
100
AcDbBlockTableRecord
  2
5/8"ThreadedRod
 70
    0
280
    1
281
    0
  0
ENDTAB
  0
ENDSEC
  0
SECTION
  2
BLOCKS
  0
BLOCK
  5
20
330
1F
100
AcDbEntity
  8
0
100
AcDbBlockBegin
  2
*Model_Space
 70
    0
 10
0
 20
0
 30
0
  3
*Model_Space
  1

  0
ENDBLK
  5
21
330
1F
100
AcDbEntity
  8
0
100
AcDbBlockEnd
  0
BLOCK
  5
1C
330
1B
100
AcDbEntity
  8
0
100
AcDbBlockBegin
  2
*Paper_Space
 70
    0
 10
0
 20
0
 30
0
  3
*Paper_Space
  1

  0
ENDBLK
  5
1D
330
1F
100
AcDbEntity
  8
0
100
AcDbBlockEnd
  0
BLOCK
  5
59
330
58
100
AcDbEntity
  8
0
100
AcDbBlockBegin
  2
*D11
 70
    1
 10
0
 20
0
  3
*D11
  1

  0
LINE
  5
EB
100
AcDbEntity
  8
Bolts
  6
CONTINUOUS
 62
    7
370
    0
100
AcDbLine
 10
29.16875
 20
-5.191987298107781
 11
33.78202508020772
 21
-12.15521463166353
  0
LINE
  5
EC
100
AcDbEntity
  8
Bolts
  6
CONTINUOUS
 62
    7
370
    0
100
AcDbLine
 10
33.78202508020772
 20
-12.15521463166353
 11
49.56801810834217
 21
-12.15521463166353
  0
SOLID
  5
ED
100
AcDbEntity
  8
Bolts
  6
CONTINUOUS
 62
    7
370
    0
100
AcDbTrace
 10
29.16875
 20
-5.191987298107781
 30
0
 11
29.85986753975147
 21
-5.933663381620938
 31
0
 12
29.5822414927704
 22
-6.117596098851398
 32
0
 13
29.5822414927704
 23
-6.117596098851398
 33
0
  0
ENDBLK
  5
5A
330
58
100
AcDbEntity
  8
0
100
AcDbBlockEnd
  0
BLOCK
  5
5C
330
5B
100
AcDbEntity
  8
0
100
AcDbBlockBegin
  2
*D23
 70
    1
 10
0
 20
0
  3
*D23
  1

  0
LINE
  5
EE
100
AcDbEntity
  8
OSESkidSterrPlate_DIM
  6
CONTINUOUS
 62
    7
370
    0
100
AcDbLine
 10
61.46250000000001
 20
0
 11
46
 21
0
  0
SOLID
  5
EF
100
AcDbEntity
  8
OSESkidSterrPlate_DIM
  6
CONTINUOUS
 62
    7
370
    0
100
AcDbTrace
 10
61.46250000000001
 20
0
 30
0
 11
60.46250000000001
 21
-0.1665138631091362
 31
0
 12
60.46250000000001
 22
0.1665138631091362
 32
0
 13
60.46250000000001
 23
0.1665138631091362
 33
0
  0
ENDBLK
  5
5D
330
5B
100
AcDbEntity
  8
0
100
AcDbBlockEnd
  0
BLOCK
  5
5F
330
5E
100
AcDbEntity
  8
0
100
AcDbBlockBegin
  2
*D4
 70
    1
 10
0
 20
0
  3
*D4
  1

  0
LINE
  5
F0
100
AcDbEntity
  8
SAE_DIM
  6
ByBlock
 62
    0
370
   -2
100
AcDbLine
 10
-3.249999999999997
 20
-17.15127944162883
 11
-2.188364754717864
 21
-15.31247325769432
  0
LINE
  5
F1
100
AcDbEntity
  8
SAE_DIM
  6
ByBlock
 62
    0
370
   -2
100
AcDbLine
 10
11.77627944162882
 20
-13.125
 11
9.937473257694322
 21
-12.06336475471787
  0
ARC
  5
F2
100
AcDbEntity
  8
SAE_DIM
  6
ByBlock
 62
    0
370
   -2
100
AcDbCircle
 10
2.250000000000001
 20
-7.625
 40
7.876729509435735
100
AcDbArc
 50
240
 51
330
  0
SOLID
  5
F3
100
AcDbEntity
  8
SAE_DIM
  6
ByBlock
 62
    0
370
   -2
100
AcDbTrace
 10
-1.688364754717864
 20
-14.44644785390989
 30
0
 11
-0.7184243116170695
 21
-14.74130782651547
 31
0
 12
-0.8663073433193651
 22
-15.03970031195143
 32
0
 13
-0.8663073433193651
 23
-15.03970031195143
 33
0
  0
SOLID
  5
F4
100
AcDbEntity
  8
SAE_DIM
  6
ByBlock
 62
    0
370
   -2
100
AcDbTrace
 10
9.071447853909884
 20
-11.56336475471787
 30
0
 11
8.656151481290278
 21
-12.48816515993865
 31
0
 12
8.37888477632945
 22
-12.30369120310388
 32
0
 13
8.37888477632945
 23
-12.30369120310388
 33
0
  0
MTEXT
  5
F5
100
AcDbEntity
  8
SAE_DIM
  6
CONTINUOUS
 62
    0
370
   -2
100
AcDbMText
 10
4.029828565060481
 20
-14.26741063356813
 30
0
 40
1
 41
1.888888888888951
 71
    8
 72
    1
  1
90%%D
  7
standard
210
0
220
0
230
1
 50
14.99999999999997
 73
    2
 44
1
  0
ENDBLK
  5
60
330
5E
100
AcDbEntity
  8
0
100
AcDbBlockEnd
  0
BLOCK
  5
62
330
61
100
AcDbEntity
  8
0
100
AcDbBlockBegin
  2
*D5
 70
    1
 10
0
 20
0
  3
*D5
  1

  0
LINE
  5
F6
100
AcDbEntity
  8
SAE_DIM
  6
ByBlock
 62
    0
370
   -2
100
AcDbLine
 10
30.8
 20
-16
 11
58.2
 21
-16
  0
SOLID
  5
F7
100
AcDbEntity
  8
SAE_DIM
  6
ByBlock
 62
    0
370
   -2
100
AcDbTrace
 10
30.8
 20
-16
 30
0
 11
31.8
 21
-15.83348613689086
 31
0
 12
31.8
 22
-16.16651386310914
 32
0
 13
31.8
 23
-16.16651386310914
 33
0
  0
SOLID
  5
F8
100
AcDbEntity
  8
SAE_DIM
  6
ByBlock
 62
    0
370
   -2
100
AcDbTrace
 10
58.2
 20
-16
 30
0
 11
57.2
 21
-16.16651386310913
 31
0
 12
57.2
 22
-15.83348613689086
 32
0
 13
57.2
 23
-15.83348613689086
 33
0
  0
MTEXT
  5
F9
100
AcDbEntity
  8
SAE_DIM
  6
CONTINUOUS
 62
    0
370
   -2
100
AcDbMText
 10
44.5
 20
-14.5
 30
0
 40
1
 41
3.222222222222222
 71
    5
 72
    1
  1
27.40
  7
standard
210
0
220
0
230
1
 50
0
 73
    2
 44
1
  0
LINE
  5
FA
100
AcDbEntity
  8
SAE_DIM
  6
ByBlock
 62
    0
370
   -2
100
AcDbLine
 10
30.8
 20
-15
 11
30.8
 21
-15
  0
LINE
  5
FB
100
AcDbEntity
  8
SAE_DIM
  6
ByBlock
 62
    0
370
   -2
100
AcDbLine
 10
58.2
 20
-15
 11
58.2
 21
-15
  0
ENDBLK
  5
63
330
61
100
AcDbEntity
  8
0
100
AcDbBlockEnd
  0
BLOCK
  5
65
330
64
100
AcDbEntity
  8
0
100
AcDbBlockBegin
  2
*D13
 70
    1
 10
0
 20
0
  3
*D13
  1

  0
LINE
  5
FC
100
AcDbEntity
  8
OSEFingerPlate_DIM
  6
CONTINUOUS
 62
    7
370
    0
100
AcDbLine
 10
24
 20
7
 11
20
 21
10
  0
SOLID
  5
FD
100
AcDbEntity
  8
OSEFingerPlate_DIM
  6
CONTINUOUS
 62
    7
370
    0
100
AcDbTrace
 10
24
 20
7
 30
0
 11
23.10009168213452
 21
7.466788909512691
 31
0
 12
23.29990831786548
 22
7.733211090487309
 32
0
 13
23.29990831786548
 23
7.733211090487309
 33
0
  0
ENDBLK
  5
66
330
64
100
AcDbEntity
  8
0
100
AcDbBlockEnd
  0
BLOCK
  5
68
330
67
100
AcDbEntity
  8
0
100
AcDbBlockBegin
  2
*D19
 70
    1
 10
0
 20
0
  3
*D19
  1

  0
LINE
  5
FE
100
AcDbEntity
  8
OSEFingerPlate_DIM
  6
CONTINUOUS
 62
    7
370
    0
100
AcDbLine
 10
1
 20
1
 11
-13
 21
1
  0
SOLID
  5
FF
100
AcDbEntity
  8
OSEFingerPlate_DIM
  6
CONTINUOUS
 62
    7
370
    0
100
AcDbTrace
 10
1
 20
1
 30
0
 11
0
 21
0.8334861368908638
 31
0
 12
0
 22
1.166513863109136
 32
0
 13
0
 23
1.166513863109136
 33
0
  0
ENDBLK
  5
69
330
67
100
AcDbEntity
  8
0
100
AcDbBlockEnd
  0
BLOCK
  5
6B
330
6A
100
AcDbEntity
  8
0
100
AcDbBlockBegin
  2
*D34
 70
    1
 10
0
 20
0
  3
*D34
  1

  0
LINE
  5
100
100
AcDbEntity
  8
0
  6
ByBlock
 62
    0
370
   -2
100
AcDbLine
 10
28.67185352025711
 20
-21.08225304709553
 11
28.47419637004014
 21
-34.51062246203207
  0
LINE
  5
101
100
AcDbEntity
  8
0
  6
ByBlock
 62
    0
370
   -2
100
AcDbLine
 10
60.14630879308186
 20
-21.54553722863867
 11
59.94865164286488
 21
-34.97390664357522
  0
LINE
  5
102
100
AcDbEntity
  8
0
  6
ByBlock
 62
    0
370
   -2
100
AcDbLine
 10
28.48891414666673
 20
-33.51073077437227
 11
59.96336941949148
 21
-33.97401495591541
  0
SOLID
  5
103
100
AcDbEntity
  8
0
  6
ByBlock
 62
    0
370
   -2
100
AcDbTrace
 10
28.48891414666673
 20
-33.51073077437227
 30
0
 11
29.49125654816901
 21
-33.35895272339592
 31
0
 12
29.48635512048406
 22
-33.69194437860182
 32
0
 13
29.48635512048406
 23
-33.69194437860182
 33
0
  0
SOLID
  5
104
100
AcDbEntity
  8
0
  6
ByBlock
 62
    0
370
   -2
100
AcDbTrace
 10
59.96336941949148
 20
-33.97401495591541
 30
0
 11
58.9610270179892
 21
-34.12579300689176
 31
0
 12
58.96592844567414
 22
-33.79280135168587
 32
0
 13
58.96592844567414
 23
-33.79280135168587
 33
0
  0
MTEXT
  5
105
100
AcDbEntity
  8
0
  6
CONTINUOUS
 62
    0
370
   -2
100
AcDbMText
 10
44.248218448019
 20
-32.24253533365414
 30
0
 40
1
 41
3.000000000000062
 71
    5
 72
    1
  1
31.48
  7
standard
210
0
220
0
230
1
 50
359.1567030687718
 73
    2
 44
1
  0
ENDBLK
  5
6C
330
6A
100
AcDbEntity
  8
0
100
AcDbBlockEnd
  0
BLOCK
  5
6E
330
6D
100
AcDbEntity
  8
0
100
AcDbBlockBegin
  2
*D30
 70
    1
 10
0
 20
0
  3
*D30
  1

  0
LINE
  5
106
100
AcDbEntity
  8
OSELatch_DIM
  6
CONTINUOUS
 62
    7
370
    0
100
AcDbLine
 10
92.4616046798146
 20
-6.026696246421112
 11
95
 21
-6
  0
SOLID
  5
107
100
AcDbEntity
  8
OSELatch_DIM
  6
CONTINUOUS
 62
    7
370
    0
100
AcDbTrace
 10
92.4616046798146
 20
-6.026696246421112
 30
0
 11
93.4597982552861
 21
-5.849675195427301
 31
0
 12
93.46330050670231
 22
-6.182684505605154
 32
0
 13
93.46330050670231
 23
-6.182684505605154
 33
0
  0
ENDBLK
  5
6F
330
6D
100
AcDbEntity
  8
0
100
AcDbBlockEnd
  0
BLOCK
  5
71
330
70
100
AcDbEntity
  8
0
100
AcDbBlockBegin
  2
*D12
 70
    1
 10
0
 20
0
  3
*D12
  1

  0
LINE
  5
108
100
AcDbEntity
  8
Bolts
  6
CONTINUOUS
 62
    7
370
    0
100
AcDbLine
 10
59.83120000000001
 20
4.899999999999999
 11
56.53202610878235
 21
-12.15521463166352
  0
LINE
  5
109
100
AcDbEntity
  8
Bolts
  6
CONTINUOUS
 62
    7
370
    0
100
AcDbLine
 10
56.53202610878235
 20
-12.15521463166352
 11
49.56801810834217
 21
-12.15521463166353
  0
SOLID
  5
10A
100
AcDbEntity
  8
Bolts
  6
CONTINUOUS
 62
    7
370
    0
100
AcDbTrace
 10
59.83120000000001
 20
4.899999999999999
 30
0
 11
59.80476317243432
 21
3.886576119900566
 31
0
 12
59.47779669853922
 22
3.949824767148638
 32
0
 13
59.47779669853922
 23
3.949824767148638
 33
0
  0
ENDBLK
  5
72
330
70
100
AcDbEntity
  8
0
100
AcDbBlockEnd
  0
BLOCK
  5
74
330
73
100
AcDbEntity
  8
0
100
AcDbBlockBegin
  2
*D7
 70
    1
 10
0
 20
0
  3
*D7
  1

  0
LINE
  5
10B
100
AcDbEntity
  8
SAE_DIM
  6
ByBlock
 62
    0
370
   -2
100
AcDbLine
 10
22.5
 20
-24
 11
66.5
 21
-24
  0
SOLID
  5
10C
100
AcDbEntity
  8
SAE_DIM
  6
ByBlock
 62
    0
370
   -2
100
AcDbTrace
 10
22.5
 20
-24
 30
0
 11
23.5
 21
-23.83348613689087
 31
0
 12
23.5
 22
-24.16651386310914
 32
0
 13
23.5
 23
-24.16651386310914
 33
0
  0
SOLID
  5
10D
100
AcDbEntity
  8
SAE_DIM
  6
ByBlock
 62
    0
370
   -2
100
AcDbTrace
 10
66.5
 20
-24
 30
0
 11
65.5
 21
-24.16651386310913
 31
0
 12
65.5
 22
-23.83348613689087
 32
0
 13
65.5
 23
-23.83348613689087
 33
0
  0
MTEXT
  5
10E
100
AcDbEntity
  8
SAE_DIM
  6
CONTINUOUS
 62
    0
370
   -2
100
AcDbMText
 10
44.5
 20
-22.5
 30
0
 40
1
 41
3.333333333333333
 71
    5
 72
    1
  1
44.00
  7
standard
210
0
220
0
230
1
 50
0
 73
    2
 44
1
  0
LINE
  5
10F
100
AcDbEntity
  8
SAE_DIM
  6
ByBlock
 62
    0
370
   -2
100
AcDbLine
 10
22.5
 20
-23
 11
22.5
 21
-23
  0
LINE
  5
110
100
AcDbEntity
  8
SAE_DIM
  6
ByBlock
 62
    0
370
   -2
100
AcDbLine
 10
66.5
 20
-23
 11
66.5
 21
-23
  0
ENDBLK
  5
75
330
73
100
AcDbEntity
  8
0
100
AcDbBlockEnd
  0
BLOCK
  5
77
330
76
100
AcDbEntity
  8
0
100
AcDbBlockBegin
  2
*D37
 70
    1
 10
0
 20
0
  3
*D37
  1

  0
LINE
  5
111
100
AcDbEntity
  8
0
  6
ByBlock
 62
    0
370
   -2
100
AcDbLine
 10
0.9992215062902392
 20
-7.904399227426124
 11
0.9992215062902383
 21
-13.17552542066868
  0
LINE
  5
112
100
AcDbEntity
  8
0
  6
ByBlock
 62
    0
370
   -2
100
AcDbLine
 10
11.77627944162882
 20
-13.12500000000001
 11
6.431506771795501
 21
-10.03919406031438
  0
ARC
  5
113
100
AcDbEntity
  8
0
  6
ByBlock
 62
    0
370
   -2
100
AcDbCircle
 10
0.9992215062902394
 20
-6.902862699960075
 40
5.272662720708602
100
AcDbArc
 50
270
 51
330
  0
SOLID
  5
114
100
AcDbEntity
  8
0
  6
ByBlock
 62
    0
370
   -2
100
AcDbTrace
 10
0.9992215062902384
 20
-12.17552542066868
 30
0
 11
1.978961983036303
 21
-11.91507299731093
 31
0
 12
2.01049527497833
 22
-12.24660447082349
 32
0
 13
2.01049527497833
 23
-12.24660447082349
 33
0
  0
SOLID
  5
115
100
AcDbEntity
  8
0
  6
ByBlock
 62
    0
370
   -2
100
AcDbTrace
 10
5.565481368011062
 20
-9.539194060314378
 30
0
 11
5.121400746777955
 21
-10.4505223592565
 31
0
 12
4.850052714533001
 22
-10.25744799061347
 32
0
 13
4.850052714533001
 23
-10.25744799061347
 33
0
  0
MTEXT
  5
116
100
AcDbEntity
  8
0
  6
CONTINUOUS
 62
    0
370
   -2
100
AcDbMText
 10
3.135552866644537
 20
-10.60309715789646
 30
0
 40
1
 41
1.888888888888951
 71
    8
 72
    1
  1
60%%D
  7
standard
210
0
220
0
230
1
 50
29.99999999999996
 73
    2
 44
1
  0
ENDBLK
  5
78
330
76
100
AcDbEntity
  8
0
100
AcDbBlockEnd
  0
BLOCK
  5
7A
330
79
100
AcDbEntity
  8
0
100
AcDbBlockBegin
  2
*D3
 70
    1
 10
0
 20
0
  3
*D3
  1

  0
LINE
  5
117
100
AcDbEntity
  8
SAE_DIM
  6
ByBlock
 62
    0
370
   -2
100
AcDbLine
 10
0.9999999999999963
 20
-10.79006350946109
 11
0.9999999999999992
 21
4.456493002338535
  0
LINE
  5
118
100
AcDbEntity
  8
SAE_DIM
  6
ByBlock
 62
    0
370
   -2
100
AcDbLine
 10
5.316038802031906
 20
4.832049777246015
 11
4.268325416535061
 21
5.843814832835434
  0
ARC
  5
119
100
AcDbEntity
  8
SAE_DIM
  6
ByBlock
 62
    0
370
   -2
100
AcDbCircle
 10
1
 20
9
 40
3.543506997661465
100
AcDbArc
 50
270
 51
316
  0
SOLID
  5
11A
100
AcDbEntity
  8
SAE_DIM
  6
ByBlock
 62
    0
370
   -2
100
AcDbTrace
 10
0.9999999999999993
 20
5.456493002338535
 30
0
 11
1.966643715228876
 21
5.761987346665958
 31
0
 12
2.013479198205475
 22
5.432269430919086
 32
0
 13
2.013479198205475
 23
5.432269430919086
 33
0
  0
SOLID
  5
11B
100
AcDbEntity
  8
SAE_DIM
  6
ByBlock
 62
    0
370
   -2
100
AcDbTrace
 10
3.54898561619641
 20
6.538473203294432
 30
0
 11
2.862388786905257
 21
5.792610172560998
 31
0
 12
2.657744227508011
 22
6.055342109598009
 32
0
 13
2.657744227508011
 23
6.055342109598009
 33
0
  0
MTEXT
  5
11C
100
AcDbEntity
  8
SAE_DIM
  6
CONTINUOUS
 62
    0
370
   -2
100
AcDbMText
 10
1.993827359516628
 20
6.658689463862376
 30
0
 40
1
 41
2.000000000000062
 71
    8
 72
    1
  1
46%%D
  7
standard
210
0
220
0
230
1
 50
22.99999999999998
 73
    2
 44
1
  0
ENDBLK
  5
7B
330
79
100
AcDbEntity
  8
0
100
AcDbBlockEnd
  0
BLOCK
  5
7D
330
7C
100
AcDbEntity
  8
0
100
AcDbBlockBegin
  2
*D20
 70
    1
 10
0
 20
0
  3
*D20
  1

  0
LINE
  5
11D
100
AcDbEntity
  8
OSEFingerPlate_DIM
  6
ByBlock
 62
    0
370
   -2
100
AcDbLine
 10
60.72500000000002
 20
10
 11
60.72500000000002
 21
11
  0
LINE
  5
11E
100
AcDbEntity
  8
OSEFingerPlate_DIM
  6
ByBlock
 62
    0
370
   -2
100
AcDbLine
 10
66.5
 20
9.999999999999996
 11
66.5
 21
11
  0
LINE
  5
11F
100
AcDbEntity
  8
OSEFingerPlate_DIM
  6
ByBlock
 62
    0
370
   -2
100
AcDbLine
 10
60.72500000000002
 20
10
 11
66.5
 21
9.999999999999996
  0
SOLID
  5
120
100
AcDbEntity
  8
OSEFingerPlate_DIM
  6
ByBlock
 62
    0
370
   -2
100
AcDbTrace
 10
60.72500000000002
 20
10
 30
0
 11
61.72500000000002
 21
10.16651386310914
 31
0
 12
61.72500000000002
 22
9.833486136890865
 32
0
 13
61.72500000000002
 23
9.833486136890865
 33
0
  0
SOLID
  5
121
100
AcDbEntity
  8
OSEFingerPlate_DIM
  6
ByBlock
 62
    0
370
   -2
100
AcDbTrace
 10
66.5
 20
9.999999999999996
 30
0
 11
65.5
 21
9.833486136890862
 31
0
 12
65.5
 22
10.16651386310913
 32
0
 13
65.5
 23
10.16651386310913
 33
0
  0
MTEXT
  5
122
100
AcDbEntity
  8
OSEFingerPlate_DIM
  6
CONTINUOUS
 62
    0
370
   -2
100
AcDbMText
 10
63.61250000000001
 20
11.5
 30
0
 40
1
 41
2.333333333333395
 71
    5
 72
    1
  1
5.77
  7
standard
210
0
220
0
230
1
 50
359.9999999999999
 73
    2
 44
1
  0
ENDBLK
  5
7E
330
7C
100
AcDbEntity
  8
0
100
AcDbBlockEnd
  0
BLOCK
  5
80
330
7F
100
AcDbEntity
  8
0
100
AcDbBlockBegin
  2
*D36
 70
    1
 10
0
 20
0
  3
*D36
  1

  0
LINE
  5
123
100
AcDbEntity
  8
0
  6
ByBlock
 62
    0
370
   -2
100
AcDbLine
 10
87.47682445866207
 20
8.986233911753287
 11
86.32902121340275
 21
8.987334827013395
  0
LINE
  5
124
100
AcDbEntity
  8
0
  6
ByBlock
 62
    0
370
   -2
100
AcDbLine
 10
87.46159578349965
 20
-6.891030584242417
 11
86.31379253824034
 21
-6.889929668982308
  0
LINE
  5
125
100
AcDbEntity
  8
0
  6
ByBlock
 62
    0
370
   -2
100
AcDbLine
 10
87.3290207534189
 20
8.986375677648509
 11
87.31379207825648
 21
-6.890888818347195
  0
SOLID
  5
126
100
AcDbEntity
  8
0
  6
ByBlock
 62
    0
370
   -2
100
AcDbTrace
 10
87.3290207534189
 20
8.986375677648509
 30
0
 11
87.49457539056947
 21
7.986216425966321
 31
0
 12
87.16154781753856
 22
7.986535849298413
 32
0
 13
87.16154781753856
 23
7.986535849298413
 33
0
  0
SOLID
  5
127
100
AcDbEntity
  8
0
  6
ByBlock
 62
    0
370
   -2
100
AcDbTrace
 10
87.31379207825648
 20
-6.890888818347195
 30
0
 11
87.14823744110592
 21
-5.890729566665007
 31
0
 12
87.48126501413682
 22
-5.891048989997099
 32
0
 13
87.48126501413682
 23
-5.891048989997099
 33
0
  0
MTEXT
  5
128
100
AcDbEntity
  8
0
  6
CONTINUOUS
 62
    0
370
   -2
100
AcDbMText
 10
85.82140710581348
 20
1.049182153697987
 30
0
 40
1
 41
2.888888888888951
 71
    5
 72
    1
  1
15.88
  7
standard
210
0
220
0
230
1
 50
89.94504478104317
 73
    2
 44
1
  0
ENDBLK
  5
81
330
7F
100
AcDbEntity
  8
0
100
AcDbBlockEnd
  0
BLOCK
  5
83
330
82
100
AcDbEntity
  8
0
100
AcDbBlockBegin
  2
*D15
 70
    1
 10
0
 20
0
  3
*D15
  1

  0
LINE
  5
129
100
AcDbEntity
  8
OSEFingerPlate_DIM
  6
CONTINUOUS
 62
    7
370
    0
100
AcDbLine
 10
59.72499999999999
 20
-6.191987298107784
 11
54
 21
-10
  0
SOLID
  5
12A
100
AcDbEntity
  8
OSEFingerPlate_DIM
  6
CONTINUOUS
 62
    7
370
    0
100
AcDbTrace
 10
59.72499999999999
 20
-6.191987298107784
 30
0
 11
58.98458939430369
 21
-6.884460403419437
 31
0
 12
58.80014913328661
 22
-6.607171282561692
 32
0
 13
58.80014913328661
 23
-6.607171282561692
 33
0
  0
ENDBLK
  5
84
330
82
100
AcDbEntity
  8
0
100
AcDbBlockEnd
  0
BLOCK
  5
86
330
85
100
AcDbEntity
  8
0
100
AcDbBlockBegin
  2
*D28
 70
    1
 10
0
 20
0
  3
*D28
  1

  0
LINE
  5
12B
100
AcDbEntity
  8
OSELatch_DIM
  6
CONTINUOUS
 62
    7
370
    0
100
AcDbLine
 10
89.50000467981461
 20
-5.974290192104391
 11
90
 21
-6
  0
LINE
  5
12C
100
AcDbEntity
  8
OSELatch_DIM
  6
CONTINUOUS
 62
    7
370
    0
100
AcDbLine
 10
90
 20
-6
 11
90
 21
-16
  0
LINE
  5
12D
100
AcDbEntity
  8
OSELatch_DIM
  6
CONTINUOUS
 62
    7
370
    0
100
AcDbLine
 10
90
 20
-16
 11
72
 21
-16
  0
SOLID
  5
12E
100
AcDbEntity
  8
OSELatch_DIM
  6
CONTINUOUS
 62
    7
370
    0
100
AcDbTrace
 10
89.50000467981461
 20
-5.974290192104391
 30
0
 11
90.50723614455244
 21
-5.859348280472391
 31
0
 12
90.49013442032545
 22
-6.191936610782665
 32
0
 13
90.49013442032545
 23
-6.191936610782665
 33
0
  0
ENDBLK
  5
87
330
85
100
AcDbEntity
  8
0
100
AcDbBlockEnd
  0
BLOCK
  5
89
330
88
100
AcDbEntity
  8
0
100
AcDbBlockBegin
  2
*D18
 70
    1
 10
0
 20
0
  3
*D18
  1

  0
LINE
  5
12F
100
AcDbEntity
  8
OSEFingerPlate_DIM
  6
CONTINUOUS
 62
    7
370
    0
100
AcDbLine
 10
23.30848552550406
 20
-8.058012999999999
 11
20
 21
-13
  0
SOLID
  5
130
100
AcDbEntity
  8
OSEFingerPlate_DIM
  6
CONTINUOUS
 62
    7
370
    0
100
AcDbTrace
 10
23.30848552550406
 20
-8.058012999999999
 30
0
 11
22.89054568546046
 21
-8.981621768208626
 31
0
 12
22.61380775747296
 22
-8.79635551212486
 32
0
 13
22.61380775747296
 23
-8.79635551212486
 33
0
  0
ENDBLK
  5
8A
330
88
100
AcDbEntity
  8
0
100
AcDbBlockEnd
  0
BLOCK
  5
8C
330
8B
100
AcDbEntity
  8
0
100
AcDbBlockBegin
  2
*D33
 70
    1
 10
0
 20
0
  3
*D33
  1

  0
LINE
  5
131
100
AcDbEntity
  8
OSELatch_DIM
  6
CONTINUOUS
 62
    7
370
    0
100
AcDbLine
 10
102
 20
-1
 11
122
 21
-1
  0
SOLID
  5
132
100
AcDbEntity
  8
OSELatch_DIM
  6
CONTINUOUS
 62
    7
370
    0
100
AcDbTrace
 10
102
 20
-1
 30
0
 11
103
 21
-0.8334861368908639
 31
0
 12
103
 22
-1.166513863109136
 32
0
 13
103
 23
-1.166513863109136
 33
0
  0
ENDBLK
  5
8D
330
8B
100
AcDbEntity
  8
0
100
AcDbBlockEnd
  0
BLOCK
  5
8F
330
8E
100
AcDbEntity
  8
0
100
AcDbBlockBegin
  2
*D21
 70
    1
 10
0
 20
0
  3
*D21
  1

  0
LINE
  5
133
100
AcDbEntity
  8
OSEFingerPlate_DIM
  6
ByBlock
 62
    0
370
   -2
100
AcDbLine
 10
0
 20
9
 11
-2.000000000000002
 21
9.000000000000002
  0
LINE
  5
134
100
AcDbEntity
  8
OSEFingerPlate_DIM
  6
ByBlock
 62
    0
370
   -2
100
AcDbLine
 10
2.220446049250313e-16
 20
-6.903312163512967
 11
-2.000000000000002
 21
-6.903312163512966
  0
LINE
  5
135
100
AcDbEntity
  8
OSEFingerPlate_DIM
  6
ByBlock
 62
    0
370
   -2
100
AcDbLine
 10
-1.000000000000002
 20
9.000000000000002
 11
-1.000000000000002
 21
-6.903312163512967
  0
SOLID
  5
136
100
AcDbEntity
  8
OSEFingerPlate_DIM
  6
ByBlock
 62
    0
370
   -2
100
AcDbTrace
 10
-1.000000000000002
 20
9.000000000000002
 30
0
 11
-0.8334861368908657
 21
8.000000000000002
 31
0
 12
-1.166513863109138
 22
8.000000000000002
 32
0
 13
-1.166513863109138
 23
8.000000000000002
 33
0
  0
SOLID
  5
137
100
AcDbEntity
  8
OSEFingerPlate_DIM
  6
ByBlock
 62
    0
370
   -2
100
AcDbTrace
 10
-1.000000000000002
 20
-6.903312163512967
 30
0
 11
-1.166513863109138
 21
-5.903312163512967
 31
0
 12
-0.8334861368908653
 22
-5.903312163512967
 32
0
 13
-0.8334861368908653
 23
-5.903312163512967
 33
0
  0
MTEXT
  5
138
100
AcDbEntity
  8
OSEFingerPlate_DIM
  6
CONTINUOUS
 62
    0
370
   -2
100
AcDbMText
 10
-2.500000000000002
 20
1.048343918243517
 30
0
 40
1
 41
2.888888888888951
 71
    5
 72
    1
  1
15.90
  7
standard
210
0
220
0
230
1
 50
90
 73
    2
 44
1
  0
ENDBLK
  5
90
330
8E
100
AcDbEntity
  8
0
100
AcDbBlockEnd
  0
BLOCK
  5
92
330
91
100
AcDbEntity
  8
0
100
AcDbBlockBegin
  2
*D14
 70
    1
 10
0
 20
0
  3
*D14
  1

  0
LINE
  5
139
100
AcDbEntity
  8
OSEFingerPlate_DIM
  6
CONTINUOUS
 62
    7
370
    0
100
AcDbLine
 10
29.275
 20
-6.19199
 11
37
 21
-10
  0
LINE
  5
13A
100
AcDbEntity
  8
OSEFingerPlate_DIM
  6
CONTINUOUS
 62
    7
370
    0
100
AcDbLine
 10
37
 20
-10
 11
54
 21
-10
  0
SOLID
  5
13B
100
AcDbEntity
  8
OSEFingerPlate_DIM
  6
CONTINUOUS
 62
    7
370
    0
100
AcDbTrace
 10
29.275
 20
-6.19199
 30
0
 11
30.24556685854438
 21
-6.48478146111666
 31
0
 12
30.0983203136599
 22
-6.783488544142319
 32
0
 13
30.0983203136599
 23
-6.783488544142319
 33
0
  0
ENDBLK
  5
93
330
91
100
AcDbEntity
  8
0
100
AcDbBlockEnd
  0
BLOCK
  5
95
330
94
100
AcDbEntity
  8
0
100
AcDbBlockBegin
  2
*D35
 70
    1
 10
0
 20
0
  3
*D35
  1

  0
LINE
  5
13C
100
AcDbEntity
  8
0
  6
ByBlock
 62
    0
370
   -2
100
AcDbLine
 10
93.46160340250859
 20
5.167093046514707
 11
98.00125128378426
 21
5.158471117944337
  0
LINE
  5
13D
100
AcDbEntity
  8
0
  6
ByBlock
 62
    0
370
   -2
100
AcDbLine
 10
93.43648200545414
 20
-8.059912487359702
 11
97.97612988672981
 21
-8.068534415930072
  0
LINE
  5
13E
100
AcDbEntity
  8
0
  6
ByBlock
 62
    0
370
   -2
100
AcDbLine
 10
97.00125308735564
 20
5.160370365032567
 11
96.97613169030119
 21
-8.066635168841842
  0
SOLID
  5
13F
100
AcDbEntity
  8
0
  6
ByBlock
 62
    0
370
   -2
100
AcDbTrace
 10
97.00125308735564
 20
5.160370365032567
 30
0
 11
97.16586740305691
 21
4.160055917634285
 31
0
 12
96.83284027747791
 22
4.160688419573605
 32
0
 13
96.83284027747791
 23
4.160688419573605
 33
0
  0
SOLID
  5
140
100
AcDbEntity
  8
0
  6
ByBlock
 62
    0
370
   -2
100
AcDbTrace
 10
96.97613169030119
 20
-8.066635168841842
 30
0
 11
96.81151737459992
 21
-7.066320721443559
 31
0
 12
97.14454450017892
 22
-7.066953223382879
 32
0
 13
97.14454450017892
 23
-7.066953223382879
 33
0
  0
MTEXT
  5
141
100
AcDbEntity
  8
0
  6
CONTINUOUS
 62
    0
370
   -2
100
AcDbMText
 10
95.48869509418547
 20
-1.450283531272291
 30
0
 40
1
 41
2.888888888889013
 71
    5
 72
    1
  1
13.23
  7
standard
210
0
220
0
230
1
 50
89.89118109217097
 73
    2
 44
1
  0
ENDBLK
  5
96
330
94
100
AcDbEntity
  8
0
100
AcDbBlockEnd
  0
BLOCK
  5
98
330
97
100
AcDbEntity
  8
0
100
AcDbBlockBegin
  2
*D17
 70
    1
 10
0
 20
0
  3
*D17
  1

  0
LINE
  5
142
100
AcDbEntity
  8
OSEFingerPlate_DIM
  6
CONTINUOUS
 62
    7
370
    0
100
AcDbLine
 10
1.158451075179292
 20
-6.994793934421118
 11
5
 21
-13
  0
LINE
  5
143
100
AcDbEntity
  8
OSEFingerPlate_DIM
  6
CONTINUOUS
 62
    7
370
    0
100
AcDbLine
 10
5
 20
-13
 11
20
 21
-13
  0
SOLID
  5
144
100
AcDbEntity
  8
OSEFingerPlate_DIM
  6
CONTINUOUS
 62
    7
370
    0
100
AcDbTrace
 10
1.158451075179292
 20
-6.994793934421118
 30
0
 11
1.83759609952199
 21
-7.747448504936759
 31
0
 12
1.557058559238973
 22
-7.926909238586402
 32
0
 13
1.557058559238973
 23
-7.926909238586402
 33
0
  0
ENDBLK
  5
99
330
97
100
AcDbEntity
  8
0
100
AcDbBlockEnd
  0
BLOCK
  5
9B
330
9A
100
AcDbEntity
  8
0
100
AcDbBlockBegin
  2
*D24
 70
    1
 10
0
 20
0
  3
*D24
  1

  0
LINE
  5
145
100
AcDbEntity
  8
OSESkidSterrPlate_DIM
  6
ByBlock
 62
    0
370
   -2
100
AcDbLine
 10
22.775
 20
6.900000000000001
 11
21
 21
6.900000000000002
  0
LINE
  5
146
100
AcDbEntity
  8
OSESkidSterrPlate_DIM
  6
ByBlock
 62
    0
370
   -2
100
AcDbLine
 10
22.775
 20
-7.191987298107779
 11
21
 21
-7.191987298107779
  0
LINE
  5
147
100
AcDbEntity
  8
OSESkidSterrPlate_DIM
  6
ByBlock
 62
    0
370
   -2
100
AcDbLine
 10
22
 20
6.900000000000001
 11
22
 21
-7.191987298107779
  0
SOLID
  5
148
100
AcDbEntity
  8
OSESkidSterrPlate_DIM
  6
ByBlock
 62
    0
370
   -2
100
AcDbTrace
 10
22
 20
6.900000000000001
 30
0
 11
22.16651386310913
 21
5.900000000000001
 31
0
 12
21.83348613689087
 22
5.900000000000001
 32
0
 13
21.83348613689087
 23
5.900000000000001
 33
0
  0
SOLID
  5
149
100
AcDbEntity
  8
OSESkidSterrPlate_DIM
  6
ByBlock
 62
    0
370
   -2
100
AcDbTrace
 10
22
 20
-7.191987298107779
 30
0
 11
21.83348613689087
 21
-6.191987298107779
 31
0
 12
22.16651386310914
 22
-6.191987298107779
 32
0
 13
22.16651386310914
 23
-6.191987298107779
 33
0
  0
MTEXT
  5
14A
100
AcDbEntity
  8
OSESkidSterrPlate_DIM
  6
CONTINUOUS
 62
    0
370
   -2
100
AcDbMText
 10
20.5
 20
-0.1459936490538889
 30
0
 40
1
 41
3
 71
    5
 72
    1
  1
14.09
  7
standard
210
0
220
0
230
1
 50
90
 73
    2
 44
1
  0
ENDBLK
  5
9C
330
9A
100
AcDbEntity
  8
0
100
AcDbBlockEnd
  0
BLOCK
  5
9E
330
9D
100
AcDbEntity
  8
0
100
AcDbBlockBegin
  2
*D10
 70
    1
 10
0
 20
0
  3
*D10
  1

  0
LINE
  5
14B
100
AcDbEntity
  8
SAE_DIM
  6
ByBlock
 62
    0
370
   -2
100
AcDbLine
 10
60.225
 20
-6
 11
66.5
 21
-6
  0
SOLID
  5
14C
100
AcDbEntity
  8
SAE_DIM
  6
ByBlock
 62
    0
370
   -2
100
AcDbTrace
 10
60.225
 20
-6
 30
0
 11
61.225
 21
-5.833486136890864
 31
0
 12
61.225
 22
-6.166513863109136
 32
0
 13
61.225
 23
-6.166513863109136
 33
0
  0
SOLID
  5
14D
100
AcDbEntity
  8
SAE_DIM
  6
ByBlock
 62
    0
370
   -2
100
AcDbTrace
 10
66.5
 20
-6
 30
0
 11
65.5
 21
-6.166513863109136
 31
0
 12
65.5
 22
-5.833486136890864
 32
0
 13
65.5
 23
-5.833486136890864
 33
0
  0
MTEXT
  5
14E
100
AcDbEntity
  8
SAE_DIM
  6
CONTINUOUS
 62
    0
370
   -2
100
AcDbMText
 10
63.3625
 20
-4.5
 30
0
 40
1
 41
2.333333333333395
 71
    5
 72
    1
  1
6.27
  7
standard
210
0
220
0
230
1
 50
0
 73
    2
 44
1
  0
LINE
  5
14F
100
AcDbEntity
  8
SAE_DIM
  6
ByBlock
 62
    0
370
   -2
100
AcDbLine
 10
60.225
 20
-5
 11
60.225
 21
-5
  0
LINE
  5
150
100
AcDbEntity
  8
SAE_DIM
  6
ByBlock
 62
    0
370
   -2
100
AcDbLine
 10
66.5
 20
-5
 11
66.5
 21
-5
  0
ENDBLK
  5
9F
330
9D
100
AcDbEntity
  8
0
100
AcDbBlockEnd
  0
BLOCK
  5
A1
330
A0
100
AcDbEntity
  8
0
100
AcDbBlockBegin
  2
*D9
 70
    1
 10
0
 20
0
  3
*D9
  1

  0
LINE
  5
151
100
AcDbEntity
  8
SAE_DIM
  6
ByBlock
 62
    0
370
   -2
100
AcDbLine
 10
-3.886111100669111
 20
-6.903312163512968
 11
-3.88611110066911
 21
9.000000000000002
  0
SOLID
  5
152
100
AcDbEntity
  8
SAE_DIM
  6
ByBlock
 62
    0
370
   -2
100
AcDbTrace
 10
-3.886111100669111
 20
-6.903312163512968
 30
0
 11
-4.052624963778247
 21
-5.903312163512968
 31
0
 12
-3.719597237559975
 22
-5.903312163512968
 32
0
 13
-3.719597237559975
 23
-5.903312163512968
 33
0
  0
SOLID
  5
153
100
AcDbEntity
  8
SAE_DIM
  6
ByBlock
 62
    0
370
   -2
100
AcDbTrace
 10
-3.88611110066911
 20
9.000000000000002
 30
0
 11
-3.719597237559974
 21
8.000000000000002
 31
0
 12
-4.052624963778246
 22
8.000000000000002
 32
0
 13
-4.052624963778246
 23
8.000000000000002
 33
0
  0
MTEXT
  5
154
100
AcDbEntity
  8
SAE_DIM
  6
CONTINUOUS
 62
    0
370
   -2
100
AcDbMText
 10
-5.38611110066911
 20
1.048343918243517
 30
0
 40
1
 41
2.888888888888951
 71
    5
 72
    1
  1
15.90
  7
standard
210
0
220
0
230
1
 50
90
 73
    2
 44
1
  0
LINE
  5
155
100
AcDbEntity
  8
SAE_DIM
  6
ByBlock
 62
    0
370
   -2
100
AcDbLine
 10
-4.886111100669114
 20
-6.903312163512966
 11
-4.886111100669111
 21
-6.903312163512968
  0
LINE
  5
156
100
AcDbEntity
  8
SAE_DIM
  6
ByBlock
 62
    0
370
   -2
100
AcDbLine
 10
-4.88611110066911
 20
9.000000000000002
 11
-4.88611110066911
 21
9.000000000000002
  0
ENDBLK
  5
A2
330
A0
100
AcDbEntity
  8
0
100
AcDbBlockEnd
  0
BLOCK
  5
A4
330
A3
100
AcDbEntity
  8
0
100
AcDbBlockBegin
  2
*D2
 70
    1
 10
0
 20
0
  3
*D2
  1

  0
LINE
  5
157
100
AcDbEntity
  8
SAE_DIM
  6
ByBlock
 62
    0
370
   -2
100
AcDbLine
 10
5.473291852294986
 20
12.59669900169326
 11
5.473291852294986
 21
12.59669900169326
  0
LINE
  5
158
100
AcDbEntity
  8
SAE_DIM
  6
ByBlock
 62
    0
370
   -2
100
AcDbLine
 10
6.723291852294986
 20
11.38958803318441
 11
6.723291852294986
 21
11.38958803318441
  0
LINE
  5
159
100
AcDbEntity
  8
SAE_DIM
  6
ByBlock
 62
    0
370
   -2
100
AcDbLine
 10
3.034612251617685
 20
13.98601574261125
 11
7.161971452972288
 21
10.00027129226642
  0
SOLID
  5
15A
100
AcDbEntity
  8
SAE_DIM
  6
ByBlock
 62
    0
370
   -2
100
AcDbTrace
 10
4.473291852294986
 20
12.59669900169326
 30
0
 11
3.638281803150111
 21
13.17157732310971
 31
0
 12
3.869622300762561
 22
13.4111374211948
 32
0
 13
3.869622300762561
 23
13.4111374211948
 33
0
  0
SOLID
  5
15B
100
AcDbEntity
  8
SAE_DIM
  6
ByBlock
 62
    0
370
   -2
100
AcDbTrace
 10
5.723291852294986
 20
11.38958803318441
 30
0
 11
6.558301901439862
 21
10.81470971176796
 31
0
 12
6.326961403827411
 22
10.57514961368287
 32
0
 13
6.326961403827411
 23
10.57514961368287
 33
0
  0
MTEXT
  5
15C
100
AcDbEntity
  8
SAE_DIM
  6
CONTINUOUS
 62
    0
370
   -2
100
AcDbMText
 10
8.283885653142857
 20
11.00209672939006
 30
0
 40
1
 41
2.222222222222222
 71
    5
 72
    1
  1
1.74
  7
standard
210
0
220
0
230
1
 50
315.9999999999999
 73
    2
 44
1
  0
ENDBLK
  5
A5
330
A3
100
AcDbEntity
  8
0
100
AcDbBlockEnd
  0
BLOCK
  5
A7
330
A6
100
AcDbEntity
  8
0
100
AcDbBlockBegin
  2
*D29
 70
    1
 10
0
 20
0
  3
*D29
  1

  0
LINE
  5
15D
100
AcDbEntity
  8
OSELatch_DIM
  6
CONTINUOUS
 62
    7
370
    0
100
AcDbLine
 10
92.46160520607997
 20
5.32248989154038
 11
95
 21
4
  0
SOLID
  5
15E
100
AcDbEntity
  8
OSELatch_DIM
  6
CONTINUOUS
 62
    7
370
    0
100
AcDbTrace
 10
92.46160520607997
 20
5.32248989154038
 30
0
 11
93.42539791404359
 21
5.00811673320195
 31
0
 12
93.27152348792339
 22
4.712769264250048
 32
0
 13
93.27152348792339
 23
4.712769264250048
 33
0
  0
ENDBLK
  5
A8
330
A6
100
AcDbEntity
  8
0
100
AcDbBlockEnd
  0
BLOCK
  5
AA
330
A9
100
AcDbEntity
  8
0
100
AcDbBlockBegin
  2
*D8
 70
    1
 10
0
 20
0
  3
*D8
  1

  0
LINE
  5
15F
100
AcDbEntity
  8
SAE_DIM
  6
ByBlock
 62
    0
370
   -2
100
AcDbLine
 10
-2.636111100669111
 20
-7.624999999999998
 11
-2.63611110066911
 21
9.000000000000002
  0
SOLID
  5
160
100
AcDbEntity
  8
SAE_DIM
  6
ByBlock
 62
    0
370
   -2
100
AcDbTrace
 10
-2.636111100669111
 20
-7.624999999999998
 30
0
 11
-2.802624963778247
 21
-6.624999999999998
 31
0
 12
-2.469597237559975
 22
-6.624999999999998
 32
0
 13
-2.469597237559975
 23
-6.624999999999998
 33
0
  0
SOLID
  5
161
100
AcDbEntity
  8
SAE_DIM
  6
ByBlock
 62
    0
370
   -2
100
AcDbTrace
 10
-2.63611110066911
 20
9.000000000000002
 30
0
 11
-2.469597237559974
 21
8.000000000000002
 31
0
 12
-2.802624963778246
 22
8.000000000000002
 32
0
 13
-2.802624963778246
 23
8.000000000000002
 33
0
  0
MTEXT
  5
162
100
AcDbEntity
  8
SAE_DIM
  6
CONTINUOUS
 62
    0
370
   -2
100
AcDbMText
 10
-4.13611110066911
 20
0.687500000000002
 30
0
 40
1
 41
2.888888888889013
 71
    5
 72
    1
  1
16.62
  7
standard
210
0
220
0
230
1
 50
90
 73
    2
 44
1
  0
LINE
  5
163
100
AcDbEntity
  8
SAE_DIM
  6
ByBlock
 62
    0
370
   -2
100
AcDbLine
 10
-3.63611110066911
 20
-7.625
 11
-3.636111100669111
 21
-7.624999999999998
  0
LINE
  5
164
100
AcDbEntity
  8
SAE_DIM
  6
ByBlock
 62
    0
370
   -2
100
AcDbLine
 10
-3.63611110066911
 20
9.000000000000002
 11
-3.63611110066911
 21
9.000000000000002
  0
ENDBLK
  5
AB
330
A9
100
AcDbEntity
  8
0
100
AcDbBlockEnd
  0
BLOCK
  5
AD
330
AC
100
AcDbEntity
  8
0
100
AcDbBlockBegin
  2
*D6
 70
    1
 10
0
 20
0
  3
*D6
  1

  0
LINE
  5
165
100
AcDbEntity
  8
SAE_DIM
  6
ByBlock
 62
    0
370
   -2
100
AcDbLine
 10
26.75
 20
-18
 11
62.25
 21
-18
  0
SOLID
  5
166
100
AcDbEntity
  8
SAE_DIM
  6
ByBlock
 62
    0
370
   -2
100
AcDbTrace
 10
26.75
 20
-18
 30
0
 11
27.75
 21
-17.83348613689087
 31
0
 12
27.75
 22
-18.16651386310914
 32
0
 13
27.75
 23
-18.16651386310914
 33
0
  0
SOLID
  5
167
100
AcDbEntity
  8
SAE_DIM
  6
ByBlock
 62
    0
370
   -2
100
AcDbTrace
 10
62.25
 20
-18
 30
0
 11
61.25
 21
-18.16651386310913
 31
0
 12
61.25
 22
-17.83348613689087
 32
0
 13
61.25
 23
-17.83348613689087
 33
0
  0
MTEXT
  5
168
100
AcDbEntity
  8
SAE_DIM
  6
CONTINUOUS
 62
    0
370
   -2
100
AcDbMText
 10
44.5
 20
-16.5
 30
0
 40
1
 41
3.111111111111297
 71
    5
 72
    1
  1
35.50
  7
standard
210
0
220
0
230
1
 50
0
 73
    2
 44
1
  0
LINE
  5
169
100
AcDbEntity
  8
SAE_DIM
  6
ByBlock
 62
    0
370
   -2
100
AcDbLine
 10
26.75
 20
-17
 11
26.75
 21
-17
  0
LINE
  5
16A
100
AcDbEntity
  8
SAE_DIM
  6
ByBlock
 62
    0
370
   -2
100
AcDbLine
 10
62.25
 20
-17
 11
62.25
 21
-17
  0
ENDBLK
  5
AE
330
AC
100
AcDbEntity
  8
0
100
AcDbBlockEnd
  0
BLOCK
  5
B0
330
AF
100
AcDbEntity
  8
0
100
AcDbBlockBegin
  2
*D32
 70
    1
 10
0
 20
0
  3
*D32
  1

  0
LINE
  5
16B
100
AcDbEntity
  8
OSELatch_DIM
  6
CONTINUOUS
 62
    7
370
    0
100
AcDbLine
 10
100.9839603122745
 20
5.383953061815356
 11
95
 21
4
  0
LINE
  5
16C
100
AcDbEntity
  8
OSELatch_DIM
  6
CONTINUOUS
 62
    7
370
    0
100
AcDbLine
 10
95
 20
4
 11
95
 21
-13
  0
LINE
  5
16D
100
AcDbEntity
  8
OSELatch_DIM
  6
CONTINUOUS
 62
    7
370
    0
100
AcDbLine
 10
95
 20
-13
 11
105
 21
-13
  0
LINE
  5
16E
100
AcDbEntity
  8
OSELatch_DIM
  6
CONTINUOUS
 62
    7
370
    0
100
AcDbLine
 10
105
 20
-13
 11
105
 21
-22
  0
LINE
  5
16F
100
AcDbEntity
  8
OSELatch_DIM
  6
CONTINUOUS
 62
    7
370
    0
100
AcDbLine
 10
105
 20
-22
 11
92
 21
-22
  0
SOLID
  5
170
100
AcDbEntity
  8
OSELatch_DIM
  6
CONTINUOUS
 62
    7
370
    0
100
AcDbTrace
 10
100.9839603122745
 20
5.383953061815356
 30
0
 11
100.0471980947077
 21
4.996392209371686
 31
0
 12
99.97215719632558
 22
5.320855350575925
 32
0
 13
99.97215719632558
 23
5.320855350575925
 33
0
  0
ENDBLK
  5
B1
330
AF
100
AcDbEntity
  8
0
100
AcDbBlockEnd
  0
BLOCK
  5
B3
330
B2
100
AcDbEntity
  8
0
100
AcDbBlockBegin
  2
*D27
 70
    1
 10
0
 20
0
  3
*D27
  1

  0
LINE
  5
171
100
AcDbEntity
  8
OSELatch_DIM
  6
CONTINUOUS
 62
    7
370
    0
100
AcDbLine
 10
88
 20
-8
 11
86
 21
-8
  0
LINE
  5
172
100
AcDbEntity
  8
OSELatch_DIM
  6
CONTINUOUS
 62
    7
370
    0
100
AcDbLine
 10
86
 20
-8
 11
86
 21
-10
  0
LINE
  5
173
100
AcDbEntity
  8
OSELatch_DIM
  6
CONTINUOUS
 62
    7
370
    0
100
AcDbLine
 10
86
 20
-10
 11
72
 21
-10
  0
SOLID
  5
174
100
AcDbEntity
  8
OSELatch_DIM
  6
CONTINUOUS
 62
    7
370
    0
100
AcDbTrace
 10
88
 20
-8
 30
0
 11
87
 21
-8.166513863109136
 31
0
 12
87
 22
-7.833486136890864
 32
0
 13
87
 23
-7.833486136890864
 33
0
  0
ENDBLK
  5
B4
330
B2
100
AcDbEntity
  8
0
100
AcDbBlockEnd
  0
BLOCK
  5
B6
330
B5
100
AcDbEntity
  8
0
100
AcDbBlockBegin
  2
*D16
 70
    1
 10
0
 20
0
  3
*D16
  1

  0
LINE
  5
175
100
AcDbEntity
  8
OSEFingerPlate_DIM
  6
CONTINUOUS
 62
    7
370
    0
100
AcDbLine
 10
5.5
 20
-8.058012701892221
 11
8
 21
-13
  0
SOLID
  5
176
100
AcDbEntity
  8
OSEFingerPlate_DIM
  6
CONTINUOUS
 62
    7
370
    0
100
AcDbTrace
 10
5.5
 20
-8.058012701892221
 30
0
 11
6.099982639700045
 21
-8.875171008872021
 31
0
 12
5.802814530066421
 22
-9.02549925321383
 32
0
 13
5.802814530066421
 23
-9.02549925321383
 33
0
  0
ENDBLK
  5
B7
330
B5
100
AcDbEntity
  8
0
100
AcDbBlockEnd
  0
BLOCK
  5
B9
330
B8
100
AcDbEntity
  8
0
100
AcDbBlockBegin
  2
*D22
 70
    1
 10
0
 20
0
  3
*D22
  1

  0
LINE
  5
177
100
AcDbEntity
  8
OSESkidSterrPlate_DIM
  6
CONTINUOUS
 62
    7
370
    0
100
AcDbLine
 10
27.5375
 20
0.1164902400000036
 11
46
 21
0
  0
SOLID
  5
178
100
AcDbEntity
  8
OSESkidSterrPlate_DIM
  6
CONTINUOUS
 62
    7
370
    0
100
AcDbTrace
 10
27.5375
 20
0.1164902400000036
 30
0
 11
28.53853070351851
 21
0.2766913549173513
 31
0
 12
28.53642948713058
 22
-0.05632974249211262
 32
0
 13
28.53642948713058
 23
-0.05632974249211262
 33
0
  0
ENDBLK
  5
BA
330
B8
100
AcDbEntity
  8
0
100
AcDbBlockEnd
  0
BLOCK
  5
BC
330
BB
100
AcDbEntity
  8
0
100
AcDbBlockBegin
  2
*D26
 70
    1
 10
0
 20
0
  3
*D26
  1

  0
LINE
  5
179
100
AcDbEntity
  8
OSELatch_DIM
  6
CONTINUOUS
 62
    7
370
    0
100
AcDbLine
 10
91
 20
0
 11
86
 21
0
  0
LINE
  5
17A
100
AcDbEntity
  8
OSELatch_DIM
  6
CONTINUOUS
 62
    7
370
    0
100
AcDbLine
 10
86
 20
0
 11
86
 21
-6
  0
LINE
  5
17B
100
AcDbEntity
  8
OSELatch_DIM
  6
CONTINUOUS
 62
    7
370
    0
100
AcDbLine
 10
86
 20
-6
 11
71
 21
-6
  0
SOLID
  5
17C
100
AcDbEntity
  8
OSELatch_DIM
  6
CONTINUOUS
 62
    7
370
    0
100
AcDbTrace
 10
91
 20
0
 30
0
 11
90
 21
-0.1665138631091362
 31
0
 12
90
 22
0.1665138631091362
 32
0
 13
90
 23
0.1665138631091362
 33
0
  0
ENDBLK
  5
BD
330
BB
100
AcDbEntity
  8
0
100
AcDbBlockEnd
  0
BLOCK
  5
BF
330
BE
100
AcDbEntity
  8
0
100
AcDbBlockBegin
  2
*D25
 70
    1
 10
0
 20
0
  3
*D25
  1

  0
LINE
  5
17D
100
AcDbEntity
  8
OSESkidSterrPlate_DIM
  6
ByBlock
 62
    0
370
   -2
100
AcDbLine
 10
58.2
 20
-8.191987298107781
 11
58.2
 21
-9.999999999999998
  0
LINE
  5
17E
100
AcDbEntity
  8
OSESkidSterrPlate_DIM
  6
ByBlock
 62
    0
370
   -2
100
AcDbLine
 10
65.22500000000001
 20
-8.191987298107783
 11
65.22500000000001
 21
-10
  0
LINE
  5
17F
100
AcDbEntity
  8
OSESkidSterrPlate_DIM
  6
ByBlock
 62
    0
370
   -2
100
AcDbLine
 10
58.2
 20
-8.999999999999998
 11
65.22500000000001
 21
-9
  0
SOLID
  5
180
100
AcDbEntity
  8
OSESkidSterrPlate_DIM
  6
ByBlock
 62
    0
370
   -2
100
AcDbTrace
 10
58.2
 20
-8.999999999999998
 30
0
 11
59.2
 21
-8.833486136890862
 31
0
 12
59.2
 22
-9.166513863109135
 32
0
 13
59.2
 23
-9.166513863109135
 33
0
  0
SOLID
  5
181
100
AcDbEntity
  8
OSESkidSterrPlate_DIM
  6
ByBlock
 62
    0
370
   -2
100
AcDbTrace
 10
65.22500000000001
 20
-9
 30
0
 11
64.22500000000001
 21
-9.166513863109136
 31
0
 12
64.22500000000001
 22
-8.833486136890864
 32
0
 13
64.22500000000001
 23
-8.833486136890864
 33
0
  0
MTEXT
  5
182
100
AcDbEntity
  8
OSESkidSterrPlate_DIM
  6
CONTINUOUS
 62
    0
370
   -2
100
AcDbMText
 10
61.71250000000001
 20
-7.5
 30
0
 40
1
 41
2.333333333333395
 71
    5
 72
    1
  1
7.03
  7
standard
210
0
220
0
230
1
 50
360
 73
    2
 44
1
  0
ENDBLK
  5
C0
330
BE
100
AcDbEntity
  8
0
100
AcDbBlockEnd
  0
BLOCK
  5
C2
330
C1
100
AcDbEntity
  8
0
100
AcDbBlockBegin
  2
*D31
 70
    1
 10
0
 20
0
  3
*D31
  1

  0
LINE
  5
183
100
AcDbEntity
  8
OSELatch_DIM
  6
CONTINUOUS
 62
    7
370
    0
100
AcDbLine
 10
101
 20
-6
 11
95
 21
-6
  0
SOLID
  5
184
100
AcDbEntity
  8
OSELatch_DIM
  6
CONTINUOUS
 62
    7
370
    0
100
AcDbTrace
 10
101
 20
-6
 30
0
 11
100
 21
-6.166513863109136
 31
0
 12
100
 22
-5.833486136890864
 32
0
 13
100
 23
-5.833486136890864
 33
0
  0
ENDBLK
  5
C3
330
C1
100
AcDbEntity
  8
0
100
AcDbBlockEnd
  0
BLOCK
  5
C5
330
C4
100
AcDbEntity
  8
0
100
AcDbBlockBegin
  2
*D1
 70
    1
 10
0
 20
0
  3
*D1
  1

  0
LINE
  5
185
100
AcDbEntity
  8
SAE_DIM
  6
ByBlock
 62
    0
370
   -2
100
AcDbLine
 10
-1.000000000000003
 20
-6.903312163512966
 11
4.25
 21
-6.903312163512966
  0
SOLID
  5
186
100
AcDbEntity
  8
SAE_DIM
  6
ByBlock
 62
    0
370
   -2
100
AcDbTrace
 10
0.9999999999999971
 20
-6.903312163512966
 30
0
 11
-2.886579864025407e-15
 21
-7.069826026622103
 31
0
 12
-2.886579864025407e-15
 22
-6.73679830040383
 32
0
 13
-2.886579864025407e-15
 23
-6.73679830040383
 33
0
  0
SOLID
  5
187
100
AcDbEntity
  8
SAE_DIM
  6
ByBlock
 62
    0
370
   -2
100
AcDbTrace
 10
2.25
 20
-6.903312163512966
 30
0
 11
3.25
 21
-6.73679830040383
 31
0
 12
3.25
 22
-7.069826026622103
 32
0
 13
3.25
 23
-7.069826026622103
 33
0
  0
MTEXT
  5
188
100
AcDbEntity
  8
SAE_DIM
  6
CONTINUOUS
 62
    0
370
   -2
100
AcDbMText
 10
4.305555555555586
 20
-5.403312163512966
 30
0
 40
1
 41
2.111111111111173
 71
    5
 72
    1
  1
1.25
  7
standard
210
0
220
0
230
1
 50
0
 73
    2
 44
1
  0
LINE
  5
189
100
AcDbEntity
  8
SAE_DIM
  6
ByBlock
 62
    0
370
   -2
100
AcDbLine
 10
0.9999999999999972
 20
-5.903312163512966
 11
0.9999999999999972
 21
-5.903312163512966
  0
LINE
  5
18A
100
AcDbEntity
  8
SAE_DIM
  6
ByBlock
 62
    0
370
   -2
100
AcDbLine
 10
2.25
 20
-6.625000000000001
 11
2.25
 21
-5.903312163512966
  0
ENDBLK
  5
C6
330
C4
100
AcDbEntity
  8
0
100
AcDbBlockEnd
  0
BLOCK
  5
C8
330
C7
100
AcDbEntity
  8
0
100
AcDbBlockBegin
  2
Pin
 70
    0
 10
0
 20
0
  3
Pin
  1

  0
HATCH
  5
18B
100
AcDbEntity
  8
OSELatchParts
  6
ByLayer
 62
  256
370
   -1
100
AcDbHatch
 10
0
 20
0
 30
0
210
0
220
0
230
1
  2
ansi31
 70
    0
 71
    0
 91
    1
 92
    0
 93
    4
 72
    1
 10
-0.375
 20
0
 11
-0.375
 21
8
 72
    1
 10
-0.375
 20
8
 11
0.375
 21
8
 72
    1
 10
0.375
 20
8
 11
0.375
 21
-1e-16
 72
    1
 10
0.375
 20
-1e-16
 11
-0.375
 21
0
 97
    0
 75
    0
 76
    1
 52
0
 41
0.1
 77
    0
 78
    0
 98
    0
  0
LINE
  5
18C
100
AcDbEntity
  8
OSELatchParts
  6
ByLayer
 62
  256
370
   -1
100
AcDbLine
 10
0
 20
0
 11
0
 21
8
  0
LINE
  5
18D
100
AcDbEntity
  8
OSELatchParts
  6
ByLayer
 62
  256
370
   -1
100
AcDbLine
 10
-0.375
 20
0
 11
-0.375
 21
8
  0
LINE
  5
18E
100
AcDbEntity
  8
OSELatchParts
  6
ByLayer
 62
  256
370
   -1
100
AcDbLine
 10
0.375
 20
-1e-16
 11
0.375
 21
8
  0
LINE
  5
18F
100
AcDbEntity
  8
OSELatchParts
  6
ByLayer
 62
  256
370
   -1
100
AcDbLine
 10
-0.375
 20
8
 11
0.375
 21
8
  0
LINE
  5
190
100
AcDbEntity
  8
OSELatchParts
  6
ByLayer
 62
  256
370
   -1
100
AcDbLine
 10
-0.375
 20
0
 11
0.375
 21
-1e-16
  0
ENDBLK
  5
C9
330
C7
100
AcDbEntity
  8
0
100
AcDbBlockEnd
  0
BLOCK
  5
CB
330
CA
100
AcDbEntity
  8
0
100
AcDbBlockBegin
  2
FingerRearBlock
 70
    0
 10
0
 20
0
  3
FingerRearBlock
  1

  0
LINE
  5
191
100
AcDbEntity
  8
OSEFingerPlate
  6
ByLayer
 62
  256
370
   -1
100
AcDbLine
 10
2.887499999999999
 20
16.19198729810778
 11
2.887499999999999
 21
0
  0
LINE
  5
192
100
AcDbEntity
  8
OSEFingerPlate
  6
ByLayer
 62
  256
370
   -1
100
AcDbLine
 10
2.387499999999999
 20
16.19198729810778
 11
2.387499999999999
 21
0
  0
LINE
  5
193
100
AcDbEntity
  8
OSEFingerPlate
  6
ByLayer
 62
  256
370
   -1
100
AcDbLine
 10
-1.612500000000001
 20
16.19198729810778
 11
-1.612500000000001
 21
1.8e-15
  0
LINE
  5
194
100
AcDbEntity
  8
OSEFingerPlate
  6
ByLayer
 62
  256
370
   -1
100
AcDbLine
 10
-2.112500000000001
 20
16.19198729810778
 11
-2.112500000000001
 21
1.8e-15
  0
LINE
  5
195
100
AcDbEntity
  8
OSEFingerPlate
  6
ByLayer
 62
  256
370
   -1
100
AcDbLine
 10
3.8875
 20
1
 11
2.887499999999999
 21
1
  0
LINE
  5
196
100
AcDbEntity
  8
OSEFingerPlate
  6
ByLayer
 62
  256
370
   -1
100
AcDbLine
 10
3.8875
 20
5
 11
2.8875
 21
5
  0
LINE
  5
197
100
AcDbEntity
  8
OSEFingerPlate
  6
ByLayer
 62
  256
370
   -1
100
AcDbLine
 10
3.8875
 20
5
 11
3.8875
 21
1
  0
LINE
  5
198
100
AcDbEntity
  8
OSEFingerPlate
  6
ByLayer
 62
  256
370
   -1
100
AcDbLine
 10
2.387499999999999
 20
0
 11
-1.612500000000001
 21
0
  0
INSERT
  5
199
100
AcDbEntity
  8
OSEFingerPlate
  6
ByLayer
 62
  256
370
   -1
100
AcDbBlockReference
  2
4"x4"Tube
 10
0.3874999999999991
 20
0
 30
0
 41
1
 42
1
 43
0
 50
0
 70
    1
 71
    1
 44
1
 45
1
  0
LINE
  5
19A
100
AcDbEntity
  8
OSEFingerPlate
  6
ByLayer
 62
  256
370
   -1
100
AcDbLine
 10
-2.112500000000001
 20
16.19198729810778
 11
-1.612500000000001
 21
16.19198729810778
  0
LINE
  5
19B
100
AcDbEntity
  8
OSEFingerPlate
  6
ByLayer
 62
  256
370
   -1
100
AcDbLine
 10
-1.612500000000001
 20
16.19198729810778
 11
2.387499999999999
 21
16.19198729810778
  0
LINE
  5
19C
100
AcDbEntity
  8
OSEFingerPlate
  6
ByLayer
 62
  256
370
   -1
100
AcDbLine
 10
2.387499999999999
 20
16.19198729810778
 11
2.887499999999999
 21
16.19198729810778
  0
LINE
  5
19D
100
AcDbEntity
  8
OSEFingerPlate
  6
ByLayer
 62
  256
370
   -1
100
AcDbLine
 10
2.387499999999999
 20
-0.866023
 11
-1.612500000000001
 21
-0.866023
  0
LINE
  5
19E
100
AcDbEntity
  8
OSEFingerPlate
  6
ByLayer
 62
  256
370
   -1
100
AcDbLine
 10
-1.612500000000001
 20
-0.866023
 11
-2.112500000000001
 21
-0.866023
  0
LINE
  5
19F
100
AcDbEntity
  8
OSEFingerPlate
  6
ByLayer
 62
  256
370
   -1
100
AcDbLine
 10
2.887499999999999
 20
-0.866023
 11
2.387499999999999
 21
-0.866023
  0
LINE
  5
1A0
100
AcDbEntity
  8
OSEFingerPlate
  6
ByLayer
 62
  256
370
   -1
100
AcDbLine
 10
-2.112500000000001
 20
0
 11
-2.112500000000001
 21
-0.866023
  0
LINE
  5
1A1
100
AcDbEntity
  8
OSEFingerPlate
  6
ByLayer
 62
  256
370
   -1
100
AcDbLine
 10
-1.612500000000001
 20
0
 11
-1.612500000000001
 21
-0.866023
  0
LINE
  5
1A2
100
AcDbEntity
  8
OSEFingerPlate
  6
ByLayer
 62
  256
370
   -1
100
AcDbLine
 10
2.387499999999999
 20
-2.7018900011e-06
 11
2.387499999999999
 21
-0.866023
  0
LINE
  5
1A3
100
AcDbEntity
  8
OSEFingerPlate
  6
ByLayer
 62
  256
370
   -1
100
AcDbLine
 10
2.887499999999999
 20
0
 11
2.887499999999999
 21
-0.866023
  0
LINE
  5
1A4
100
AcDbEntity
  8
OSEFingerPlate
  6
ByLayer
 62
  256
370
   -1
100
AcDbLine
 10
-2.493721903103661
 20
0
 11
-2.480457424895663
 21
0
  0
INSERT
  5
1A5
100
AcDbEntity
  8
OSEFingerPlate
  6
ByLayer
 62
  256
370
   -1
100
AcDbBlockReference
  2
4"x4"FingerTube
 10
0.3874999999999991
 20
0
 30
0
 41
1
 42
1
 43
0
 50
0
 70
    1
 71
    1
 44
1
 45
1
  0
LINE
  5
1A6
100
AcDbEntity
  8
OSEFingerPlate
  6
DASHED
 62
  256
370
   -1
100
AcDbLine
 10
2.3875
 20
0.28868
 11
-1.6125
 21
0.28868
  0
ENDBLK
  5
CC
330
CA
100
AcDbEntity
  8
0
100
AcDbBlockEnd
  0
BLOCK
  5
CE
330
CD
100
AcDbEntity
  8
0
100
AcDbBlockBegin
  2
4"x4"FingerTube
 70
    0
 10
0
 20
0
  3
4"x4"FingerTube
  1

  0
LINE
  5
1A7
100
AcDbEntity
  8
OSEFingerPlate
  6
ByLayer
 62
    1
370
   -1
100
AcDbLine
 10
-2
 20
14.1111
 11
-2
 21
0
  0
LINE
  5
1A8
100
AcDbEntity
  8
OSEFingerPlate
  6
ByLayer
 62
    1
370
   -1
100
AcDbLine
 10
2
 20
14.1111
 11
-2
 21
14.1111
  0
LINE
  5
1A9
100
AcDbEntity
  8
OSEFingerPlate
  6
ByLayer
 62
    1
370
   -1
100
AcDbLine
 10
2
 20
-2.70189e-06
 11
2
 21
14.1111
  0
LINE
  5
1AA
100
AcDbEntity
  8
OSEFingerPlate
  6
ByLayer
 62
    1
370
   -1
100
AcDbLine
 10
-2
 20
0
 11
2
 21
0
  0
ENDBLK
  5
CF
330
CD
100
AcDbEntity
  8
0
100
AcDbBlockEnd
  0
BLOCK
  5
D1
330
D0
100
AcDbEntity
  8
0
100
AcDbBlockBegin
  2
4"x4"SideTube
 70
    0
 10
0
 20
0
  3
4"x4"SideTube
  1

  0
HATCH
  5
1AB
100
AcDbEntity
  8
OSE4"x4"Frame
  6
ByLayer
 62
  256
370
   -1
100
AcDbHatch
 10
0
 20
0
 30
0
210
0
220
0
230
1
  2
ansi31
 70
    0
 71
    0
 91
    1
 92
    0
 93
    8
 72
    1
 10
0
 20
0
 11
0
 21
4
 72
    1
 10
0
 20
4
 11
4
 21
4
 72
    1
 10
4
 20
4
 11
4
 21
0
 72
    1
 10
4
 20
0
 11
0
 21
0
 72
    1
 10
0.25
 20
0.25
 11
0.25
 21
3.75
 72
    1
 10
0.25
 20
3.75
 11
3.75
 21
3.75
 72
    1
 10
3.75
 20
3.75
 11
3.75
 21
0.25
 72
    1
 10
3.75
 20
0.25
 11
0.25
 21
0.25
 97
    0
 75
    0
 76
    1
 52
0
 41
0.1
 77
    0
 78
    0
 98
    0
  0
LINE
  5
1AC
100
AcDbEntity
  8
OSE4"x4"Frame
  6
ByLayer
 62
  256
370
   -1
100
AcDbLine
 10
0
 20
0
 11
0
 21
4
  0
LINE
  5
1AD
100
AcDbEntity
  8
OSE4"x4"Frame
  6
ByLayer
 62
  256
370
   -1
100
AcDbLine
 10
4
 20
4
 11
4
 21
0
  0
LINE
  5
1AE
100
AcDbEntity
  8
OSE4"x4"Frame
  6
ByLayer
 62
  256
370
   -1
100
AcDbLine
 10
0
 20
4
 11
4
 21
4
  0
LINE
  5
1AF
100
AcDbEntity
  8
OSE4"x4"Frame
  6
ByLayer
 62
  256
370
   -1
100
AcDbLine
 10
4
 20
0
 11
0
 21
0
  0
LINE
  5
1B0
100
AcDbEntity
  8
OSE4"x4"Frame
  6
ByLayer
 62
  256
370
   -1
100
AcDbLine
 10
0.25
 20
0.25
 11
0.25
 21
3.75
  0
LINE
  5
1B1
100
AcDbEntity
  8
OSE4"x4"Frame
  6
ByLayer
 62
  256
370
   -1
100
AcDbLine
 10
0.25
 20
3.75
 11
3.75
 21
3.75
  0
LINE
  5
1B2
100
AcDbEntity
  8
OSE4"x4"Frame
  6
ByLayer
 62
  256
370
   -1
100
AcDbLine
 10
3.75
 20
3.75
 11
3.75
 21
0.25
  0
LINE
  5
1B3
100
AcDbEntity
  8
OSE4"x4"Frame
  6
ByLayer
 62
  256
370
   -1
100
AcDbLine
 10
3.75
 20
0.25
 11
0.25
 21
0.25
  0
ENDBLK
  5
D2
330
D0
100
AcDbEntity
  8
0
100
AcDbBlockEnd
  0
BLOCK
  5
D4
330
D3
100
AcDbEntity
  8
0
100
AcDbBlockBegin
  2
1"BoltHeadSide
 70
    0
 10
0
 20
0
  3
1"BoltHeadSide
  1

  0
LINE
  5
1B4
100
AcDbEntity
  8
Bolts
  6
ByLayer
 62
  256
370
   -1
100
AcDbLine
 10
0
 20
0.75
 11
0.6999999999999993
 21
0.75
  0
LINE
  5
1B5
100
AcDbEntity
  8
Bolts
  6
ByLayer
 62
  256
370
   -1
100
AcDbLine
 10
0.6999999999999993
 20
0.75
 11
0.6999999999999993
 21
-0.7500000000000004
  0
LINE
  5
1B6
100
AcDbEntity
  8
Bolts
  6
ByLayer
 62
  256
370
   -1
100
AcDbLine
 10
0.6999999999999993
 20
-0.7500000000000004
 11
0
 21
-0.7500000000000004
  0
LINE
  5
1B7
100
AcDbEntity
  8
Bolts
  6
ByLayer
 62
  256
370
   -1
100
AcDbLine
 10
0
 20
-0.7500000000000004
 11
0
 21
0.75
  0
LINE
  5
1B8
100
AcDbEntity
  8
Bolts
  6
ByLayer
 62
  256
370
   -1
100
AcDbLine
 10
0
 20
-2e-16
 11
-1
 21
-1e-16
  0
LINE
  5
1B9
100
AcDbEntity
  8
Bolts
  6
ByLayer
 62
  256
370
   -1
100
AcDbLine
 10
2e-16
 20
0.4999999999999998
 11
-0.9999999999999999
 21
0.4999999999999999
  0
LINE
  5
1BA
100
AcDbEntity
  8
Bolts
  6
ByLayer
 62
  256
370
   -1
100
AcDbLine
 10
-1e-16
 20
-0.5000000000000002
 11
-1
 21
-0.5000000000000001
  0
ENDBLK
  5
D5
330
D3
100
AcDbEntity
  8
0
100
AcDbBlockEnd
  0
BLOCK
  5
D7
330
D6
100
AcDbEntity
  8
0
100
AcDbBlockBegin
  2
1"BoltHeadTop
 70
    0
 10
0
 20
0
  3
1"BoltHeadTop
  1

  0
LINE
  5
1BB
100
AcDbEntity
  8
Bolts
  6
ByLayer
 62
  256
370
   -1
100
AcDbLine
 10
-0.75
 20
0.75
 11
0.75
 21
0.75
  0
LINE
  5
1BC
100
AcDbEntity
  8
Bolts
  6
ByLayer
 62
  256
370
   -1
100
AcDbLine
 10
0.75
 20
0.75
 11
0.75
 21
-0.7500000000000004
  0
LINE
  5
1BD
100
AcDbEntity
  8
Bolts
  6
ByLayer
 62
  256
370
   -1
100
AcDbLine
 10
0.75
 20
-0.7500000000000004
 11
-0.75
 21
-0.7500000000000004
  0
LINE
  5
1BE
100
AcDbEntity
  8
Bolts
  6
ByLayer
 62
  256
370
   -1
100
AcDbLine
 10
-0.75
 20
-0.7500000000000004
 11
-0.75
 21
0.75
  0
LINE
  5
1BF
100
AcDbEntity
  8
Bolts
  6
ByLayer
 62
  256
370
   -1
100
AcDbLine
 10
0.75
 20
0
 11
-0.75
 21
0
  0
LINE
  5
1C0
100
AcDbEntity
  8
Bolts
  6
ByLayer
 62
  256
370
   -1
100
AcDbLine
 10
0
 20
0.75
 11
0
 21
-0.75
  0
CIRCLE
  5
1C1
100
AcDbEntity
  8
Bolts
  6
ByLayer
 62
  256
370
   -1
100
AcDbCircle
 10
0
 20
0
 40
0.5
  0
ENDBLK
  5
D8
330
D6
100
AcDbEntity
  8
0
100
AcDbBlockEnd
  0
BLOCK
  5
DA
330
D9
100
AcDbEntity
  8
0
100
AcDbBlockBegin
  2
OSESkidSteerPlateTop
 70
    0
 10
0
 20
0
  3
OSESkidSteerPlateTop
  1

  0
HATCH
  5
1C2
100
AcDbEntity
  8
OSESkidSteerPlate
  6
ByLayer
 62
  256
370
   -1
100
AcDbHatch
 10
0
 20
0
 30
0
210
0
220
0
230
1
  2
ansi31
 70
    0
 71
    0
 91
    1
 92
    0
 93
    4
 72
    1
 10
-7.025000000000002
 20
14.09198729810778
 11
-7.025000000000002
 21
0
 72
    1
 10
-7.025000000000002
 20
0
 11
-6.525000000000002
 21
0
 72
    1
 10
-6.525000000000002
 20
-1e-16
 11
-6.525000000000002
 21
14.09198729810778
 72
    1
 10
-6.525000000000002
 20
14.09198729810778
 11
-7.025000000000002
 21
14.09198729810778
 97
    0
 75
    0
 76
    1
 52
0
 41
0.1
 77
    0
 78
    0
 98
    0
  0
HATCH
  5
1C3
100
AcDbEntity
  8
OSESkidSteerPlate
  6
ByLayer
 62
  256
370
   -1
100
AcDbHatch
 10
0
 20
0
 30
0
210
0
220
0
230
1
  2
ansi31
 70
    0
 71
    0
 91
    1
 92
    0
 93
    4
 72
    1
 10
-4.525
 20
14.09198729810778
 11
-4.525
 21
0
 72
    1
 10
-4.525
 20
0
 11
-4.025
 21
0
 72
    1
 10
-4.025
 20
0
 11
-4.025
 21
14.09198729810778
 72
    1
 10
-4.025
 20
14.09198729810778
 11
-4.525
 21
14.09198729810778
 97
    0
 75
    0
 76
    1
 52
0
 41
0.1
 77
    0
 78
    0
 98
    0
  0
LINE
  5
1C4
100
AcDbEntity
  8
OSESkidSteerPlate
  6
ByLayer
 62
  256
370
   -1
100
AcDbLine
 10
-7.025000000000002
 20
14.09198729810778
 11
-7.025000000000002
 21
0
  0
LINE
  5
1C5
100
AcDbEntity
  8
OSESkidSteerPlate
  6
ByLayer
 62
  256
370
   -1
100
AcDbLine
 10
0
 20
0
 11
0
 21
0
  0
LINE
  5
1C6
100
AcDbEntity
  8
OSESkidSteerPlate
  6
ByLayer
 62
  256
370
   -1
100
AcDbLine
 10
0
 20
0
 11
0
 21
14.09198729810778
  0
LINE
  5
1C7
100
AcDbEntity
  8
OSESkidSteerPlate
  6
ByLayer
 62
  256
370
   -1
100
AcDbLine
 10
-3.262499999999999
 20
14.09198729810778
 11
0
 21
14.09198729810778
  0
LINE
  5
1C8
100
AcDbEntity
  8
OSESkidSteerPlate
  6
ByLayer
 62
  256
370
   -1
100
AcDbLine
 10
-3.762499999999999
 20
14.09198729810778
 11
-3.262499999999999
 21
14.09198729810778
  0
LINE
  5
1C9
100
AcDbEntity
  8
OSESkidSteerPlate
  6
ByLayer
 62
  256
370
   -1
100
AcDbLine
 10
-3.262499999999999
 20
0
 11
0
 21
0
  0
LINE
  5
1CA
100
AcDbEntity
  8
OSESkidSteerPlate
  6
ByLayer
 62
  256
370
   -1
100
AcDbLine
 10
-3.762499999999999
 20
0
 11
-3.262499999999999
 21
0
  0
CIRCLE
  5
1CB
100
AcDbEntity
  8
OSESkidSteerPlate
  6
ByLayer
 62
  256
370
   -1
100
AcDbCircle
 10
-1.6312
 20
12.09198729810778
 40
0.531
  0
CIRCLE
  5
1CC
100
AcDbEntity
  8
OSESkidSteerPlate
  6
ByLayer
 62
  256
370
   -1
100
AcDbCircle
 10
-5.393800000000002
 20
12.09198729810778
 40
0.531
  0
CIRCLE
  5
1CD
100
AcDbEntity
  8
OSESkidSteerPlate
  6
ByLayer
 62
  256
370
   -1
100
AcDbCircle
 10
-5.393800000000002
 20
1.999997298107782
 40
0.531
  0
CIRCLE
  5
1CE
100
AcDbEntity
  8
OSESkidSteerPlate
  6
ByLayer
 62
  256
370
   -1
100
AcDbCircle
 10
-1.6312
 20
1.999997298107782
 40
0.531
  0
LINE
  5
1CF
100
AcDbEntity
  8
OSESkidSteerPlate
  6
ByLayer
 62
  256
370
   -1
100
AcDbLine
 10
-6.525000000000002
 20
14.09198729810778
 11
-6.525000000000002
 21
-1e-16
  0
LINE
  5
1D0
100
AcDbEntity
  8
OSESkidSteerPlate
  6
ByLayer
 62
  256
370
   -1
100
AcDbLine
 10
-4.525
 20
14.09198729810778
 11
-4.525
 21
0
  0
LINE
  5
1D1
100
AcDbEntity
  8
OSESkidSteerPlate
  6
ByLayer
 62
  256
370
   -1
100
AcDbLine
 10
-4.025
 20
14.09198729810778
 11
-4.025
 21
0
  0
LINE
  5
1D2
100
AcDbEntity
  8
OSESkidSteerPlate
  6
ByLayer
 62
  256
370
   -1
100
AcDbLine
 10
-7.025000000000002
 20
0
 11
-6.525000000000002
 21
0
  0
LINE
  5
1D3
100
AcDbEntity
  8
OSESkidSteerPlate
  6
ByLayer
 62
  256
370
   -1
100
AcDbLine
 10
-6.525000000000002
 20
0
 11
-3.762499999999999
 21
0
  0
LINE
  5
1D4
100
AcDbEntity
  8
OSESkidSteerPlate
  6
ByLayer
 62
  256
370
   -1
100
AcDbLine
 10
-7.025000000000002
 20
14.09198729810778
 11
-6.525000000000002
 21
14.09198729810778
  0
LINE
  5
1D5
100
AcDbEntity
  8
OSESkidSteerPlate
  6
ByLayer
 62
  256
370
   -1
100
AcDbLine
 10
-6.525000000000002
 20
14.09198729810778
 11
-3.762499999999999
 21
14.09198729810778
  0
ENDBLK
  5
DB
330
D9
100
AcDbEntity
  8
0
100
AcDbBlockEnd
  0
BLOCK
  5
DD
330
DC
100
AcDbEntity
  8
0
100
AcDbBlockBegin
  2
OSEsideFingerPlate
 70
    0
 10
0
 20
0
  3
OSEsideFingerPlate
  1

  0
LINE
  5
1D6
100
AcDbEntity
  8
OSEFingerPlate
  6
ByLayer
 62
  256
370
   -1
100
AcDbLine
 10
9.885894556299999e-06
 20
0
 11
1.038404679814604
 21
0
  0
LINE
  5
1D7
100
AcDbEntity
  8
OSEFingerPlate
  6
ByLayer
 62
  256
370
   -1
100
AcDbLine
 10
1.038404679814604
 20
0
 11
1.038404679814604
 21
3.903307298107782
  0
LINE
  5
1D8
100
AcDbEntity
  8
OSEFingerPlate
  6
ByLayer
 62
  256
370
   -1
100
AcDbLine
 10
1.038404679814604
 20
3.903307298107782
 11
9.885894556299999e-06
 21
3.903307298107782
  0
LINE
  5
1D9
100
AcDbEntity
  8
OSEFingerPlate
  6
ByLayer
 62
  256
370
   -1
100
AcDbLine
 10
9.885894556299999e-06
 20
3.903307298107782
 11
9.885894556299999e-06
 21
0
  0
INSERT
  5
1DA
100
AcDbEntity
  8
OSEFingerPlate
  6
ByLayer
 62
  256
370
   -1
100
AcDbBlockReference
  2
Pin
 10
0.5384046798145903
 20
-1.096692701892218
 30
0
 41
1
 42
1
 43
0
 50
0
 70
    1
 71
    1
 44
1
 45
1
  0
LINE
  5
1DB
100
AcDbEntity
  8
0
  6
ByLayer
 62
  256
370
   -1
100
AcDbLine
 10
4.6798145945e-06
 20
3.211317298107781
 11
4.000004679814595
 21
3.211317298107781
  0
LINE
  5
1DC
100
AcDbEntity
  8
0
  6
ByLayer
 62
  256
370
   -1
100
AcDbLine
 10
4.6798145945e-06
 20
10.30330729810778
 11
4.000004679814595
 21
10.30330729810778
  0
INSERT
  5
1DD
100
AcDbEntity
  8
Bolts
  6
ByLayer
 62
  256
370
   -1
100
AcDbBlockReference
  2
1"BoltHeadTop
 10
2.000004679814595
 20
10.30330729810778
 30
0
 41
1
 42
1
 43
0
 50
0
 70
    1
 71
    1
 44
1
 45
1
  0
INSERT
  5
1DE
100
AcDbEntity
  8
Bolts
  6
ByLayer
 62
  256
370
   -1
100
AcDbBlockReference
  2
1"BoltHeadTop
 10
2.000004679814595
 20
3.211317298107781
 30
0
 41
1
 42
1
 43
0
 50
0
 70
    1
 71
    1
 44
1
 45
1
  0
LINE
  5
1DF
100
AcDbEntity
  8
OSELatchParts
  6
ByLayer
 62
  256
370
   -1
100
AcDbLine
 10
0.1634046798145903
 20
5.903307298107782
 11
3.91340467981459
 21
5.903307298107782
  0
LINE
  5
1E0
100
AcDbEntity
  8
OSELatchParts
  6
ByLayer
 62
  256
370
   -1
100
AcDbLine
 10
3.91340467981459
 20
5.903307298107782
 11
3.91340467981459
 21
7.903307298107782
  0
LINE
  5
1E1
100
AcDbEntity
  8
OSELatchParts
  6
ByLayer
 62
  256
370
   -1
100
AcDbLine
 10
0.1634046798145903
 20
5.903307298107782
 11
0.1634046798145903
 21
6.903307298107782
  0
LINE
  5
1E2
100
AcDbEntity
  8
OSELatchParts
  6
ByLayer
 62
  256
370
   -1
100
AcDbLine
 10
0.1634046798145903
 20
6.903307298107782
 11
3.91340467981459
 21
7.903307298107782
  0
LINE
  5
1E3
100
AcDbEntity
  8
Bolts
  6
ByLayer
 62
  256
370
   -1
100
AcDbLine
 10
3.343404679814597
 20
5.903307298107782
 11
3.343404679814597
 21
7.903307298107782
  0
INSERT
  5
1E4
100
AcDbEntity
  8
Bolts
  6
ByLayer
 62
  256
370
   -1
100
AcDbBlockReference
  2
5/8"NutSide
 10
3.343404679814597
 20
5.903307298107782
 30
0
 41
1
 42
1
 43
0
 50
0
 70
    1
 71
    1
 44
1
 45
1
  0
INSERT
  5
1E5
100
AcDbEntity
  8
Bolts
  6
ByLayer
 62
  256
370
   -1
100
AcDbBlockReference
  2
5/8"NutSide
 10
3.343404679814597
 20
6.937300974666029
 30
0
 41
1
 42
1
 43
0
 50
0
 70
    1
 71
    1
 44
1
 45
1
  0
LINE
  5
1E6
100
AcDbEntity
  8
OSEFingerPlate
  6
ByLayer
 62
  256
370
   -1
100
AcDbLine
 10
3.343404679814597
 20
1.653307298107782
 11
4.000004679814595
 21
1.653307298107782
  0
LINE
  5
1E7
100
AcDbEntity
  8
OSEFingerPlate
  6
ByLayer
 62
  256
370
   -1
100
AcDbLine
 10
3.343404679814597
 20
1.153307298107782
 11
4.000004679814595
 21
1.153307298107782
  0
LINE
  5
1E8
100
AcDbEntity
  8
OSEFingerPlate
  6
ByLayer
 62
  256
370
   -1
100
AcDbLine
 10
3.343404679814597
 20
1.653307298107782
 11
2.686904679814603
 21
1.653307298107782
  0
LINE
  5
1E9
100
AcDbEntity
  8
OSEFingerPlate
  6
ByLayer
 62
  256
370
   -1
100
AcDbLine
 10
3.343404679814597
 20
1.153307298107782
 11
2.686904679814603
 21
1.153307298107782
  0
LINE
  5
1EA
100
AcDbEntity
  8
OSEFingerPlate
  6
ByLayer
 62
  256
370
   -1
100
AcDbLine
 10
2.686904679814603
 20
1.153307298107782
 11
2.686904679814603
 21
1.653307298107782
  0
LINE
  5
1EB
100
AcDbEntity
  8
OSEFingerPlate
  6
ByLayer
 62
  256
370
   -1
100
AcDbLine
 10
3.343404679814597
 20
12.03330729810778
 11
4.000004679814595
 21
12.03330729810778
  0
LINE
  5
1EC
100
AcDbEntity
  8
OSEFingerPlate
  6
ByLayer
 62
  256
370
   -1
100
AcDbLine
 10
3.343404679814597
 20
11.53330729810778
 11
4.000004679814595
 21
11.53330729810778
  0
LINE
  5
1ED
100
AcDbEntity
  8
OSEFingerPlate
  6
ByLayer
 62
  256
370
   -1
100
AcDbLine
 10
3.343404679814597
 20
12.03330729810778
 11
2.686904679814603
 21
12.03330729810778
  0
LINE
  5
1EE
100
AcDbEntity
  8
OSEFingerPlate
  6
ByLayer
 62
  256
370
   -1
100
AcDbLine
 10
3.343404679814597
 20
11.53330729810778
 11
2.686904679814603
 21
11.53330729810778
  0
LINE
  5
1EF
100
AcDbEntity
  8
OSEFingerPlate
  6
ByLayer
 62
  256
370
   -1
100
AcDbLine
 10
2.686904679814603
 20
11.53330729810778
 11
2.686904679814603
 21
12.03330729810778
  0
INSERT
  5
1F0
100
AcDbEntity
  8
OSELatchParts
  6
ByLayer
 62
  256
370
   -1
100
AcDbBlockReference
  2
5/8"ShaftCollar
 10
3.343404679814597
 20
12.03330729810778
 30
0
 41
1
 42
1
 43
0
 50
0
 70
    1
 71
    1
 44
1
 45
1
  0
INSERT
  5
1F1
100
AcDbEntity
  8
OSELatchParts
  6
ByLayer
 62
  256
370
   -1
100
AcDbBlockReference
  2
5/8"ShaftCollar
 10
3.343404679814597
 20
1.153307298107782
 30
0
 41
1
 42
1
 43
0
 50
180
 70
    1
 71
    1
 44
1
 45
1
  0
INSERT
  5
1F2
100
AcDbEntity
  8
OSELatchParts
  6
ByLayer
 62
  256
370
   -1
100
AcDbBlockReference
  2
5/8"ThreadedRod
 10
3.343404679814597
 20
-0.0966927018922181
 30
0
 41
1
 42
1
 43
0
 50
0
 70
    1
 71
    1
 44
0
 45
0
  0
LINE
  5
1F3
100
AcDbEntity
  8
OSEFingerPlate
  6
ByLayer
 62
  256
370
   -1
100
AcDbLine
 10
0
 20
0
 11
2.000004679814595
 21
-1.154703240271472
  0
LINE
  5
1F4
100
AcDbEntity
  8
OSEFingerPlate
  6
ByLayer
 62
  256
370
   -1
100
AcDbLine
 10
2.000004679814595
 20
-1.154703240271472
 11
4.000004679814595
 21
-1.154703240271472
  0
LINE
  5
1F5
100
AcDbEntity
  8
OSEFingerPlate
  6
ByLayer
 62
  256
370
   -1
100
AcDbLine
 10
4.000004679814595
 20
-1.154703240271472
 11
4.000004679814595
 21
12.03330729810778
  0
LINE
  5
1F6
100
AcDbEntity
  8
OSEFingerPlate
  6
ByLayer
 62
  256
370
   -1
100
AcDbLine
 10
4.000004679814595
 20
12.03330729810778
 11
4.6798145945e-06
 21
15.90330946162075
  0
LINE
  5
1F7
100
AcDbEntity
  8
OSEFingerPlate
  6
ByLayer
 62
  256
370
   -1
100
AcDbLine
 10
4.6798145945e-06
 20
15.90330946162075
 11
0
 21
0
  0
LINE
  5
1F8
100
AcDbEntity
  8
OSELatchParts
  6
ByLayer
 62
  256
370
   -1
100
AcDbLine
 10
0.1634046798145903
 20
-1.096692701892218
 11
0.16340467981459
 21
-2.596692701892218
  0
LINE
  5
1F9
100
AcDbEntity
  8
OSELatchParts
  6
ByLayer
 62
  256
370
   -1
100
AcDbLine
 10
0.9134046798145903
 20
-1.096692701892218
 11
0.9134046798145903
 21
-1.296692701892218
  0
LINE
  5
1FA
100
AcDbEntity
  8
OSELatchParts
  6
ByLayer
 62
  256
370
   -1
100
AcDbLine
 10
0.9134046798145903
 20
-1.296692701892218
 11
0.16340467981459
 21
-2.596692701892218
  0
LINE
  5
1FB
100
AcDbEntity
  8
OSELatchParts
  6
ByLayer
 62
  256
370
   -1
100
AcDbLine
 10
0.1634046798145903
 20
-1.096692701892218
 11
0.9134046798145903
 21
-1.096692701892218
  0
ENDBLK
  5
DE
330
DC
100
AcDbEntity
  8
0
100
AcDbBlockEnd
  0
BLOCK
  5
E0
330
DF
100
AcDbEntity
  8
0
100
AcDbBlockBegin
  2
1"NutSide
 70
    0
 10
0
 20
0
  3
1"NutSide
  1

  0
LINE
  5
1FC
100
AcDbEntity
  8
Bolts
  6
ByLayer
 62
  256
370
   -1
100
AcDbLine
 10
0
 20
0.7500000000000002
 11
0.9000000000000021
 21
0.7500000000000002
  0
LINE
  5
1FD
100
AcDbEntity
  8
Bolts
  6
ByLayer
 62
  256
370
   -1
100
AcDbLine
 10
0.9000000000000021
 20
0.7500000000000002
 11
0.9000000000000021
 21
-0.75
  0
LINE
  5
1FE
100
AcDbEntity
  8
Bolts
  6
ByLayer
 62
  256
370
   -1
100
AcDbLine
 10
0.9000000000000021
 20
-0.75
 11
0
 21
-0.75
  0
LINE
  5
1FF
100
AcDbEntity
  8
Bolts
  6
ByLayer
 62
  256
370
   -1
100
AcDbLine
 10
0
 20
-0.75
 11
0
 21
0.7500000000000002
  0
LINE
  5
200
100
AcDbEntity
  8
Bolts
  6
ByLayer
 62
  256
370
   -1
100
AcDbLine
 10
0
 20
0
 11
1
 21
0
  0
ENDBLK
  5
E1
330
DF
100
AcDbEntity
  8
0
100
AcDbBlockEnd
  0
BLOCK
  5
E3
330
E2
100
AcDbEntity
  8
0
100
AcDbBlockBegin
  2
5/8"NutSide
 70
    0
 10
0
 20
0
  3
5/8"NutSide
  1

  0
LINE
  5
201
100
AcDbEntity
  8
Bolts
  6
ByLayer
 62
  256
370
   -1
100
AcDbLine
 10
-0.5649999999999977
 20
0.6499999999999995
 11
0.5649999999999977
 21
0.6499999999999995
  0
LINE
  5
202
100
AcDbEntity
  8
Bolts
  6
ByLayer
 62
  256
370
   -1
100
AcDbLine
 10
0.5649999999999977
 20
0.6499999999999995
 11
0.5649999999999977
 21
0
  0
LINE
  5
203
100
AcDbEntity
  8
Bolts
  6
ByLayer
 62
  256
370
   -1
100
AcDbLine
 10
0.5649999999999977
 20
0
 11
-0.5649999999999977
 21
0
  0
LINE
  5
204
100
AcDbEntity
  8
Bolts
  6
ByLayer
 62
  256
370
   -1
100
AcDbLine
 10
-0.5649999999999977
 20
0
 11
-0.5649999999999977
 21
0.6499999999999995
  0
ENDBLK
  5
E4
330
E2
100
AcDbEntity
  8
0
100
AcDbBlockEnd
  0
BLOCK
  5
E6
330
E5
100
AcDbEntity
  8
0
100
AcDbBlockBegin
  2
5/8"ShaftCollar
 70
    0
 10
0
 20
0
  3
5/8"ShaftCollar
  1

  0
HATCH
  5
205
100
AcDbEntity
  8
OSELatchParts
  6
ByLayer
 62
  256
370
   -1
100
AcDbHatch
 10
0
 20
0
 30
0
210
0
220
0
230
1
  2
ansi31
 70
    0
 71
    0
 91
    1
 92
    0
 93
    4
 72
    1
 10
-0.65625
 20
0
 11
0.65625
 21
0
 72
    1
 10
0.65625
 20
0
 11
0.65625
 21
0.4370000000000001
 72
    1
 10
0.65625
 20
0.4370000000000001
 11
-0.65625
 21
0.4370000000000001
 72
    1
 10
-0.65625
 20
0.4370000000000001
 11
-0.65625
 21
0
 97
    0
 75
    0
 76
    1
 52
0
 41
0.2
 77
    0
 78
    0
 98
    0
  0
LINE
  5
206
100
AcDbEntity
  8
OSELatchParts
  6
ByLayer
 62
  256
370
   -1
100
AcDbLine
 10
-0.65625
 20
0
 11
0.65625
 21
0
  0
LINE
  5
207
100
AcDbEntity
  8
OSELatchParts
  6
ByLayer
 62
  256
370
   -1
100
AcDbLine
 10
0.65625
 20
0
 11
0.65625
 21
0.4370000000000001
  0
LINE
  5
208
100
AcDbEntity
  8
OSELatchParts
  6
ByLayer
 62
  256
370
   -1
100
AcDbLine
 10
0.65625
 20
0.4370000000000001
 11
-0.65625
 21
0.4370000000000001
  0
LINE
  5
209
100
AcDbEntity
  8
OSELatchParts
  6
ByLayer
 62
  256
370
   -1
100
AcDbLine
 10
-0.65625
 20
0.4370000000000001
 11
-0.65625
 21
0
  0
ENDBLK
  5
E7
330
E5
100
AcDbEntity
  8
0
100
AcDbBlockEnd
  0
BLOCK
  5
E9
330
E8
100
AcDbEntity
  8
0
100
AcDbBlockBegin
  2
5/8"ThreadedRod
 70
    0
 10
0
 20
0
  3
5/8"ThreadedRod
  1

  0
HATCH
  5
20A
100
AcDbEntity
  8
OSELatchParts
  6
ByLayer
 62
  256
370
   -1
100
AcDbHatch
 10
0
 20
0
 30
0
210
0
220
0
230
1
  2
ansi31
 70
    0
 71
    0
 91
    1
 92
    0
 93
    4
 72
    1
 10
-0.3125
 20
15
 11
0.3125
 21
15
 72
    1
 10
0.3125
 20
15
 11
0.3125
 21
0
 72
    1
 10
0.3125
 20
0
 11
-0.3125
 21
0
 72
    1
 10
-0.3125
 20
0
 11
-0.3125
 21
15
 97
    0
 75
    0
 76
    1
 52
0
 41
0.8
 77
    0
 78
    0
 98
    0
  0
LINE
  5
20B
100
AcDbEntity
  8
OSELatchParts
  6
ByLayer
 62
  256
370
   -1
100
AcDbLine
 10
-0.3125
 20
15
 11
0.3125
 21
15
  0
LINE
  5
20C
100
AcDbEntity
  8
OSELatchParts
  6
ByLayer
 62
  256
370
   -1
100
AcDbLine
 10
-0.3125
 20
0
 11
-0.3125
 21
15
  0
LINE
  5
20D
100
AcDbEntity
  8
OSELatchParts
  6
ByLayer
 62
  256
370
   -1
100
AcDbLine
 10
-0.3125
 20
0
 11
0.3125
 21
0
  0
LINE
  5
20E
100
AcDbEntity
  8
OSELatchParts
  6
ByLayer
 62
  256
370
   -1
100
AcDbLine
 10
0.3125
 20
0
 11
0.3125
 21
15
  0
ENDBLK
  5
EA
330
E8
100
AcDbEntity
  8
0
100
AcDbBlockEnd
  0
ENDSEC
  0
SECTION
  2
ENTITIES
  0
HATCH
  5
20F
100
AcDbEntity
  8
OSEFingerPlate
  6
ByLayer
 62
  256
370
   -1
100
AcDbHatch
 10
0
 20
0
 30
0
210
0
220
0
230
1
  2
ansi31
 70
    0
 71
    0
 91
    1
 92
    0
 93
    4
 72
    1
 10
100.6037521908964
 20
5.137242036831689
 11
102.6037521908964
 21
5.137242036831689
 72
    1
 10
102.6037521908964
 20
5.137242036831689
 11
102.6037521908964
 21
4.630000000000001
 72
    1
 10
102.6037521908964
 20
4.630000000000001
 11
100.6037521908964
 21
4.630000000000001
 72
    1
 10
100.6037521908964
 20
4.630000000000001
 11
100.6037521908964
 21
5.137242036831689
 97
    0
 75
    0
 76
    1
 52
0
 41
0.1
 77
    0
 78
    0
 98
    0
  0
HATCH
  5
210
100
AcDbEntity
  8
OSEFingerPlate
  6
ByLayer
 62
  256
370
   -1
100
AcDbHatch
 10
0
 20
0
 30
0
210
0
220
0
230
1
  2
ansi31
 70
    0
 71
    0
 91
    1
 92
    0
 93
    4
 72
    1
 10
100.6037521908964
 20
-5.25
 11
102.6037521908964
 21
-5.25
 72
    1
 10
102.6037521908964
 20
-5.25
 11
102.6037521908964
 21
-5.75
 72
    1
 10
102.6037521908964
 20
-5.75
 11
100.6037521908964
 21
-5.75
 72
    1
 10
100.6037521908964
 20
-5.75
 11
100.6037521908964
 21
-5.25
 97
    0
 75
    0
 76
    1
 52
0
 41
0.1
 77
    0
 78
    0
 98
    0
  0
HATCH
  5
211
100
AcDbEntity
  8
OSEFingerPlate
  6
ByLayer
 62
  256
370
   -1
100
AcDbHatch
 10
0
 20
0
 30
0
210
0
220
0
230
1
  2
ansi31
 70
    0
 71
    0
 91
    1
 92
    0
 93
    4
 72
    1
 10
100.1037521908964
 20
8.999999999999996
 11
100.1037521908964
 21
-8.058007836487036
 72
    1
 10
100.1037521908964
 20
-8.058007836487036
 11
100.6037521908964
 21
-8.058007836487036
 72
    1
 10
100.6037521908964
 20
-8.058007836487036
 11
100.6037521908964
 21
8.999999999999996
 72
    1
 10
100.6037521908964
 20
8.999999999999996
 11
100.1037521908964
 21
8.999999999999996
 97
    0
 75
    0
 76
    1
 52
0
 41
0.1
 77
    0
 78
    0
 98
    0
  0
HATCH
  5
212
100
AcDbEntity
  8
OSESkidSteerPlate
  6
ByLayer
 62
  256
370
   -1
100
AcDbHatch
 10
0
 20
0
 30
0
210
0
220
0
230
1
  2
ansi31
 70
    0
 71
    0
 91
    1
 92
    0
 93
    4
 72
    1
 10
9.000000000000002
 20
6.9
 11
9.000000000000002
 21
-7.191987298107781
 72
    1
 10
9.000000000000002
 20
-7.191987298107781
 11
9.500000000000002
 21
-7.191987298107781
 72
    1
 10
9.500000000000002
 20
-7.191987298107781
 11
9.500000000000002
 21
6.9
 72
    1
 10
9.500000000000002
 20
6.9
 11
9.000000000000002
 21
6.9
 97
    0
 75
    0
 76
    1
 52
0
 41
0.1
 77
    0
 78
    0
 98
    0
  0
LINE
  5
213
100
AcDbEntity
  8
SAE_j2513
  6
ByLayer
 62
  256
370
   -1
100
AcDbLine
 10
0
 20
10
 11
2.25
 21
10
  0
LINE
  5
214
100
AcDbEntity
  8
SAE_j2513
  6
ByLayer
 62
  256
370
   -1
100
AcDbLine
 10
1
 20
9
 11
1
 21
-9.790063509461094
  0
LINE
  5
215
100
AcDbEntity
  8
SAE_j2513
  6
ByLayer
 62
  256
370
   -1
100
AcDbLine
 10
2.25
 20
-7.625
 11
1
 21
-9.790063509461094
  0
LINE
  5
216
100
AcDbEntity
  8
SAE_j2513
  6
ByLayer
 62
  256
370
   -1
100
AcDbLine
 10
3
 20
-11
 11
3
 21
-8.058012701892219
  0
LINE
  5
217
100
AcDbEntity
  8
SAE_j2513
  6
ByLayer
 62
  256
370
   -1
100
AcDbLine
 10
0
 20
-11
 11
0
 21
10
  0
LINE
  5
218
100
AcDbEntity
  8
SAE_j2513
  6
ByLayer
 62
  256
370
   -1
100
AcDbLine
 10
0
 20
-11
 11
3
 21
-11
  0
LINE
  5
219
100
AcDbEntity
  8
SAE_j2513
  6
ByLayer
 62
  256
370
   -1
100
AcDbLine
 10
2.25
 20
10
 11
2.25
 21
7.792889031491156
  0
LINE
  5
21A
100
AcDbEntity
  8
SAE_j2513
  6
ByLayer
 62
  256
370
   -1
100
AcDbLine
 10
2.25
 20
9
 11
2.25
 21
7.792889031491156
  0
LINE
  5
21B
100
AcDbEntity
  8
SAE_DIM
  6
ByLayer
 62
  256
370
   -1
100
AcDbLine
 10
1
 20
9
 11
0.9999999999999963
 21
-11
  0
DIMENSION
  5
21C
100
AcDbEntity
  8
SAE_DIM
  6
ByLayer
 62
  256
370
   -1
100
AcDbDimension
  2
*D1
 10
2.25
 20
-6.903312163512966
 30
0
 11
1.624999999999999
 21
-5.403312163512966
 31
0
 70
   32
 71
    5
  3
Standard
 53
0
210
0
220
0
230
1
100
AcDbAlignedDimension
 13
0.9999999999999971
 23
-6.903312163512966
 33
0
 14
2.25
 24
-7.625000000000001
 34
0
100
AcDbRotatedDimension
  0
LINE
  5
21D
100
AcDbEntity
  8
SAE_j2513
  6
ByLayer
 62
  256
370
   -1
100
AcDbLine
 10
3
 20
10
 11
3
 21
10
  0
LINE
  5
21E
100
AcDbEntity
  8
SAE_DIM
  6
ByLayer
 62
  256
370
   -1
100
AcDbLine
 10
2.25
 20
-7.625
 11
-2.75
 21
-16.28525403784439
  0
LINE
  5
21F
100
AcDbEntity
  8
SAE_j2513
  6
ByLayer
 62
  256
370
   -1
100
AcDbLine
 10
58.2
 20
-8.058012701892219
 11
58.2
 21
-11
  0
LINE
  5
220
100
AcDbEntity
  8
SAE_j2513
  6
ByLayer
 62
  256
370
   -1
100
AcDbLine
 10
62.25
 20
-8.058012701892219
 11
62.25
 21
-11
  0
LINE
  5
221
100
AcDbEntity
  8
SAE_j2513
  6
ByLayer
 62
  256
370
   -1
100
AcDbLine
 10
30.8
 20
-8.058012701892219
 11
30.8
 21
-11
  0
LINE
  5
222
100
AcDbEntity
  8
SAE_j2513
  6
ByLayer
 62
  256
370
   -1
100
AcDbLine
 10
26.75
 20
-8.058012701892219
 11
26.75
 21
-11
  0
LINE
  5
223
100
AcDbEntity
  8
SAE_j2513
  6
ByLayer
 62
  256
370
   -1
100
AcDbLine
 10
26.75
 20
-11
 11
30.8
 21
-11
  0
LINE
  5
224
100
AcDbEntity
  8
SAE_j2513
  6
ByLayer
 62
  256
370
   -1
100
AcDbLine
 10
30.8
 20
-11
 11
58.2
 21
-11
  0
LINE
  5
225
100
AcDbEntity
  8
SAE_j2513
  6
ByLayer
 62
  256
370
   -1
100
AcDbLine
 10
58.2
 20
-11
 11
62.25
 21
-11
  0
LINE
  5
226
100
AcDbEntity
  8
SAE_DIM
  6
ByLayer
 62
  256
370
   -1
100
AcDbLine
 10
2.25
 20
-7.625
 11
10.91025403784438
 21
-12.625
  0
LINE
  5
227
100
AcDbEntity
  8
SAE_DIM
  6
ByLayer
 62
  256
370
   -1
100
AcDbLine
 10
1
 20
9
 11
4.596699001693255
 21
5.526708147705012
  0
LINE
  5
228
100
AcDbEntity
  8
SAE_DIM
  6
ByLayer
 62
  256
370
   -1
100
AcDbLine
 10
1
 20
9
 11
4.473291852294986
 21
12.59669900169326
  0
LINE
  5
229
100
AcDbEntity
  8
SAE_DIM
  6
ByLayer
 62
  256
370
   -1
100
AcDbLine
 10
2.25
 20
7.792889031491156
 11
5.723291852294986
 21
11.38958803318441
  0
DIMENSION
  5
22A
100
AcDbEntity
  8
SAE_DIM
  6
ByLayer
 62
  256
370
   -1
100
AcDbDimension
  2
*D2
 10
5.723291852294986
 20
11.38958803318441
 30
0
 11
6.140279407983484
 21
13.07215321794681
 31
0
 70
   33
 71
    5
 72
    0
  3
Standard
 53
0
210
0
220
0
230
1
100
AcDbAlignedDimension
 13
4.473291852294986
 23
12.59669900169326
 33
0
 14
5.723291852294986
 24
11.38958803318441
 34
0
  0
DIMENSION
  5
22B
100
AcDbEntity
  8
SAE_DIM
  6
ByLayer
 62
  256
370
   -1
100
AcDbDimension
  2
*D3
 10
4.596699001693255
 20
5.526708147705012
 30
0
 11
0
 21
0
 31
0
 70
   34
 71
    5
 72
    0
  3
Standard
 53
0
210
0
220
0
230
1
100
AcDb2LineAngularDimension
 13
1
 23
9
 33
0
 14
1
 24
-9.790063509461094
 34
0
 15
1
 25
9
 35
0
 16
2.462973352518529
 26
5.772593794965303
 36
0
  0
DIMENSION
  5
22C
100
AcDbEntity
  8
SAE_DIM
  6
ByLayer
 62
  256
370
   -1
100
AcDbDimension
  2
*D4
 10
10.91025403784438
 20
-12.625
 30
0
 11
0
 21
0
 31
0
 70
   34
 71
    5
 72
    0
  3
Standard
 53
0
210
0
220
0
230
1
100
AcDb2LineAngularDimension
 13
2.25
 23
-7.625
 33
0
 14
-2.75
 24
-16.28525403784439
 34
0
 15
2.25
 25
-7.625
 35
0
 16
7.927695478419016
 26
-13.08454593525469
 36
0
  0
LINE
  5
22D
100
AcDbEntity
  8
SAE_DIM
  6
ByLayer
 62
  256
370
   -1
100
AcDbLine
 10
28.775
 20
12
 11
33
 21
12
  0
LINE
  5
22E
100
AcDbEntity
  8
SAE_DIM
  6
ByLayer
 62
  256
370
   -1
100
AcDbLine
 10
28.775
 20
-13
 11
33
 21
-13
  0
LINE
  5
22F
100
AcDbEntity
  8
SAE_DIM
  6
DASHEDX2
 62
  256
370
   -1
100
AcDbLine
 10
28.775
 20
12
 11
28.775
 21
-13
  0
MTEXT
  5
230
100
AcDbEntity
  8
SAE_DIM
  6
ByLayer
 62
  256
370
   -1
100
AcDbMText
 10
29
 20
14
 30
0
 40
1
 41
3.555555555555555
 71
    1
 72
    5
  1
x2-x2
  7
iso
210
0
220
0
230
1
 50
0
 73
    1
 44
0.96
  0
LINE
  5
231
100
AcDbEntity
  8
SAE_DIM
  6
ByLayer
 62
  256
370
   -1
100
AcDbLine
 10
26.75
 20
-11
 11
26.75
 21
-18
  0
LINE
  5
232
100
AcDbEntity
  8
SAE_DIM
  6
ByLayer
 62
  256
370
   -1
100
AcDbLine
 10
62.25
 20
-11
 11
62.25
 21
-18
  0
LINE
  5
233
100
AcDbEntity
  8
SAE_DIM
  6
ByLayer
 62
  256
370
   -1
100
AcDbLine
 10
30.8
 20
-11
 11
30.8
 21
-16
  0
LINE
  5
234
100
AcDbEntity
  8
SAE_DIM
  6
ByLayer
 62
  256
370
   -1
100
AcDbLine
 10
58.2
 20
-11
 11
58.2
 21
-16
  0
DIMENSION
  5
235
100
AcDbEntity
  8
SAE_DIM
  6
ByLayer
 62
  256
370
   -1
100
AcDbDimension
  2
*D5
 10
58.2
 20
-16
 30
0
 11
44.5
 21
-14.5
 31
0
 70
   32
 71
    5
 72
    0
  3
Standard
 53
0
210
0
220
0
230
1
100
AcDbAlignedDimension
 13
30.8
 23
-16
 33
0
 14
58.2
 24
-16
 34
0
100
AcDbRotatedDimension
  0
DIMENSION
  5
236
100
AcDbEntity
  8
SAE_DIM
  6
ByLayer
 62
  256
370
   -1
100
AcDbDimension
  2
*D6
 10
62.25
 20
-18
 30
0
 11
44.5
 21
-16.5
 31
0
 70
   32
 71
    5
  3
Standard
 53
0
210
0
220
0
230
1
100
AcDbAlignedDimension
 13
26.75
 23
-18
 33
0
 14
62.25
 24
-18
 34
0
100
AcDbRotatedDimension
  0
LINE
  5
237
100
AcDbEntity
  8
SAE_j2513
  6
ByLayer
 62
  256
370
   -1
100
AcDbLine
 10
66.5
 20
10
 11
66.5
 21
-11
  0
LINE
  5
238
100
AcDbEntity
  8
SAE_j2513
  6
ByLayer
 62
  256
370
   -1
100
AcDbLine
 10
22.5
 20
-11
 11
26.75
 21
-11
  0
LINE
  5
239
100
AcDbEntity
  8
SAE_j2513
  6
ByLayer
 62
  256
370
   -1
100
AcDbLine
 10
22.5
 20
7.792889031491156
 11
66.5
 21
7.792889031491156
  0
LINE
  5
23A
100
AcDbEntity
  8
SAE_j2513
  6
ByLayer
 62
  256
370
   -1
100
AcDbLine
 10
22.5
 20
10
 11
66.5
 21
10
  0
LINE
  5
23B
100
AcDbEntity
  8
SAE_j2513
  6
ByLayer
 62
  256
370
   -1
100
AcDbLine
 10
66.5
 20
10
 11
22.5
 21
10
  0
LINE
  5
23C
100
AcDbEntity
  8
SAE_j2513
  6
ByLayer
 62
  256
370
   -1
100
AcDbLine
 10
22.5
 20
-8.058012701892219
 11
66.5
 21
-8.058012701892219
  0
LINE
  5
23D
100
AcDbEntity
  8
SAE_j2513
  6
ByLayer
 62
  256
370
   -1
100
AcDbLine
 10
62.25
 20
-11
 11
66.5
 21
-11
  0
LINE
  5
23E
100
AcDbEntity
  8
SAE_DIM
  6
ByLayer
 62
  256
370
   -1
100
AcDbLine
 10
22.5
 20
-11
 11
22.5
 21
-24
  0
LINE
  5
23F
100
AcDbEntity
  8
SAE_DIM
  6
ByLayer
 62
  256
370
   -1
100
AcDbLine
 10
66.5
 20
-11
 11
66.5
 21
-24
  0
DIMENSION
  5
240
100
AcDbEntity
  8
SAE_DIM
  6
ByLayer
 62
  256
370
   -1
100
AcDbDimension
  2
*D7
 10
66.5
 20
-24
 30
0
 11
44.5
 21
-22.5
 31
0
 70
   32
 71
    5
  3
Standard
 53
0
210
0
220
0
230
1
100
AcDbAlignedDimension
 13
22.5
 23
-24
 33
0
 14
66.5
 24
-24
 34
0
100
AcDbRotatedDimension
  0
DIMENSION
  5
241
100
AcDbEntity
  8
SAE_DIM
  6
ByLayer
 62
  256
370
   -1
100
AcDbDimension
  2
*D8
 10
-2.63611110066911
 20
9.000000000000002
 30
0
 11
-4.13611110066911
 21
0.687500000000002
 31
0
 70
   32
 71
    5
  3
Standard
 53
0
210
0
220
0
230
1
100
AcDbAlignedDimension
 13
-2.63611110066911
 23
-7.625
 33
0
 14
-2.63611110066911
 24
9.000000000000002
 34
0
 50
90
100
AcDbRotatedDimension
  0
DIMENSION
  5
242
100
AcDbEntity
  8
SAE_DIM
  6
ByLayer
 62
  256
370
   -1
100
AcDbDimension
  2
*D9
 10
-3.88611110066911
 20
9.000000000000002
 30
0
 11
-5.38611110066911
 21
1.048343918243517
 31
0
 70
   32
 71
    5
  3
Standard
 53
0
210
0
220
0
230
1
100
AcDbAlignedDimension
 13
-3.886111100669114
 23
-6.903312163512966
 33
0
 14
-3.88611110066911
 24
9.000000000000002
 34
0
 50
90
100
AcDbRotatedDimension
  0
LINE
  5
243
100
AcDbEntity
  8
SAE_DIM
  6
ByLayer
 62
  256
370
   -1
100
AcDbLine
 10
1
 20
9
 11
-3.88611110066911
 21
9
  0
LINE
  5
244
100
AcDbEntity
  8
SAE_DIM
  6
ByLayer
 62
  256
370
   -1
100
AcDbLine
 10
0.9999999999999971
 20
-6.903312163512966
 11
-3.88611110066911
 21
-6.903312163512966
  0
LINE
  5
245
100
AcDbEntity
  8
SAE_DIM
  6
ByLayer
 62
  256
370
   -1
100
AcDbLine
 10
2.25
 20
-7.625
 11
-2.636111100669111
 21
-7.625
  0
LINE
  5
246
100
AcDbEntity
  8
SAE_DIM
  6
ByLayer
 62
  256
370
   -1
100
AcDbLine
 10
60.225
 20
-11
 11
60.225
 21
-6
  0
LINE
  5
247
100
AcDbEntity
  8
SAE_DIM
  6
ByLayer
 62
  256
370
   -1
100
AcDbLine
 10
66.5
 20
-11
 11
66.5
 21
-6
  0
DIMENSION
  5
248
100
AcDbEntity
  8
SAE_DIM
  6
ByLayer
 62
  256
370
   -1
100
AcDbDimension
  2
*D10
 10
66.5
 20
-6
 30
0
 11
63.3625
 21
-4.5
 31
0
 70
   32
 71
    5
  3
Standard
 53
0
210
0
220
0
230
1
100
AcDbAlignedDimension
 13
60.225
 23
-6
 33
0
 14
66.5
 24
-6
 34
0
100
AcDbRotatedDimension
  0
LINE
  5
249
100
AcDbEntity
  8
SAE_j2513
  6
ByLayer
 62
  256
370
   -1
100
AcDbLine
 10
2.25
 20
-7.625
 11
3
 21
-8.058012701892219
  0
LINE
  5
24A
100
AcDbEntity
  8
SAE_j2513
  6
ByLayer
 62
  256
370
   -1
100
AcDbLine
 10
26.75
 20
-9.790063509461094
 11
30.8
 21
-9.790063509461094
  0
LINE
  5
24B
100
AcDbEntity
  8
SAE_j2513
  6
ByLayer
 62
  256
370
   -1
100
AcDbLine
 10
58.2
 20
-9.790063509461094
 11
62.25
 21
-9.790063509461094
  0
INSERT
  5
24C
100
AcDbEntity
  8
OSELatchParts
  6
ByLayer
 62
  256
370
   -1
100
AcDbBlockReference
  2
Pin
 10
28.775
 20
-9.790063509461094
 30
0
 41
1
 42
1
 43
0
 50
0
 70
    1
 71
    1
 44
0
 45
0
  0
INSERT
  5
24D
100
AcDbEntity
  8
OSELatchParts
  6
ByLayer
 62
  256
370
   -1
100
AcDbBlockReference
  2
Pin
 10
60.225
 20
-9.790063509461094
 30
0
 41
1
 42
1
 43
0
 50
0
 70
    1
 71
    1
 44
1
 45
1
  0
INSERT
  5
24E
100
AcDbEntity
  8
OSEFingerPlate
  6
ByLayer
 62
  256
370
   -1
100
AcDbBlockReference
  2
FingerRearBlock
 10
25.3875
 20
-7.19199
 30
0
 41
1
 42
1
 43
0
 50
0
 70
    1
 71
    1
 44
0
 45
0
  0
INSERT
  5
24F
100
AcDbEntity
  8
OSEFingerPlate
  6
ByLayer
 62
  256
370
   -1
100
AcDbBlockReference
  2
FingerRearBlock
 10
63.6125
 20
-7.191987298107783
 30
0
 41
1
 42
-1
 43
0
 50
180
 70
    1
 71
    1
 44
1
 45
1
  0
LINE
  5
250
100
AcDbEntity
  8
SAE_j2513
  6
ByLayer
 62
  256
370
   -1
100
AcDbLine
 10
22.5
 20
-7.625
 11
66.5
 21
-7.625
  0
LINE
  5
251
100
AcDbEntity
  8
SAE_j2513
  6
ByLayer
 62
  256
370
   -1
100
AcDbLine
 10
1
 20
9
 11
1.5
 21
8.517155612596463
  0
LINE
  5
252
100
AcDbEntity
  8
SAE_j2513
  6
ByLayer
 62
  256
370
   -1
100
AcDbLine
 10
1.5
 20
8.517155612596463
 11
2.25
 21
7.792889031491156
  0
LINE
  5
253
100
AcDbEntity
  8
OSE4"x4"Frame
  6
ByLayer
 62
  256
370
   -1
100
AcDbLine
 10
22.5
 20
6.9
 11
22.5
 21
2.9
  0
LINE
  5
254
100
AcDbEntity
  8
OSE4"x4"Frame
  6
ByLayer
 62
  256
370
   -1
100
AcDbLine
 10
22.5
 20
-3.191987298107781
 11
22.5
 21
-7.191987298107781
  0
LINE
  5
255
100
AcDbEntity
  8
OSE4"x4"Frame
  6
ByLayer
 62
  256
370
   -1
100
AcDbLine
 10
66.5
 20
6.9
 11
66.5
 21
2.9
  0
LINE
  5
256
100
AcDbEntity
  8
OSE4"x4"Frame
  6
ByLayer
 62
  256
370
   -1
100
AcDbLine
 10
66.5
 20
-3.191987298107781
 11
66.5
 21
-7.191987298107781
  0
LINE
  5
257
100
AcDbEntity
  8
OSE4"x4"Frame
  6
ByLayer
 62
  256
370
   -1
100
AcDbLine
 10
22.5
 20
6.9
 11
66.5
 21
6.9
  0
LINE
  5
258
100
AcDbEntity
  8
OSE4"x4"Frame
  6
ByLayer
 62
  256
370
   -1
100
AcDbLine
 10
22.5
 20
2.9
 11
66.5
 21
2.9
  0
LINE
  5
259
100
AcDbEntity
  8
OSE4"x4"Frame
  6
ByLayer
 62
  256
370
   -1
100
AcDbLine
 10
22.5
 20
-3.191987298107781
 11
66.5
 21
-3.191987298107781
  0
LINE
  5
25A
100
AcDbEntity
  8
Bolts
  6
ByLayer
 62
  256
370
   -1
100
AcDbLine
 10
23.775
 20
4.9
 11
23.775
 21
4.9
  0
LINE
  5
25B
100
AcDbEntity
  8
Bolts
  6
ByLayer
 62
  256
370
   -1
100
AcDbLine
 10
27.775
 20
4.9
 11
27.775
 21
4.9
  0
LINE
  5
25C
100
AcDbEntity
  8
OSE4"x4"Frame
  6
ByLayer
 62
  256
370
   -1
100
AcDbLine
 10
22.5
 20
-7.19199
 11
66.5
 21
-7.19199
  0
INSERT
  5
25D
100
AcDbEntity
  8
Bolts
  6
ByLayer
 62
  256
370
   -1
100
AcDbBlockReference
  2
1"BoltHeadTop
 10
25.40625
 20
4.9
 30
0
 41
1
 42
1
 43
0
 50
0
 70
    1
 71
    1
 44
1
 45
1
  0
INSERT
  5
25E
100
AcDbEntity
  8
Bolts
  6
ByLayer
 62
  256
370
   -1
100
AcDbBlockReference
  2
1"BoltHeadTop
 10
29.16875
 20
4.9
 30
0
 41
1
 42
1
 43
0
 50
0
 70
    1
 71
    1
 44
1
 45
1
  0
INSERT
  5
25F
100
AcDbEntity
  8
Bolts
  6
ByLayer
 62
  256
370
   -1
100
AcDbBlockReference
  2
1"BoltHeadTop
 10
25.40625
 20
-5.191987298107781
 30
0
 41
1
 42
1
 43
0
 50
0
 70
    1
 71
    1
 44
1
 45
1
  0
INSERT
  5
260
100
AcDbEntity
  8
Bolts
  6
ByLayer
 62
  256
370
   -1
100
AcDbBlockReference
  2
1"BoltHeadTop
 10
29.16875
 20
-5.191987298107781
 30
0
 41
1
 42
1
 43
0
 50
0
 70
    1
 71
    1
 44
1
 45
1
  0
LEADER
  5
261
100
AcDbEntity
  8
Bolts
  6
ByLayer
 62
  256
370
   -1
100
AcDbLeader
  3
Standard
 71
    1
 72
    0
 73
    3
 74
    0
 75
    0
 40
1
 41
10
 76
3
 76
3
 10
29.16875
 20
-5.191987298107781
 30
0
 10
33.78202508020772
 20
-12.15521463166353
 30
0
 10
49.56801810834217
 20
-12.15521463166353
 30
0
  0
MTEXT
  5
262
100
AcDbEntity
  8
Bolts
  6
ByLayer
 62
  256
370
   -1
100
AcDbMText
 10
33.78202508020772
 20
-12.15521463166353
 30
0
 40
1
 41
28.05555658413028
 71
    1
 72
    5
  1
inside bolts extend only into 4x4 frame.
  7
iso
210
0
220
0
230
1
 50
0
 73
    2
 44
0.96
  0
CIRCLE
  5
263
100
AcDbEntity
  8
OSEFingerPlate
  6
ByLayer
 62
  256
370
   -1
100
AcDbCircle
 10
25.40625
 20
-5.191987298107781
 40
0.531
  0
CIRCLE
  5
264
100
AcDbEntity
  8
OSEFingerPlate
  6
ByLayer
 62
  256
370
   -1
100
AcDbCircle
 10
25.40625
 20
4.9
 40
0.531
  0
CIRCLE
  5
265
100
AcDbEntity
  8
OSEFingerPlate
  6
ByLayer
 62
  256
370
   -1
100
AcDbCircle
 10
25.40625
 20
-5.191987298107781
 40
0.531
  0
INSERT
  5
266
100
AcDbEntity
  8
Bolts
  6
ByLayer
 62
  256
370
   -1
100
AcDbBlockReference
  2
1"BoltHeadTop
 10
63.5938
 20
4.9
 30
0
 41
1
 42
1
 43
0
 50
0
 70
    1
 71
    1
 44
1
 45
1
  0
INSERT
  5
267
100
AcDbEntity
  8
Bolts
  6
ByLayer
 62
  256
370
   -1
100
AcDbBlockReference
  2
1"BoltHeadTop
 10
59.83120000000001
 20
4.899999999999999
 30
0
 41
1
 42
1
 43
0
 50
0
 70
    1
 71
    1
 44
1
 45
1
  0
INSERT
  5
268
100
AcDbEntity
  8
Bolts
  6
ByLayer
 62
  256
370
   -1
100
AcDbBlockReference
  2
1"BoltHeadTop
 10
59.8312
 20
-5.191990000000001
 30
0
 41
1
 42
1
 43
0
 50
0
 70
    1
 71
    1
 44
1
 45
1
  0
INSERT
  5
269
100
AcDbEntity
  8
Bolts
  6
ByLayer
 62
  256
370
   -1
100
AcDbBlockReference
  2
1"BoltHeadTop
 10
63.5938
 20
-5.191990000000001
 30
0
 41
1
 42
1
 43
0
 50
0
 70
    1
 71
    1
 44
1
 45
1
  0
CIRCLE
  5
26A
100
AcDbEntity
  8
OSEFingerPlate
  6
ByLayer
 62
  256
370
   -1
100
AcDbCircle
 10
63.5938
 20
-5.191990000000001
 40
0.531
  0
CIRCLE
  5
26B
100
AcDbEntity
  8
OSEFingerPlate
  6
ByLayer
 62
  256
370
   -1
100
AcDbCircle
 10
63.5938
 20
4.9
 40
0.531
  0
CIRCLE
  5
26C
100
AcDbEntity
  8
OSE4"x4"Frame
  6
ByLayer
 62
  256
370
   -1
100
AcDbCircle
 10
59.83120000000001
 20
4.899999999999999
 40
0.531
  0
CIRCLE
  5
26D
100
AcDbEntity
  8
OSE4"x4"Frame
  6
ByLayer
 62
  256
370
   -1
100
AcDbCircle
 10
59.8312
 20
-5.191990000000001
 40
0.531
  0
CIRCLE
  5
26E
100
AcDbEntity
  8
OSE4"x4"Frame
  6
ByLayer
 62
  256
370
   -1
100
AcDbCircle
 10
63.5938
 20
-5.191990000000001
 40
0.531
  0
CIRCLE
  5
26F
100
AcDbEntity
  8
OSE4"x4"Frame
  6
ByLayer
 62
  256
370
   -1
100
AcDbCircle
 10
63.5938
 20
4.9
 40
0.531
  0
CIRCLE
  5
270
100
AcDbEntity
  8
OSE4"x4"Frame
  6
ByLayer
 62
  256
370
   -1
100
AcDbCircle
 10
25.4062
 20
4.9
 40
0.531
  0
CIRCLE
  5
271
100
AcDbEntity
  8
OSE4"x4"Frame
  6
ByLayer
 62
  256
370
   -1
100
AcDbCircle
 10
29.1688
 20
4.9
 40
0.531
  0
CIRCLE
  5
272
100
AcDbEntity
  8
OSE4"x4"Frame
  6
ByLayer
 62
  256
370
   -1
100
AcDbCircle
 10
29.1688
 20
-5.19199
 40
0.531
  0
CIRCLE
  5
273
100
AcDbEntity
  8
OSE4"x4"Frame
  6
ByLayer
 62
  256
370
   -1
100
AcDbCircle
 10
25.4062
 20
-5.19199
 40
0.531
  0
LEADER
  5
274
100
AcDbEntity
  8
Bolts
  6
ByLayer
 62
  256
370
   -1
100
AcDbLeader
  3
Standard
 71
    1
 72
    0
 73
    3
 74
    0
 75
    0
 40
1
 41
10
 76
3
 76
3
 10
59.83120000000001
 20
4.899999999999999
 30
0
 10
56.53202610878235
 20
-12.15521463166352
 30
0
 10
49.56801810834217
 20
-12.15521463166353
 30
0
  0
INSERT
  5
275
100
AcDbEntity
  8
OSESkidSteerPlate
  6
ByLayer
 62
  256
370
   -1
100
AcDbBlockReference
  2
OSESkidSteerPlateTop
 10
30.8
 20
-7.191987298107781
 30
0
 41
1
 42
1
 43
0
 50
0
 70
    1
 71
    1
 44
0
 45
0
  0
INSERT
  5
276
100
AcDbEntity
  8
OSESkidSteerPlate
  6
ByLayer
 62
  256
370
   -1
100
AcDbBlockReference
  2
OSESkidSteerPlateTop
 10
58.2
 20
-7.191987298107781
 30
0
 41
1
 42
-1
 43
0
 50
180
 70
    1
 71
    1
 44
1
 45
1
  0
LINE
  5
277
100
AcDbEntity
  8
0
  6
ByLayer
 62
  256
370
   -1
100
AcDbLine
 10
80
 20
-30
 11
130
 21
-30
  0
LINE
  5
278
100
AcDbEntity
  8
0
  6
ByLayer
 62
  256
370
   -1
100
AcDbLine
 10
130
 20
-30
 11
130
 21
-60
  0
LINE
  5
279
100
AcDbEntity
  8
0
  6
ByLayer
 62
  256
370
   -1
100
AcDbLine
 10
130
 20
-60
 11
80
 21
-60
  0
LINE
  5
27A
100
AcDbEntity
  8
0
  6
ByLayer
 62
  256
370
   -1
100
AcDbLine
 10
80
 20
-30
 11
110
 21
-30
  0
LINE
  5
27B
100
AcDbEntity
  8
0
  6
ByLayer
 62
  256
370
   -1
100
AcDbLine
 10
110
 20
-40
 11
80
 21
-40
  0
LINE
  5
27C
100
AcDbEntity
  8
0
  6
ByLayer
 62
  256
370
   -1
100
AcDbLine
 10
80
 20
-40
 11
80
 21
-30
  0
LINE
  5
27D
100
AcDbEntity
  8
0
  6
ByLayer
 62
  256
370
   -1
100
AcDbLine
 10
80
 20
-44
 11
130
 21
-44
  0
LINE
  5
27E
100
AcDbEntity
  8
0
  6
ByLayer
 62
  256
370
   -1
100
AcDbLine
 10
130
 20
-44
 11
130
 21
-40
  0
LINE
  5
27F
100
AcDbEntity
  8
0
  6
ByLayer
 62
  256
370
   -1
100
AcDbLine
 10
130
 20
-40
 11
80
 21
-40
  0
LINE
  5
280
100
AcDbEntity
  8
0
  6
ByLayer
 62
  256
370
   -1
100
AcDbLine
 10
80
 20
-40
 11
80
 21
-44
  0
LINE
  5
281
100
AcDbEntity
  8
0
  6
ByLayer
 62
  256
370
   -1
100
AcDbLine
 10
80
 20
-48
 11
130
 21
-48
  0
LINE
  5
282
100
AcDbEntity
  8
0
  6
ByLayer
 62
  256
370
   -1
100
AcDbLine
 10
130
 20
-48
 11
130
 21
-48
  0
LINE
  5
283
100
AcDbEntity
  8
0
  6
ByLayer
 62
  256
370
   -1
100
AcDbLine
 10
130
 20
-48
 11
80
 21
-48
  0
LINE
  5
284
100
AcDbEntity
  8
0
  6
ByLayer
 62
  256
370
   -1
100
AcDbLine
 10
80
 20
-48
 11
80
 21
-48
  0
LINE
  5
285
100
AcDbEntity
  8
0
  6
ByLayer
 62
  256
370
   -1
100
AcDbLine
 10
130
 20
-60
 11
106
 21
-60
  0
LINE
  5
286
100
AcDbEntity
  8
0
  6
ByLayer
 62
  256
370
   -1
100
AcDbLine
 10
106
 20
-60
 11
106
 21
-55
  0
LINE
  5
287
100
AcDbEntity
  8
0
  6
ByLayer
 62
  256
370
   -1
100
AcDbLine
 10
106
 20
-55
 11
130
 21
-55
  0
LINE
  5
288
100
AcDbEntity
  8
0
  6
ByLayer
 62
  256
370
   -1
100
AcDbLine
 10
130
 20
-55
 11
130
 21
-60
  0
MTEXT
  5
289
100
AcDbEntity
  8
0
  6
ByLayer
 62
  256
370
   -1
100
AcDbMText
 10
81
 20
-31
 30
0
 40
1
 41
29.86111089910933
 71
    1
 72
    5
  1
Justin Downs of IEF R&D for OSE:\PProject:\PBobcat Standard Quick Attach for LifeTrac
  7
iso
210
0
220
0
230
1
 50
0
 73
    1
 44
0.96
  0
MTEXT
  5
28A
100
AcDbEntity
  8
0
  6
ByLayer
 62
  256
370
   -1
100
AcDbMText
 10
81
 20
-41
 30
0
 40
1
 41
24.08333269732697
 71
    1
 72
    5
  1
Title: OSE Skid Steer Quick Attach
  7
iso
210
0
220
0
230
1
 50
0
 73
    1
 44
0.96
  0
MTEXT
  5
28B
100
AcDbEntity
  8
0
  6
ByLayer
 62
  256
370
   -1
100
AcDbMText
 10
115
 20
-36
 30
0
 40
1
 41
11.33333384762075
 71
    1
 72
    5
  1
Contact:\PJustin@IEFRD.com
  7
iso
210
0
220
0
230
1
 50
0
 73
    1
 44
0.96
  0
MTEXT
  5
28C
100
AcDbEntity
  8
0
  6
ByLayer
 62
  256
370
   -1
100
AcDbMText
 10
81
 20
-49
 30
0
 40
0.7
 41
40.44444465604436
 71
    1
 72
    5
  1
Notes:\PBased on the SAEJ2513 Ref\P\PWiki Page:\Phttp://opensourceecology.org/wiki/Bobcat_Standard_Quick_Attach_for_LifeTrac
  7
iso
210
0
220
0
230
1
 50
0
 73
    1
 44
0.96
  0
MTEXT
  5
28D
100
AcDbEntity
  8
0
  6
ByLayer
 62
  256
370
   -1
100
AcDbMText
 10
107
 20
-56
 30
0
 40
1
 41
7.527778292065021
 71
    1
 72
    5
  1
Version: .01
  7
iso
210
0
220
0
230
1
 50
0
 73
    1
 44
0.96
  0
MTEXT
  5
28E
100
AcDbEntity
  8
0
  6
ByLayer
 62
  256
370
   -1
100
AcDbMText
 10
107
 20
-58
 30
0
 40
1
 41
6.527777777777978
 71
    1
 72
    5
  1
Drawing: 1
  7
iso
210
0
220
0
230
1
 50
0
 73
    1
 44
0.96
  0
MTEXT
  5
28F
100
AcDbEntity
  8
0
  6
ByLayer
 62
  256
370
   -1
100
AcDbMText
 10
81
 20
-46
 30
0
 40
1
 41
7.527778292065113
 71
    1
 72
    5
  1
Unit: inches
  7
iso
210
0
220
0
230
1
 50
0
 73
    1
 44
0.96
  0
MTEXT
  5
290
100
AcDbEntity
  8
SAE_DIM
  6
ByLayer
 62
  256
370
   -1
100
AcDbMText
 10
5
 20
14
 30
0
 40
1
 41
3.555555555555555
 71
    1
 72
    5
  1
x2-x2
  7
iso
210
0
220
0
230
1
 50
0
 73
    1
 44
0.96
  0
LEADER
  5
291
100
AcDbEntity
  8
OSEFingerPlate_DIM
  6
ByLayer
 62
  256
370
    9
100
AcDbLeader
  3
Standard
 71
    1
 72
    0
 73
    3
 74
    0
 75
    0
 40
1
 41
10
 76
2
 76
2
 10
24
 20
7
 30
0
 10
20
 20
10
 30
0
  0
MTEXT
  5
292
100
AcDbEntity
  8
OSEFingerPlate_DIM
  6
ByLayer
 62
  256
370
    9
100
AcDbMText
 10
10
 20
11.1
 30
0
 40
1
 41
12.72222273650951
 71
    1
 72
    5
  1
4"x4" square tube
  7
iso
210
0
220
0
230
1
 50
0
 73
    1
 44
0.96
  0
LEADER
  5
293
100
AcDbEntity
  8
OSEFingerPlate_DIM
  6
ByLayer
 62
  256
370
    9
100
AcDbLeader
  3
Standard
 71
    1
 72
    0
 73
    3
 74
    0
 75
    0
 40
1
 41
10
 76
3
 76
3
 10
29.275
 20
-6.19199
 30
0
 10
37
 20
-10
 30
0
 10
54
 20
-10
 30
0
  0
LEADER
  5
294
100
AcDbEntity
  8
OSEFingerPlate_DIM
  6
ByLayer
 62
  256
370
    9
100
AcDbLeader
  3
Standard
 71
    1
 72
    0
 73
    3
 74
    0
 75
    0
 40
1
 41
10
 76
2
 76
2
 10
59.72499999999999
 20
-6.191987298107784
 30
0
 10
54
 20
-10
 30
0
  0
LINE
  5
295
100
AcDbEntity
  8
0
  6
ByLayer
 62
  256
370
   -1
100
AcDbLine
 10
80
 20
-44
 11
80
 21
-60
  0
MTEXT
  5
296
100
AcDbEntity
  8
OSEFingerPlate_DIM
  6
ByLayer
 62
  256
370
   -1
100
AcDbMText
 10
37
 20
-4
 30
0
 40
1
 41
12.63888888888908
 71
    1
 72
    5
  1
1" square tube \Pwelded to side\Pto guide catch pin, \Pflush with face.
  7
iso
210
0
220
0
230
1
 50
0
 73
    2
 44
0.96
  0
LEADER
  5
297
100
AcDbEntity
  8
OSEFingerPlate_DIM
  6
ByLayer
 62
  256
370
   -1
100
AcDbLeader
  3
Standard
 71
    1
 72
    0
 73
    3
 74
    0
 75
    0
 40
1
 41
10
 76
2
 76
2
 10
5.5
 20
-8.058012701892221
 30
0
 10
8
 20
-13
 30
0
  0
LEADER
  5
298
100
AcDbEntity
  8
OSEFingerPlate_DIM
  6
ByLayer
 62
  256
370
   -1
100
AcDbLeader
  3
Standard
 71
    1
 72
    0
 73
    3
 74
    0
 75
    0
 40
1
 41
10
 76
3
 76
3
 10
1.158451075179292
 20
-6.994793934421118
 30
0
 10
5
 20
-13
 30
0
 10
20
 20
-13
 30
0
  0
LEADER
  5
299
100
AcDbEntity
  8
OSEFingerPlate_DIM
  6
ByLayer
 62
  256
370
   -1
100
AcDbLeader
  3
Standard
 71
    1
 72
    0
 73
    3
 74
    0
 75
    0
 40
1
 41
10
 76
2
 76
2
 10
23.30848552550406
 20
-8.058012999999999
 30
0
 10
20
 20
-13
 30
0
  0
LEADER
  5
29A
100
AcDbEntity
  8
OSEFingerPlate_DIM
  6
ByLayer
 62
  256
370
   -1
100
AcDbLeader
  3
Standard
 71
    1
 72
    0
 73
    3
 74
    0
 75
    0
 40
1
 41
10
 76
2
 76
2
 10
1
 20
1
 30
0
 10
-13
 20
1
 30
0
  0
MTEXT
  5
29B
100
AcDbEntity
  8
OSEFingerPlate_DIM
  6
ByLayer
 62
  256
370
   -1
100
AcDbMText
 10
-12.9
 20
2.2
 30
0
 40
1
 41
2.666666666666713
 71
    1
 72
    5
  1
Face
  7
iso
210
0
220
0
230
1
 50
0
 73
    2
 44
0.96
  0
DIMENSION
  5
29C
100
AcDbEntity
  8
OSEFingerPlate_DIM
  6
ByLayer
 62
  256
370
   -1
100
AcDbDimension
  2
*D20
 10
66.5
 20
9.999999999999996
 30
0
 11
63.61250000000001
 21
11.5
 31
0
 70
   33
 71
    5
  3
Standard
 53
0
210
0
220
0
230
1
100
AcDbAlignedDimension
 13
60.72500000000002
 23
9.000000000000004
 33
0
 14
66.5
 24
8.999999999999996
 34
0
  0
DIMENSION
  5
29D
100
AcDbEntity
  8
OSEFingerPlate_DIM
  6
ByLayer
 62
  256
370
   -1
100
AcDbDimension
  2
*D21
 10
-1.000000000000002
 20
-6.903312163512967
 30
0
 11
-2.500000000000002
 21
1.048343918243517
 31
0
 70
   33
 71
    5
  3
Standard
 53
0
210
0
220
0
230
1
100
AcDbAlignedDimension
 13
1
 23
9
 33
0
 14
1
 24
-6.903312163512968
 34
0
  0
LEADER
  5
29E
100
AcDbEntity
  8
OSESkidSterrPlate_DIM
  6
ByLayer
 62
  256
370
   -1
100
AcDbLeader
  3
Standard
 71
    1
 72
    0
 73
    3
 74
    0
 75
    0
 40
1
 41
10
 76
2
 76
2
 10
27.5375
 20
0.1164902400000036
 30
0
 10
46
 20
0
 30
0
  0
LEADER
  5
29F
100
AcDbEntity
  8
OSESkidSterrPlate_DIM
  6
ByLayer
 62
  256
370
   -1
100
AcDbLeader
  3
Standard
 71
    1
 72
    0
 73
    3
 74
    0
 75
    0
 40
1
 41
10
 76
2
 76
2
 10
61.46250000000001
 20
0
 30
0
 10
46
 20
0
 30
0
  0
MTEXT
  5
2A0
100
AcDbEntity
  8
OSESkidSterrPlate_DIM
  6
ByLayer
 62
  256
370
   -1
100
AcDbMText
 10
32
 20
7
 30
0
 40
0.8
 41
24.31111193397092
 71
    1
 72
    5
  1
Width spacing needs to be\Pdouble checked, was based on a standard\Pbobcat. The plates can be extended and\Pmoved accordingly. The outer bolts must go\Pthrough to the Finger Plate.
  7
iso
210
0
220
0
230
1
 50
0
 73
    2
 44
0.96
  0
DIMENSION
  5
2A1
100
AcDbEntity
  8
OSESkidSterrPlate_DIM
  6
ByLayer
 62
  256
370
   -1
100
AcDbDimension
  2
*D24
 10
22
 20
-7.191987298107779
 30
0
 11
20.5
 21
-0.1459936490538889
 31
0
 70
   33
 71
    5
  3
Standard
 53
0
210
0
220
0
230
1
100
AcDbAlignedDimension
 13
23.775
 23
6.9
 33
0
 14
23.775
 24
-7.19198729810778
 34
0
  0
DIMENSION
  5
2A2
100
AcDbEntity
  8
OSESkidSterrPlate_DIM
  6
ByLayer
 62
  256
370
   -1
100
AcDbDimension
  2
*D25
 10
65.22500000000001
 20
-9
 30
0
 11
61.71250000000001
 21
-7.5
 31
0
 70
   33
 71
    5
  3
Standard
 53
0
210
0
220
0
230
1
100
AcDbAlignedDimension
 13
58.2
 23
-7.191987298107781
 33
0
 14
65.22500000000001
 24
-7.191987298107783
 34
0
  0
LINE
  5
2A3
100
AcDbEntity
  8
0
  6
ByLayer
 62
  256
370
   -1
100
AcDbLine
 10
-20
 20
30
 11
130
 21
30
  0
LINE
  5
2A4
100
AcDbEntity
  8
0
  6
ByLayer
 62
  256
370
   -1
100
AcDbLine
 10
130
 20
30
 11
130
 21
-60
  0
LINE
  5
2A5
100
AcDbEntity
  8
0
  6
ByLayer
 62
  256
370
   -1
100
AcDbLine
 10
130
 20
-60
 11
-20
 21
-60
  0
LINE
  5
2A6
100
AcDbEntity
  8
0
  6
ByLayer
 62
  256
370
   -1
100
AcDbLine
 10
-20
 20
-60
 11
-20
 21
30
  0
MTEXT
  5
2A7
100
AcDbEntity
  8
0
  6
ByLayer
 62
  256
370
   -1
100
AcDbMText
 10
5
 20
-19
 30
0
 40
1
 41
2.444444232442295
 71
    1
 72
    5
  1
Side
  7
iso
210
0
220
0
230
1
 50
0
 73
    2
 44
0.96
  0
MTEXT
  5
2A8
100
AcDbEntity
  8
0
  6
ByLayer
 62
  256
370
   -1
100
AcDbMText
 10
44
 20
-19
 30
0
 40
1
 41
2.777777777777824
 71
    1
 72
    5
  1
Back
  7
iso
210
0
220
0
230
1
 50
0
 73
    2
 44
0.96
  0
LINE
  5
2A9
100
AcDbEntity
  8
SAE_j2513
  6
ByLayer
 62
  256
370
   -1
100
AcDbLine
 10
22.5
 20
10
 11
22.5
 21
-11
  0
INSERT
  5
2AA
100
AcDbEntity
  8
Bolts
  6
ByLayer
 62
  256
370
   -1
100
AcDbBlockReference
  2
1"BoltHeadSide
 10
9.5
 20
-5.19199
 30
0
 41
1
 42
1
 43
0
 50
0
 70
    1
 71
    1
 44
1
 45
1
  0
LINE
  5
2AB
100
AcDbEntity
  8
Bolts
  6
ByLayer
 62
  256
370
   -1
100
AcDbLine
 10
8.5
 20
-4.69199
 11
3.5
 21
-4.69199
  0
INSERT
  5
2AC
100
AcDbEntity
  8
OSE4"x4"Frame
  6
ByLayer
 62
  256
370
   -1
100
AcDbBlockReference
  2
4"x4"SideTube
 10
5
 20
-7.19199
 30
0
 41
1
 42
1
 43
0
 50
0
 70
    1
 71
    1
 44
1
 45
1
  0
INSERT
  5
2AD
100
AcDbEntity
  8
OSE4"x4"Frame
  6
ByLayer
 62
  256
370
   -1
100
AcDbBlockReference
  2
4"x4"SideTube
 10
5
 20
2.9
 30
0
 41
1
 42
1
 43
0
 50
0
 70
    1
 71
    1
 44
0
 45
0
  0
INSERT
  5
2AE
100
AcDbEntity
  8
Bolts
  6
ByLayer
 62
  256
370
   -1
100
AcDbBlockReference
  2
1"BoltHeadSide
 10
9.5
 20
4.9
 30
0
 41
1
 42
1
 43
0
 50
0
 70
    1
 71
    1
 44
1
 45
1
  0
LINE
  5
2AF
100
AcDbEntity
  8
Bolts
  6
ByLayer
 62
  256
370
   -1
100
AcDbLine
 10
8.5
 20
4.4
 11
3.5
 21
4.4
  0
LINE
  5
2B0
100
AcDbEntity
  8
Bolts
  6
ByLayer
 62
  256
370
   -1
100
AcDbLine
 10
8.5
 20
4.4
 11
8.5
 21
5.4
  0
LINE
  5
2B1
100
AcDbEntity
  8
Bolts
  6
ByLayer
 62
  256
370
   -1
100
AcDbLine
 10
8.75
 20
4.9
 11
9.75
 21
4.9
  0
LINE
  5
2B2
100
AcDbEntity
  8
Bolts
  6
ByLayer
 62
  256
370
   -1
100
AcDbLine
 10
8.5
 20
5.4
 11
3.5
 21
5.4
  0
LINE
  5
2B3
100
AcDbEntity
  8
Bolts
  6
ByLayer
 62
  256
370
   -1
100
AcDbLine
 10
3.5
 20
5.4
 11
3.5
 21
4.4
  0
LINE
  5
2B4
100
AcDbEntity
  8
OSESkidSteerPlate
  6
ByLayer
 62
  256
370
   -1
100
AcDbLine
 10
9.000000000000002
 20
6.9
 11
9.000000000000002
 21
-7.191987298107781
  0
LINE
  5
2B5
100
AcDbEntity
  8
OSESkidSteerPlate
  6
ByLayer
 62
  256
370
   -1
100
AcDbLine
 10
9.000000000000002
 20
6.9
 11
9.500000000000002
 21
6.9
  0
LINE
  5
2B6
100
AcDbEntity
  8
OSESkidSteerPlate
  6
ByLayer
 62
  256
370
   -1
100
AcDbLine
 10
9.500000000000002
 20
6.9
 11
9.500000000000002
 21
-7.191987298107781
  0
LINE
  5
2B7
100
AcDbEntity
  8
OSESkidSteerPlate
  6
ByLayer
 62
  256
370
   -1
100
AcDbLine
 10
13.25
 20
6.9
 11
13.25
 21
-7.191987298107781
  0
CIRCLE
  5
2B8
100
AcDbEntity
  8
OSESkidSteerPlate
  6
ByLayer
 62
  256
370
   -1
100
AcDbCircle
 10
11.75
 20
3.9
 40
1.0625
  0
CIRCLE
  5
2B9
100
AcDbEntity
  8
OSESkidSteerPlate
  6
ByLayer
 62
  256
370
   -1
100
AcDbCircle
 10
11.75
 20
-4.191987298107781
 40
1.0625
  0
LINE
  5
2BA
100
AcDbEntity
  8
OSESkidSteerPlate
  6
ByLayer
 62
  256
370
   -1
100
AcDbLine
 10
9.500000000000002
 20
6.9
 11
13.25
 21
6.9
  0
LINE
  5
2BB
100
AcDbEntity
  8
OSESkidSteerPlate
  6
ByLayer
 62
  256
370
   -1
100
AcDbLine
 10
9.000000000000002
 20
-7.191987298107781
 11
9.500000000000002
 21
-7.191987298107781
  0
LINE
  5
2BC
100
AcDbEntity
  8
OSESkidSteerPlate
  6
ByLayer
 62
  256
370
   -1
100
AcDbLine
 10
9.500000000000002
 20
-7.191987298107781
 11
13.25
 21
-7.191987298107781
  0
MTEXT
  5
2BD
100
AcDbEntity
  8
OSEFingerPlate_DIM
  6
ByLayer
 62
  256
370
   -1
100
AcDbMText
 10
5
 20
-14
 30
0
 40
1
 41
17.11111140317623
 71
    1
 72
    5
  1
Sides made \Pof 1/2" plate bolted to \Pinner4"x4" tube. \P(face must be weld free)
  7
iso
210
0
220
0
230
1
 50
0
 73
    2
 44
0.96
  0
INSERT
  5
2BE
100
AcDbEntity
  8
Bolts
  6
ByLayer
 62
  256
370
   -1
100
AcDbBlockReference
  2
1"NutSide
 10
5
 20
4.9
 30
0
 41
1
 42
1
 43
0
 50
180
 70
    1
 71
    1
 44
1
 45
1
  0
INSERT
  5
2BF
100
AcDbEntity
  8
Bolts
  6
ByLayer
 62
  256
370
   -1
100
AcDbBlockReference
  2
1"NutSide
 10
5.008012316910552
 20
-5.19198729810778
 30
0
 41
1
 42
1
 43
0
 50
180
 70
    1
 71
    1
 44
1
 45
1
  0
LINE
  5
2C0
100
AcDbEntity
  8
OSEFingerPlate
  6
ByLayer
 62
  256
370
   -1
100
AcDbLine
 10
100.1037521908964
 20
8.999999999999996
 11
100.1037521908964
 21
-8.058007836487036
  0
LINE
  5
2C1
100
AcDbEntity
  8
OSEFingerPlate
  6
ByLayer
 62
  256
370
   -1
100
AcDbLine
 10
100.1037521908964
 20
8.999999999999996
 11
100.6037521908964
 21
8.999999999999996
  0
LINE
  5
2C2
100
AcDbEntity
  8
OSEFingerPlate
  6
ByLayer
 62
  256
370
   -1
100
AcDbLine
 10
100.1037521908964
 20
-8.058007836487036
 11
100.6037521908964
 21
-8.058007836487036
  0
LINE
  5
2C3
100
AcDbEntity
  8
OSEFingerPlate
  6
ByLayer
 62
  256
370
   -1
100
AcDbLine
 10
88.46160520607997
 20
7.207799999999996
 11
92.46160520607997
 21
7.207799999999996
  0
LINE
  5
2C4
100
AcDbEntity
  8
OSEFingerPlate
  6
ByLayer
 62
  256
370
   -1
100
AcDbLine
 10
100.1037521908964
 20
7.207799999999996
 11
100.6037521908964
 21
7.207799999999996
  0
LINE
  5
2C5
100
AcDbEntity
  8
OSEFingerPlate
  6
ByLayer
 62
  256
370
   -1
100
AcDbLine
 10
92.46160520607997
 20
5.137249766176887
 11
92.46160520607997
 21
7.207799999999996
  0
LINE
  5
2C6
100
AcDbEntity
  8
OSEFingerPlate
  6
ByLayer
 62
  256
370
   -1
100
AcDbLine
 10
88.46160520607997
 20
-6.903307298107782
 11
89.50000000000001
 21
-6.903307298107782
  0
LINE
  5
2C7
100
AcDbEntity
  8
OSEFingerPlate
  6
ByLayer
 62
  256
370
   -1
100
AcDbLine
 10
89.50000000000001
 20
-6.903307298107782
 11
89.50000000000001
 21
-3
  0
LINE
  5
2C8
100
AcDbEntity
  8
OSEFingerPlate
  6
ByLayer
 62
  256
370
   -1
100
AcDbLine
 10
89.50000000000001
 20
-3
 11
88.46160520607997
 21
-3
  0
LINE
  5
2C9
100
AcDbEntity
  8
OSEFingerPlate
  6
ByLayer
 62
  256
370
   -1
100
AcDbLine
 10
88.46160520607997
 20
-3
 11
88.46160520607997
 21
-6.903307298107782
  0
INSERT
  5
2CA
100
AcDbEntity
  8
OSEFingerPlate
  6
ByLayer
 62
  256
370
   -1
100
AcDbBlockReference
  2
Pin
 10
89
 20
-8
 30
0
 41
1
 42
1
 43
0
 50
0
 70
    1
 71
    1
 44
1
 45
1
  0
INSERT
  5
2CB
100
AcDbEntity
  8
OSEFingerPlate
  6
ByLayer
 62
  256
370
   -1
100
AcDbBlockReference
  2
OSEsideFingerPlate
 10
88.4616
 20
-6.90331
 30
0
 41
1
 42
1
 43
0
 50
0
 70
    1
 71
    1
 44
1
 45
1
  0
LINE
  5
2CC
100
AcDbEntity
  8
0
  6
ByLayer
 62
  256
370
   -1
100
AcDbLine
 10
88.4616
 20
-3.691990000000001
 11
92.4616
 21
-3.691990000000001
  0
LINE
  5
2CD
100
AcDbEntity
  8
0
  6
ByLayer
 62
  256
370
   -1
100
AcDbLine
 10
88.4616
 20
3.4
 11
92.4616
 21
3.4
  0
INSERT
  5
2CE
100
AcDbEntity
  8
Bolts
  6
ByLayer
 62
  256
370
   -1
100
AcDbBlockReference
  2
1"BoltHeadTop
 10
90.4616
 20
3.4
 30
0
 41
1
 42
1
 43
0
 50
0
 70
    1
 71
    1
 44
1
 45
1
  0
INSERT
  5
2CF
100
AcDbEntity
  8
Bolts
  6
ByLayer
 62
  256
370
   -1
100
AcDbBlockReference
  2
1"BoltHeadTop
 10
90.4616
 20
-3.691990000000001
 30
0
 41
1
 42
1
 43
0
 50
0
 70
    1
 71
    1
 44
1
 45
1
  0
LINE
  5
2D0
100
AcDbEntity
  8
OSELatchParts
  6
ByLayer
 62
  256
370
   -1
100
AcDbLine
 10
88.625
 20
-1
 11
92.375
 21
-1
  0
LINE
  5
2D1
100
AcDbEntity
  8
OSELatchParts
  6
ByLayer
 62
  256
370
   -1
100
AcDbLine
 10
92.375
 20
-1
 11
92.375
 21
1
  0
LINE
  5
2D2
100
AcDbEntity
  8
OSELatchParts
  6
ByLayer
 62
  256
370
   -1
100
AcDbLine
 10
88.625
 20
-1
 11
88.625
 21
0
  0
LINE
  5
2D3
100
AcDbEntity
  8
OSELatchParts
  6
ByLayer
 62
  256
370
   -1
100
AcDbLine
 10
88.625
 20
0
 11
92.375
 21
1
  0
LINE
  5
2D4
100
AcDbEntity
  8
Bolts
  6
ByLayer
 62
  256
370
   -1
100
AcDbLine
 10
91.80500000000001
 20
-0.9999999999999999
 11
91.80500000000001
 21
1
  0
INSERT
  5
2D5
100
AcDbEntity
  8
Bolts
  6
ByLayer
 62
  256
370
   -1
100
AcDbBlockReference
  2
5/8"NutSide
 10
91.80500000000001
 20
-1
 30
0
 41
1
 42
1
 43
0
 50
0
 70
    1
 71
    1
 44
1
 45
1
  0
INSERT
  5
2D6
100
AcDbEntity
  8
Bolts
  6
ByLayer
 62
  256
370
   -1
100
AcDbBlockReference
  2
5/8"NutSide
 10
91.80500000000001
 20
0.0339936765582475
 30
0
 41
1
 42
1
 43
0
 50
0
 70
    1
 71
    1
 44
1
 45
1
  0
LINE
  5
2D7
100
AcDbEntity
  8
OSEFingerPlate
  6
ByLayer
 62
  256
370
   -1
100
AcDbLine
 10
91.80500000000001
 20
-5.25
 11
92.4616
 21
-5.25
  0
LINE
  5
2D8
100
AcDbEntity
  8
OSEFingerPlate
  6
ByLayer
 62
  256
370
   -1
100
AcDbLine
 10
91.80500000000001
 20
-5.75
 11
92.4616
 21
-5.75
  0
LINE
  5
2D9
100
AcDbEntity
  8
OSEFingerPlate
  6
ByLayer
 62
  256
370
   -1
100
AcDbLine
 10
91.80500000000001
 20
-5.25
 11
91.14850000000001
 21
-5.25
  0
LINE
  5
2DA
100
AcDbEntity
  8
OSEFingerPlate
  6
ByLayer
 62
  256
370
   -1
100
AcDbLine
 10
91.80500000000001
 20
-5.75
 11
91.14850000000001
 21
-5.75
  0
LINE
  5
2DB
100
AcDbEntity
  8
OSEFingerPlate
  6
ByLayer
 62
  256
370
   -1
100
AcDbLine
 10
91.14850000000001
 20
-5.75
 11
91.14850000000001
 21
-5.25
  0
LINE
  5
2DC
100
AcDbEntity
  8
OSEFingerPlate
  6
ByLayer
 62
  256
370
   -1
100
AcDbLine
 10
91.80500000000001
 20
5.130000000000001
 11
92.4616
 21
5.130000000000001
  0
LINE
  5
2DD
100
AcDbEntity
  8
OSEFingerPlate
  6
ByLayer
 62
  256
370
   -1
100
AcDbLine
 10
91.80500000000001
 20
4.630000000000001
 11
92.4616
 21
4.630000000000001
  0
LINE
  5
2DE
100
AcDbEntity
  8
OSEFingerPlate
  6
ByLayer
 62
  256
370
   -1
100
AcDbLine
 10
91.80500000000001
 20
5.130000000000001
 11
91.14850000000001
 21
5.130000000000001
  0
LINE
  5
2DF
100
AcDbEntity
  8
OSEFingerPlate
  6
ByLayer
 62
  256
370
   -1
100
AcDbLine
 10
91.80500000000001
 20
4.630000000000001
 11
91.14850000000001
 21
4.630000000000001
  0
LINE
  5
2E0
100
AcDbEntity
  8
OSEFingerPlate
  6
ByLayer
 62
  256
370
   -1
100
AcDbLine
 10
91.14850000000001
 20
4.630000000000001
 11
91.14850000000001
 21
5.130000000000001
  0
INSERT
  5
2E1
100
AcDbEntity
  8
OSELatchParts
  6
ByLayer
 62
  256
370
   -1
100
AcDbBlockReference
  2
5/8"ShaftCollar
 10
91.80500000000001
 20
5.130000000000001
 30
0
 41
1
 42
1
 43
0
 50
0
 70
    1
 71
    1
 44
1
 45
1
  0
INSERT
  5
2E2
100
AcDbEntity
  8
OSELatchParts
  6
ByLayer
 62
  256
370
   -1
100
AcDbBlockReference
  2
5/8"ShaftCollar
 10
91.80500000000001
 20
-5.75
 30
0
 41
1
 42
1
 43
0
 50
180
 70
    1
 71
    1
 44
1
 45
1
  0
INSERT
  5
2E3
100
AcDbEntity
  8
OSELatchParts
  6
ByLayer
 62
  256
370
   -1
100
AcDbBlockReference
  2
5/8"ShaftCollar
 10
101.6037521908964
 20
5.137242036831689
 30
0
 41
1
 42
1
 43
0
 50
0
 70
    1
 71
    1
 44
1
 45
1
  0
INSERT
  5
2E4
100
AcDbEntity
  8
OSELatchParts
  6
ByLayer
 62
  256
370
   -1
100
AcDbBlockReference
  2
5/8"ShaftCollar
 10
101.6037521908964
 20
-5.75
 30
0
 41
1
 42
1
 43
0
 50
180
 70
    1
 71
    1
 44
1
 45
1
  0
INSERT
  5
2E5
100
AcDbEntity
  8
OSELatchParts
  6
ByLayer
 62
  256
370
   -1
100
AcDbBlockReference
  2
5/8"ThreadedRod
 10
91.80500000000001
 20
-7
 30
0
 41
1
 42
1
 43
0
 50
0
 70
    1
 71
    1
 44
0
 45
0
  0
INSERT
  5
2E6
100
AcDbEntity
  8
OSELatchParts
  6
ByLayer
 62
  256
370
   -1
100
AcDbBlockReference
  2
5/8"ThreadedRod
 10
101.6037521908964
 20
-7
 30
0
 41
1
 42
1
 43
0
 50
0
 70
    1
 71
    1
 44
1
 45
1
  0
LINE
  5
2E7
100
AcDbEntity
  8
OSEFingerPlate
  6
ByLayer
 62
  256
370
   -1
100
AcDbLine
 10
100.6037521908964
 20
5.137242036831689
 11
102.6037521908964
 21
5.137242036831689
  0
LINE
  5
2E8
100
AcDbEntity
  8
OSEFingerPlate
  6
ByLayer
 62
  256
370
   -1
100
AcDbLine
 10
100.6037521908964
 20
4.630000000000001
 11
102.6037521908964
 21
4.630000000000001
  0
LINE
  5
2E9
100
AcDbEntity
  8
OSEFingerPlate
  6
ByLayer
 62
  256
370
   -1
100
AcDbLine
 10
100.6037521908964
 20
-5.25
 11
102.6037521908964
 21
-5.25
  0
LINE
  5
2EA
100
AcDbEntity
  8
OSEFingerPlate
  6
ByLayer
 62
  256
370
   -1
100
AcDbLine
 10
100.6037521908964
 20
-5.75
 11
102.6037521908964
 21
-5.75
  0
LINE
  5
2EB
100
AcDbEntity
  8
OSEFingerPlate
  6
ByLayer
 62
  256
370
   -1
100
AcDbLine
 10
102.6037521908964
 20
-5.25
 11
102.6037521908964
 21
-5.75
  0
LINE
  5
2EC
100
AcDbEntity
  8
OSEFingerPlate
  6
ByLayer
 62
  256
370
   -1
100
AcDbLine
 10
102.6037521908964
 20
5.137242036831689
 11
102.6037521908964
 21
4.630000000000001
  0
LINE
  5
2ED
100
AcDbEntity
  8
OSEFingerPlate
  6
ByLayer
 62
  256
370
   -1
100
AcDbLine
 10
100.6037521908964
 20
8.999999999999996
 11
100.6037521908964
 21
5.137242036831689
  0
LINE
  5
2EE
100
AcDbEntity
  8
OSEFingerPlate
  6
ByLayer
 62
  256
370
   -1
100
AcDbLine
 10
100.6037521908964
 20
4.603743831146049
 11
100.6037521908964
 21
-5.25
  0
LINE
  5
2EF
100
AcDbEntity
  8
OSEFingerPlate
  6
ByLayer
 62
  256
370
   -1
100
AcDbLine
 10
100.6037521908964
 20
-5.25
 11
100.6037521908964
 21
-5.75
  0
LINE
  5
2F0
100
AcDbEntity
  8
OSEFingerPlate
  6
ByLayer
 62
  256
370
   -1
100
AcDbLine
 10
100.6037521908964
 20
-5.75
 11
100.6037521908964
 21
-8.058007836487036
  0
LINE
  5
2F1
100
AcDbEntity
  8
OSEFingerPlate
  6
ByLayer
 62
  256
370
   -1
100
AcDbLine
 10
100.6037521908964
 20
5.137242036831689
 11
100.6037521908964
 21
4.630000000000001
  0
LINE
  5
2F2
100
AcDbEntity
  8
OSEFingerPlate
  6
ByLayer
 62
  256
370
   -1
100
AcDbLine
 10
100.6037521908964
 20
4.630000000000001
 11
100.6037521908964
 21
4.603743831146049
  0
LINE
  5
2F3
100
AcDbEntity
  8
OSEFingerPlate
  6
ByLayer
 62
  256
370
   -1
100
AcDbLine
 10
88.46159532018541
 20
-6.903307298107782
 11
90.4616
 21
-8.058010538379254
  0
LINE
  5
2F4
100
AcDbEntity
  8
OSEFingerPlate
  6
ByLayer
 62
  256
370
   -1
100
AcDbLine
 10
90.4616
 20
-8.058010538379254
 11
92.4616
 21
-8.058010538379254
  0
LINE
  5
2F5
100
AcDbEntity
  8
OSEFingerPlate
  6
ByLayer
 62
  256
370
   -1
100
AcDbLine
 10
92.4616
 20
-8.058010538379254
 11
92.4616
 21
5.130000000000001
  0
LINE
  5
2F6
100
AcDbEntity
  8
OSEFingerPlate
  6
ByLayer
 62
  256
370
   -1
100
AcDbLine
 10
92.4616
 20
5.130000000000001
 11
88.4616
 21
9.000002163512967
  0
LINE
  5
2F7
100
AcDbEntity
  8
OSEFingerPlate
  6
ByLayer
 62
  256
370
   -1
100
AcDbLine
 10
88.4616
 20
9.000002163512967
 11
88.46159532018541
 21
-6.903307298107782
  0
LINE
  5
2F8
100
AcDbEntity
  8
Bolts
  6
ByLayer
 62
  256
370
   -1
100
AcDbLine
 10
3.5
 20
-4.69199
 11
3.5
 21
-5.69199
  0
LINE
  5
2F9
100
AcDbEntity
  8
Bolts
  6
ByLayer
 62
  256
370
   -1
100
AcDbLine
 10
8.5
 20
-5.69199
 11
3.5
 21
-5.69199
  0
LINE
  5
2FA
100
AcDbEntity
  8
Bolts
  6
ByLayer
 62
  256
370
   -1
100
AcDbLine
 10
8.5
 20
-4.69199
 11
8.5
 21
-5.69199
  0
LINE
  5
2FB
100
AcDbEntity
  8
Bolts
  6
ByLayer
 62
  256
370
   -1
100
AcDbLine
 10
8.75
 20
-5.19199
 11
9.75
 21
-5.19199
  0
INSERT
  5
2FC
100
AcDbEntity
  8
OSEFingerPlate
  6
ByLayer
 62
  256
370
   -1
100
AcDbBlockReference
  2
4"x4"FingerTube
 10
2.999221506290239
 20
-6.904399227426124
 30
0
 41
1
 42
1
 43
0
 50
0
 70
    1
 71
    1
 44
1
 45
1
  0
INSERT
  5
2FD
100
AcDbEntity
  8
OSEFingerPlate
  6
ByLayer
 62
  256
370
   -1
100
AcDbBlockReference
  2
OSEsideFingerPlate
 10
1
 20
-6.903312163512966
 30
0
 41
1
 42
1
 43
0
 50
0
 70
    1
 71
    1
 44
1
 45
1
  0
MTEXT
  5
2FE
100
AcDbEntity
  8
OSELatch_DIM
  6
ByLayer
 62
  256
370
   -1
100
AcDbMText
 10
91.96008676789972
 20
-13.99392624728909
 30
0
 40
1
 41
11.77777829206527
 71
    1
 72
    5
  1
Shaft collar \PMcMaster:6436K15\P\P
  7
iso
210
0
220
0
230
1
 50
0
 73
    1
 44
0.96
  0
MTEXT
  5
2FF
100
AcDbEntity
  8
OSELatch_DIM
  6
ByLayer
 62
  256
370
   -1
100
AcDbMText
 10
91.86013015184766
 20
-18.09214750542375
 30
0
 40
1
 41
12.30555606984286
 71
    1
 72
    5
  1
Thrust Bearing\PMcMaster: 7421K15\P\P
  7
iso
210
0
220
0
230
1
 50
0
 73
    1
 44
0.96
  0
MTEXT
  5
300
100
AcDbEntity
  8
OSELatch_DIM
  6
ByLayer
 62
  256
370
   -1
100
AcDbMText
 10
108.0531019522822
 20
0.2998698481561948
 30
0
 40
1
 41
14.33333333333349
 71
    1
 72
    5
  1
5/8"-11 threaded rod\P\P
  7
iso
210
0
220
0
230
1
 50
0
 73
    1
 44
0.96
  0
MTEXT
  5
301
100
AcDbEntity
  8
OSELatch_DIM
  6
ByLayer
 62
  256
370
   -1
100
AcDbMText
 10
71.66889370933055
 20
-2.798785249457818
 30
0
 40
1
 41
13.6666671809541
 71
    1
 72
    5
  1
5/8" square 1" nut\PMcMaster:90043A065\P\P
  7
iso
210
0
220
0
230
1
 50
0
 73
    1
 44
0.96
  0
MTEXT
  5
302
100
AcDbEntity
  8
OSELatch_DIM
  6
ByLayer
 62
  256
370
   -1
100
AcDbMText
 10
72.06872017353881
 20
-8.296399132321389
 30
0
 40
1
 41
13.30555606984286
 71
    1
 72
    5
  1
3/4" mild steel rod\P\P1" square tube \P.125" wall \Pmild steel
  7
iso
210
0
220
0
230
1
 50
0
 73
    1
 44
0.96
  0
MTEXT
  5
303
100
AcDbEntity
  8
OSELatch_DIM
  6
ByLayer
 62
  256
370
   -1
100
AcDbMText
 10
89.83600867679338
 20
16.99262472885104
 30
0
 40
1
 41
10.9722227365097
 71
    1
 72
    5
  1
Latch Mechanism
  7
iso
210
0
220
0
230
1
 50
0
 73
    1
 44
0.96
  0
LEADER
  5
304
100
AcDbEntity
  8
OSELatch_DIM
  6
ByLayer
 62
  256
370
   -1
100
AcDbLeader
  3
Standard
 71
    1
 72
    0
 73
    3
 74
    0
 75
    0
 40
1
 41
10
 76
4
 76
4
 10
91
 20
0
 30
0
 10
86
 20
0
 30
0
 10
86
 20
-6
 30
0
 10
71
 20
-6
 30
0
  0
LEADER
  5
305
100
AcDbEntity
  8
OSELatch_DIM
  6
ByLayer
 62
  256
370
   -1
100
AcDbLeader
  3
Standard
 71
    1
 72
    0
 73
    3
 74
    0
 75
    0
 40
1
 41
10
 76
4
 76
4
 10
88
 20
-8
 30
0
 10
86
 20
-8
 30
0
 10
86
 20
-10
 30
0
 10
72
 20
-10
 30
0
  0
LEADER
  5
306
100
AcDbEntity
  8
OSELatch_DIM
  6
ByLayer
 62
  256
370
   -1
100
AcDbLeader
  3
Standard
 71
    1
 72
    0
 73
    3
 74
    0
 75
    0
 40
1
 41
10
 76
4
 76
4
 10
89.50000467981461
 20
-5.974290192104391
 30
0
 10
90
 20
-6
 30
0
 10
90
 20
-16
 30
0
 10
72
 20
-16
 30
0
  0
LEADER
  5
307
100
AcDbEntity
  8
OSELatch_DIM
  6
ByLayer
 62
  256
370
   -1
100
AcDbLeader
  3
Standard
 71
    1
 72
    0
 73
    3
 74
    0
 75
    0
 40
1
 41
10
 76
2
 76
2
 10
92.46160520607997
 20
5.32248989154038
 30
0
 10
95
 20
4
 30
0
  0
LEADER
  5
308
100
AcDbEntity
  8
OSELatch_DIM
  6
ByLayer
 62
  256
370
   -1
100
AcDbLeader
  3
Standard
 71
    1
 72
    0
 73
    3
 74
    0
 75
    0
 40
1
 41
10
 76
2
 76
2
 10
92.4616046798146
 20
-6.026696246421112
 30
0
 10
95
 20
-6
 30
0
  0
LEADER
  5
309
100
AcDbEntity
  8
OSELatch_DIM
  6
ByLayer
 62
  256
370
   -1
100
AcDbLeader
  3
Standard
 71
    1
 72
    0
 73
    3
 74
    0
 75
    0
 40
1
 41
10
 76
2
 76
2
 10
101
 20
-6
 30
0
 10
95
 20
-6
 30
0
  0
LEADER
  5
30A
100
AcDbEntity
  8
OSELatch_DIM
  6
ByLayer
 62
  256
370
   -1
100
AcDbLeader
  3
Standard
 71
    1
 72
    0
 73
    3
 74
    0
 75
    0
 40
1
 41
10
 76
6
 76
6
 10
100.9839603122745
 20
5.383953061815356
 30
0
 10
95
 20
4
 30
0
 10
95
 20
-13
 30
0
 10
105
 20
-13
 30
0
 10
105
 20
-22
 30
0
 10
92
 20
-22
 30
0
  0
LEADER
  5
30B
100
AcDbEntity
  8
OSELatch_DIM
  6
ByLayer
 62
  256
370
   -1
100
AcDbLeader
  3
Standard
 71
    1
 72
    0
 73
    3
 74
    0
 75
    0
 40
1
 41
10
 76
2
 76
2
 10
102
 20
-1
 30
0
 10
122
 20
-1
 30
0
  0
DIMENSION
  5
30C
100
AcDbEntity
  8
0
  6
ByLayer
 62
  256
370
   -1
100
AcDbDimension
  2
*D34
 10
59.96336941949149
 20
-33.97401495591541
 30
0
 11
44.248218448019
 21
-32.24253533365414
 31
0
 70
   33
 71
    5
  3
Standard
 53
0
210
0
220
0
230
1
100
AcDbAlignedDimension
 13
28.68657129688371
 23
-20.08236135943572
 33
0
 14
60.16102656970845
 24
-20.54564554097887
 34
0
  0
DIMENSION
  5
30D
100
AcDbEntity
  8
0
  6
ByLayer
 62
  256
370
   -1
100
AcDbDimension
  2
*D35
 10
96.97613169030119
 20
-8.066635168841842
 30
0
 11
95.48869509418547
 21
-1.450283531272291
 31
0
 70
   33
 71
    5
  3
Standard
 53
0
210
0
220
0
230
1
100
AcDbAlignedDimension
 13
92.46160520607997
 23
5.168992293602938
 33
0
 14
92.43648380902552
 24
-8.058013240271471
 34
0
  0
DIMENSION
  5
30E
100
AcDbEntity
  8
0
  6
ByLayer
 62
  256
370
   -1
100
AcDbDimension
  2
*D36
 10
87.31379207825648
 20
-6.890888818347195
 30
0
 11
85.82140710581348
 21
1.049182153697987
 31
0
 70
   33
 71
    5
  3
Standard
 53
0
210
0
220
0
230
1
100
AcDbAlignedDimension
 13
88.47682399867821
 23
8.9852747623884
 33
0
 14
88.46159532351579
 24
-6.891989733607303
 34
0
  0
DIMENSION
  5
30F
100
AcDbEntity
  8
0
  6
ByLayer
 62
  256
370
   -1
100
AcDbDimension
  2
*D37
 10
10.91025403784438
 20
-12.625
 30
0
 11
0
 21
0
 31
0
 70
   34
 71
    5
  3
Standard
 53
0
210
0
220
0
230
1
100
AcDb2LineAngularDimension
 13
0.9992215062902394
 23
-6.904399227426124
 33
0
 14
0.9992215062902394
 24
7.206700772573877
 34
0
 15
2.25
 25
-7.625
 35
0
 16
3.310658070930942
 26
-11.64187453514177
 36
0
  0
ENDSEC
  0
SECTION
  2
OBJECTS
  0
DICTIONARY
  5
C
330
0
100
AcDbDictionary
281
    1
  3
ACAD_GROUP
350
D
  0
DICTIONARY
  5
D
330
C
100
AcDbDictionary
281
    1
  0
ENDSEC
  0
EOF
