  0
SECTION
  2
HEADER
  9
$ACADVER
  1
AC1015
  9
$ACADMAINTVER
 70
    13
  9
$DWGCODEPAGE
  3
ANSI_1252
  9
$INSBASE
 10
0.0
 20
0.0
 30
0.0
  9
$EXTMIN
 10
-7.583257714137583
 20
1.185318261323718
 30
0.0
  9
$EXTMAX
 10
98.82621902229313
 20
54.34785040419424
 30
0.0
  9
$LIMMIN
 10
0.0
 20
0.0
  9
$LIMMAX
 10
12.0
 20
9.0
  9
$ORTHOMODE
 70
     0
  9
$REGENMODE
 70
     1
  9
$FILLMODE
 70
     1
  9
$QTEXTMODE
 70
     0
  9
$MIRRTEXT
 70
     1
  9
$LTSCALE
 40
1.0
  9
$ATTMODE
 70
     1
  9
$TEXTSIZE
 40
0.2
  9
$TRACEWID
 40
0.05
  9
$TEXTSTYLE
  7
Standard
  9
$CLAYER
  8
0
  9
$CELTYPE
  6
ByLayer
  9
$CECOLOR
 62
   256
  9
$CELTSCALE
 40
1.0
  9
$DISPSILH
 70
     0
  9
$DIMSCALE
 40
1.0
  9
$DIMASZ
 40
0.06
  9
$DIMEXO
 40
0.0625
  9
$DIMDLI
 40
0.38
  9
$DIMRND
 40
0.0
  9
$DIMDLE
 40
0.0
  9
$DIMEXE
 40
0.18
  9
$DIMTP
 40
0.0
  9
$DIMTM
 40
0.0
  9
$DIMTXT
 40
0.0526345673404497
  9
$DIMCEN
 40
0.09
  9
$DIMTSZ
 40
0.0
  9
$DIMTOL
 70
     0
  9
$DIMLIM
 70
     0
  9
$DIMTIH
 70
     1
  9
$DIMTOH
 70
     1
  9
$DIMSE1
 70
     0
  9
$DIMSE2
 70
     0
  9
$DIMTAD
 70
     0
  9
$DIMZIN
 70
     0
  9
$DIMBLK
  1

  9
$DIMASO
 70
     1
  9
$DIMSHO
 70
     1
  9
$DIMPOST
  1

  9
$DIMAPOST
  1

  9
$DIMALT
 70
     0
  9
$DIMALTD
 70
     2
  9
$DIMALTF
 40
25.4
  9
$DIMLFAC
 40
1.0
  9
$DIMTOFL
 70
     0
  9
$DIMTVP
 40
0.0
  9
$DIMTIX
 70
     0
  9
$DIMSOXD
 70
     0
  9
$DIMSAH
 70
     0
  9
$DIMBLK1
  1

  9
$DIMBLK2
  1

  9
$DIMSTYLE
  2
Standard
  9
$DIMCLRD
 70
     0
  9
$DIMCLRE
 70
     0
  9
$DIMCLRT
 70
     0
  9
$DIMTFAC
 40
1.0
  9
$DIMGAP
 40
0.09
  9
$DIMJUST
 70
     0
  9
$DIMSD1
 70
     0
  9
$DIMSD2
 70
     0
  9
$DIMTOLJ
 70
     1
  9
$DIMTZIN
 70
     0
  9
$DIMALTZ
 70
     0
  9
$DIMALTTZ
 70
     0
  9
$DIMUPT
 70
     0
  9
$DIMDEC
 70
     4
  9
$DIMTDEC
 70
     4
  9
$DIMALTU
 70
     2
  9
$DIMALTTD
 70
     2
  9
$DIMTXSTY
  7
Standard
  9
$DIMAUNIT
 70
     0
  9
$DIMADEC
 70
     0
  9
$DIMALTRND
 40
0.0
  9
$DIMAZIN
 70
     0
  9
$DIMDSEP
 70
    46
  9
$DIMATFIT
 70
     3
  9
$DIMFRAC
 70
     0
  9
$DIMLDRBLK
  1

  9
$DIMLUNIT
 70
     2
  9
$DIMLWD
 70
    -2
  9
$DIMLWE
 70
    -2
  9
$DIMTMOVE
 70
     0
  9
$LUNITS
 70
     2
  9
$LUPREC
 70
     4
  9
$SKETCHINC
 40
0.1
  9
$FILLETRAD
 40
0.5
  9
$AUNITS
 70
     0
  9
$AUPREC
 70
     0
  9
$MENU
  1
.
  9
$ELEVATION
 40
0.0
  9
$PELEVATION
 40
0.0
  9
$THICKNESS
 40
0.0
  9
$LIMCHECK
 70
     0
  9
$CHAMFERA
 40
0.5
  9
$CHAMFERB
 40
0.5
  9
$CHAMFERC
 40
1.0
  9
$CHAMFERD
 40
0.0
  9
$SKPOLY
 70
     0
  9
$TDCREATE
 40
2455833.552372592
  9
$TDUCREATE
 40
2455833.760705925
  9
$TDUPDATE
 40
2455833.557922511
  9
$TDUUPDATE
 40
2455833.766255845
  9
$TDINDWG
 40
0.0045314468
  9
$TDUSRTIMER
 40
0.0045305440
  9
$USRTIMER
 70
     1
  9
$ANGBASE
 50
0.0
  9
$ANGDIR
 70
     0
  9
$PDMODE
 70
     0
  9
$PDSIZE
 40
0.0
  9
$PLINEWID
 40
0.0
  9
$SPLFRAME
 70
     0
  9
$SPLINETYPE
 70
     6
  9
$SPLINESEGS
 70
     8
  9
$HANDSEED
  5
386
  9
$SURFTAB1
 70
     6
  9
$SURFTAB2
 70
     6
  9
$SURFTYPE
 70
     6
  9
$SURFU
 70
     6
  9
$SURFV
 70
     6
  9
$UCSBASE
  2

  9
$UCSNAME
  2

  9
$UCSORG
 10
0.0
 20
0.0
 30
0.0
  9
$UCSXDIR
 10
1.0
 20
0.0
 30
0.0
  9
$UCSYDIR
 10
0.0
 20
1.0
 30
0.0
  9
$UCSORTHOREF
  2

  9
$UCSORTHOVIEW
 70
     0
  9
$UCSORGTOP
 10
0.0
 20
0.0
 30
0.0
  9
$UCSORGBOTTOM
 10
0.0
 20
0.0
 30
0.0
  9
$UCSORGLEFT
 10
0.0
 20
0.0
 30
0.0
  9
$UCSORGRIGHT
 10
0.0
 20
0.0
 30
0.0
  9
$UCSORGFRONT
 10
0.0
 20
0.0
 30
0.0
  9
$UCSORGBACK
 10
0.0
 20
0.0
 30
0.0
  9
$PUCSBASE
  2

  9
$PUCSNAME
  2

  9
$PUCSORG
 10
0.0
 20
0.0
 30
0.0
  9
$PUCSXDIR
 10
1.0
 20
0.0
 30
0.0
  9
$PUCSYDIR
 10
0.0
 20
1.0
 30
0.0
  9
$PUCSORTHOREF
  2

  9
$PUCSORTHOVIEW
 70
     0
  9
$PUCSORGTOP
 10
0.0
 20
0.0
 30
0.0
  9
$PUCSORGBOTTOM
 10
0.0
 20
0.0
 30
0.0
  9
$PUCSORGLEFT
 10
0.0
 20
0.0
 30
0.0
  9
$PUCSORGRIGHT
 10
0.0
 20
0.0
 30
0.0
  9
$PUCSORGFRONT
 10
0.0
 20
0.0
 30
0.0
  9
$PUCSORGBACK
 10
0.0
 20
0.0
 30
0.0
  9
$USERI1
 70
     0
  9
$USERI2
 70
     0
  9
$USERI3
 70
     0
  9
$USERI4
 70
     0
  9
$USERI5
 70
     0
  9
$USERR1
 40
0.0
  9
$USERR2
 40
0.0
  9
$USERR3
 40
0.0
  9
$USERR4
 40
0.0
  9
$USERR5
 40
0.0
  9
$WORLDVIEW
 70
     1
  9
$SHADEDGE
 70
     3
  9
$SHADEDIF
 70
    70
  9
$TILEMODE
 70
     1
  9
$MAXACTVP
 70
    64
  9
$PINSBASE
 10
0.0
 20
0.0
 30
0.0
  9
$PLIMCHECK
 70
     0
  9
$PEXTMIN
 10
1.000000000000000E+20
 20
1.000000000000000E+20
 30
1.000000000000000E+20
  9
$PEXTMAX
 10
-1.000000000000000E+20
 20
-1.000000000000000E+20
 30
-1.000000000000000E+20
  9
$PLIMMIN
 10
0.0
 20
0.0
  9
$PLIMMAX
 10
12.0
 20
9.0
  9
$UNITMODE
 70
     0
  9
$VISRETAIN
 70
     1
  9
$PLINEGEN
 70
     0
  9
$PSLTSCALE
 70
     1
  9
$TREEDEPTH
 70
  3020
  9
$CMLSTYLE
  2
Standard
  9
$CMLJUST
 70
     0
  9
$CMLSCALE
 40
1.0
  9
$PROXYGRAPHICS
 70
     1
  9
$MEASUREMENT
 70
     0
  9
$CELWEIGHT
370
    -1
  9
$ENDCAPS
280
     0
  9
$JOINSTYLE
280
     0
  9
$LWDISPLAY
290
     0
  9
$INSUNITS
 70
     1
  9
$HYPERLINKBASE
  1

  9
$STYLESHEET
  1

  9
$XEDIT
290
     1
  9
$CEPSNTYPE
380
     0
  9
$PSTYLEMODE
290
     1
  9
$FINGERPRINTGUID
  2
{EB056FB3-DFBC-4B79-B9BC-697642CF4CBB}
  9
$VERSIONGUID
  2
{FFB01DFE-B309-4A0D-B410-DF17B59C6180}
  9
$EXTNAMES
290
     1
  9
$PSVPSCALE
 40
0.0
  9
$OLESTARTUP
290
     0
  0
ENDSEC
  0
SECTION
  2
CLASSES
  0
CLASS
  1
ACDBDICTIONARYWDFLT
  2
AcDbDictionaryWithDefault
  3
AutoCAD 2000
 90
        0
280
     0
281
     0
  0
CLASS
  1
VISUALSTYLE
  2
AcDbVisualStyle
  3
ObjectDBX Classes
 90
     4095
280
     0
281
     0
  0
CLASS
  1
MATERIAL
  2
AcDbMaterial
  3
ObjectDBX Classes
 90
     1153
280
     0
281
     0
  0
CLASS
  1
SCALE
  2
AcDbScale
  3
ObjectDBX Classes
 90
     1153
280
     0
281
     0
  0
CLASS
  1
DICTIONARYVAR
  2
AcDbDictionaryVar
  3
AutoCAD 2000
 90
        0
280
     0
281
     0
  0
CLASS
  1
ACDBPLACEHOLDER
  2
AcDbPlaceHolder
  3
AutoCAD 2000
 90
        0
280
     0
281
     0
  0
CLASS
  1
LAYOUT
  2
AcDbLayout
  3
AutoCAD 2000
 90
        0
280
     0
281
     0
  0
CLASS
  1
DIMASSOC
  2
AcDbDimAssoc
  3
"AcDbDimAssoc|Product Desc:     AcDim ARX App For Dimension|Company:          Autodesk, Inc.|WEB Address:      www.autodesk.com"
 90
        0
280
     0
281
     0
  0
ENDSEC
  0
SECTION
  2
TABLES
  0
TABLE
  2
VPORT
  5
8
330
0
100
AcDbSymbolTable
 70
     4
  0
VPORT
  5
385
330
8
100
AcDbSymbolTableRecord
100
AcDbViewportTableRecord
  2
*Active
 70
     0
 10
0.0
 20
0.0
 11
1.0
 21
1.0
 12
57.67557207189914
 22
28.03724940188919
 13
0.0
 23
0.0
 14
0.5
 24
0.5
 15
0.5
 25
0.5
 16
0.0
 26
0.0
 36
1.0
 17
0.0
 27
0.0
 37
0.0
 40
126.1707706806885
 41
1.660539215686274
 42
50.0
 43
0.0
 44
0.0
 50
0.0
 51
0.0
 71
     0
 72
   100
 73
     1
 74
     3
 75
     0
 76
     0
 77
     0
 78
     0
281
     0
 65
     1
110
0.0
120
0.0
130
0.0
111
1.0
121
0.0
131
0.0
112
0.0
122
1.0
132
0.0
 79
     0
146
0.0
  0
ENDTAB
  0
TABLE
  2
LTYPE
  5
5
330
0
100
AcDbSymbolTable
 70
     1
  0
LTYPE
  5
14
330
5
100
AcDbSymbolTableRecord
100
AcDbLinetypeTableRecord
  2
ByBlock
 70
     0
  3

 72
    65
 73
     0
 40
0.0
  0
LTYPE
  5
15
330
5
100
AcDbSymbolTableRecord
100
AcDbLinetypeTableRecord
  2
ByLayer
 70
     0
  3

 72
    65
 73
     0
 40
0.0
  0
LTYPE
  5
16
330
5
100
AcDbSymbolTableRecord
100
AcDbLinetypeTableRecord
  2
Continuous
 70
     0
  3
Solid line
 72
    65
 73
     0
 40
0.0
  0
ENDTAB
  0
TABLE
  2
LAYER
  5
2
330
0
100
AcDbSymbolTable
 70
     4
  0
LAYER
  5
10
330
2
100
AcDbSymbolTableRecord
100
AcDbLayerTableRecord
  2
0
 70
     0
 62
     7
  6
Continuous
370
    -3
390
F
  0
LAYER
  5
3F
330
2
100
AcDbSymbolTableRecord
100
AcDbLayerTableRecord
  2
VISIBLE
 70
     0
 62
     7
  6
Continuous
370
     0
390
F
  0
LAYER
  5
70
330
2
100
AcDbSymbolTableRecord
100
AcDbLayerTableRecord
  2
CONTINUOUS
 70
     0
 62
     7
  6
Continuous
370
     0
390
F
  0
LAYER
  5
30D
330
2
100
AcDbSymbolTableRecord
100
AcDbLayerTableRecord
  2
Defpoints
 70
     0
 62
     7
  6
Continuous
290
     0
370
    -3
390
F
  0
ENDTAB
  0
TABLE
  2
STYLE
  5
3
330
0
100
AcDbSymbolTable
 70
     1
  0
STYLE
  5
11
330
3
100
AcDbSymbolTableRecord
100
AcDbTextStyleTableRecord
  2
Standard
 70
     0
 40
0.0
 41
1.0
 50
0.0
 71
     0
 42
0.2
  3
txt
  4

  0
ENDTAB
  0
TABLE
  2
VIEW
  5
6
330
0
100
AcDbSymbolTable
 70
     0
  0
ENDTAB
  0
TABLE
  2
UCS
  5
7
330
0
100
AcDbSymbolTable
 70
     0
  0
ENDTAB
  0
TABLE
  2
APPID
  5
9
330
0
100
AcDbSymbolTable
 70
     1
  0
APPID
  5
12
330
9
100
AcDbSymbolTableRecord
100
AcDbRegAppTableRecord
  2
ACAD
 70
     0
  0
ENDTAB
  0
TABLE
  2
DIMSTYLE
  5
A
330
0
100
AcDbSymbolTable
 70
     1
100
AcDbDimStyleTable
 71
     1
340
27
  0
DIMSTYLE
105
27
102
{ACAD_REACTORS
330
331
330
35F
102
}
330
A
100
AcDbSymbolTableRecord
100
AcDbDimStyleTableRecord
  2
Standard
 70
     0
340
11
  0
ENDTAB
  0
TABLE
  2
BLOCK_RECORD
  5
1
330
0
100
AcDbSymbolTable
 70
     6
  0
BLOCK_RECORD
  5
1F
330
1
100
AcDbSymbolTableRecord
100
AcDbBlockTableRecord
  2
*Model_Space
340
22
  0
BLOCK_RECORD
  5
1B
330
1
100
AcDbSymbolTableRecord
100
AcDbBlockTableRecord
  2
*Paper_Space
340
1E
  0
BLOCK_RECORD
  5
23
330
1
100
AcDbSymbolTableRecord
100
AcDbBlockTableRecord
  2
*Paper_Space0
340
26
  0
BLOCK_RECORD
  5
22E
330
1
100
AcDbSymbolTableRecord
100
AcDbBlockTableRecord
  2
BLOCK0
340
0
102
{BLKREFS
331
22D
102
}
  0
BLOCK_RECORD
  5
254
330
1
100
AcDbSymbolTableRecord
100
AcDbBlockTableRecord
  2
BLOCK1
340
0
102
{BLKREFS
331
253
102
}
  0
BLOCK_RECORD
  5
30E
330
1
100
AcDbSymbolTableRecord
100
AcDbBlockTableRecord
  2
*D3
340
0
  0
BLOCK_RECORD
  5
332
330
1
100
AcDbSymbolTableRecord
100
AcDbBlockTableRecord
  2
*D4
340
0
  0
BLOCK_RECORD
  5
360
330
1
100
AcDbSymbolTableRecord
100
AcDbBlockTableRecord
  2
*D5
340
0
  0
ENDTAB
  0
ENDSEC
  0
SECTION
  2
BLOCKS
  0
BLOCK
  5
20
330
1F
100
AcDbEntity
  8
0
100
AcDbBlockBegin
  2
*Model_Space
 70
     0
 10
0.0
 20
0.0
 30
0.0
  3
*Model_Space
  1

  0
ENDBLK
  5
21
330
1F
100
AcDbEntity
  8
0
100
AcDbBlockEnd
  0
BLOCK
  5
1C
330
1B
100
AcDbEntity
 67
     1
  8
0
100
AcDbBlockBegin
  2
*Paper_Space
 70
     0
 10
0.0
 20
0.0
 30
0.0
  3
*Paper_Space
  1

  0
ENDBLK
  5
1D
330
1B
100
AcDbEntity
 67
     1
  8
0
100
AcDbBlockEnd
  0
BLOCK
  5
24
330
23
100
AcDbEntity
  8
0
100
AcDbBlockBegin
  2
*Paper_Space0
 70
     0
 10
0.0
 20
0.0
 30
0.0
  3
*Paper_Space0
  1

  0
ENDBLK
  5
25
330
23
100
AcDbEntity
  8
0
100
AcDbBlockEnd
  0
BLOCK
  5
251
330
22E
100
AcDbEntity
  8
0
100
AcDbBlockBegin
  2
BLOCK0
 70
     0
 10
0.0
 20
0.0
 30
0.0
  3
BLOCK0
  1

  0
INSERT
  5
253
330
22E
100
AcDbEntity
  8
CONTINUOUS
100
AcDbBlockReference
  2
BLOCK1
 10
0.0
 20
0.0
 30
0.0
  0
ENDBLK
  5
252
330
22E
100
AcDbEntity
  8
0
100
AcDbBlockEnd
  0
BLOCK
  5
255
330
254
100
AcDbEntity
  8
0
100
AcDbBlockBegin
  2
BLOCK1
 70
     0
 10
0.0
 20
0.0
 30
0.0
  3
BLOCK1
  1

  0
ARC
  5
257
330
254
100
AcDbEntity
  8
CONTINUOUS
100
AcDbCircle
 10
6.399598009004369
 20
1.515638096126046
 30
0.0
 40
0.075
100
AcDbArc
 50
90.0
 51
180.0
  0
ARC
  5
258
330
254
100
AcDbEntity
  8
CONTINUOUS
100
AcDbCircle
 10
6.399598009004369
 20
2.03626662727416
 30
0.0
 40
0.0750000000000002
100
AcDbArc
 50
180.0
 51
270.0
  0
LINE
  5
259
330
254
100
AcDbEntity
  8
CONTINUOUS
100
AcDbLine
 10
6.399598009004369
 20
1.96126662727416
 30
0.0
 11
6.399598009004369
 21
1.590638096126046
 31
0.0
  0
ARC
  5
25A
330
254
100
AcDbEntity
  8
CONTINUOUS
100
AcDbCircle
 10
5.155498474601692
 20
2.03626662727416
 30
0.0
 40
0.075
100
AcDbArc
 50
270.0
 51
0.0
  0
LINE
  5
25B
330
254
100
AcDbEntity
  8
CONTINUOUS
100
AcDbLine
 10
5.230498474601692
 20
2.03626662727416
 30
0.0
 11
6.324598009004369
 21
2.03626662727416
 31
0.0
  0
ARC
  5
25C
330
254
100
AcDbEntity
  8
CONTINUOUS
100
AcDbCircle
 10
5.155498474601692
 20
1.515638096126046
 30
0.0
 40
0.0749999999999993
100
AcDbArc
 50
0.0
 51
90.0
  0
LINE
  5
25D
330
254
100
AcDbEntity
  8
CONTINUOUS
100
AcDbLine
 10
6.324598009004369
 20
1.515638096126046
 30
0.0
 11
5.230498474601692
 21
1.515638096126046
 31
0.0
  0
LINE
  5
25E
330
254
100
AcDbEntity
  8
CONTINUOUS
100
AcDbLine
 10
5.155498474601692
 20
1.590638096126046
 30
0.0
 11
5.155498474601692
 21
1.96126662727416
 31
0.0
  0
LINE
  5
25F
330
254
100
AcDbEntity
  8
CONTINUOUS
100
AcDbLine
 10
6.319754411891023
 20
1.520638096126046
 30
0.0
 11
5.235342071715039
 21
1.520638096126046
 31
0.0
  0
ARC
  5
260
330
254
100
AcDbEntity
  8
CONTINUOUS
100
AcDbCircle
 10
5.155498474601692
 20
1.515638096126046
 30
0.0
 40
0.0799999999999892
100
AcDbArc
 50
3.583321698472539
 51
86.41667830152867
  0
LINE
  5
261
330
254
100
AcDbEntity
  8
CONTINUOUS
100
AcDbLine
 10
5.160498474601693
 20
1.595481693239401
 30
0.0
 11
5.160498474601693
 21
1.956423030160803
 31
0.0
  0
ARC
  5
262
330
254
100
AcDbEntity
  8
CONTINUOUS
100
AcDbCircle
 10
5.155498474601692
 20
2.03626662727416
 30
0.0
 40
0.0800000000000018
100
AcDbArc
 50
273.5833216984711
 51
356.4166783015277
  0
LINE
  5
263
330
254
100
AcDbEntity
  8
CONTINUOUS
100
AcDbLine
 10
5.235342071715039
 20
2.031266627274161
 30
0.0
 11
6.319754411891023
 21
2.031266627274161
 31
0.0
  0
ARC
  5
264
330
254
100
AcDbEntity
  8
CONTINUOUS
100
AcDbCircle
 10
6.399598009004369
 20
2.03626662727416
 30
0.0
 40
0.0799999999999902
100
AcDbArc
 50
183.583321698473
 51
266.4166783015289
  0
LINE
  5
265
330
254
100
AcDbEntity
  8
CONTINUOUS
100
AcDbLine
 10
6.39459800900437
 20
1.956423030160806
 30
0.0
 11
6.39459800900437
 21
1.595481693239401
 31
0.0
  0
ARC
  5
266
330
254
100
AcDbEntity
  8
CONTINUOUS
100
AcDbCircle
 10
6.399598009004369
 20
1.515638096126046
 30
0.0
 40
0.0799999999999978
100
AcDbArc
 50
93.58332169847136
 51
176.4166783015274
  0
LINE
  5
267
330
254
100
AcDbEntity
  8
CONTINUOUS
100
AcDbLine
 10
5.230498474601692
 20
2.033766627274161
 30
0.0
 11
6.322138342080236
 21
2.033766627274161
 31
0.0
  0
ARC
  5
268
330
254
100
AcDbEntity
  8
CONTINUOUS
100
AcDbCircle
 10
6.399598009004369
 20
2.03626662727416
 30
0.0
 40
0.0774999999999855
100
AcDbArc
 50
181.8485716452289
 51
268.1514283547708
  0
LINE
  5
269
330
254
100
AcDbEntity
  8
CONTINUOUS
100
AcDbLine
 10
6.397098009004368
 20
1.958806960350027
 30
0.0
 11
6.397098009004368
 21
1.593097763050193
 31
0.0
  0
ARC
  5
26A
330
254
100
AcDbEntity
  8
CONTINUOUS
100
AcDbCircle
 10
6.399598009004369
 20
1.515638096126046
 30
0.0
 40
0.0774999999999975
100
AcDbArc
 50
91.84857164522892
 51
178.151428354771
  0
LINE
  5
26B
330
254
100
AcDbEntity
  8
CONTINUOUS
100
AcDbLine
 10
6.322138342080236
 20
1.518138096126046
 30
0.0
 11
5.232958141525826
 21
1.518138096126046
 31
0.0
  0
ARC
  5
26C
330
254
100
AcDbEntity
  8
CONTINUOUS
100
AcDbCircle
 10
5.155498474601692
 20
1.515638096126046
 30
0.0
 40
0.0774999999999847
100
AcDbArc
 50
1.848571645229055
 51
88.15142835477212
  0
LINE
  5
26D
330
254
100
AcDbEntity
  8
CONTINUOUS
100
AcDbLine
 10
5.157998474601691
 20
1.593097763050181
 30
0.0
 11
5.157998474601691
 21
1.96126662727416
 31
0.0
  0
ARC
  5
26E
330
254
100
AcDbEntity
  8
CONTINUOUS
100
AcDbCircle
 10
5.155498474601692
 20
2.03626662727416
 30
0.0
 40
0.0774999999999999
100
AcDbArc
 50
270.0
 51
0.0
  0
LINE
  5
26F
330
254
100
AcDbEntity
  8
CONTINUOUS
100
AcDbLine
 10
0.0
 20
0.0
 30
0.0
 11
16.00000000000004
 21
0.0
 31
0.0
  0
LINE
  5
270
330
254
100
AcDbEntity
  8
CONTINUOUS
100
AcDbLine
 10
16.00000000000004
 20
10.0
 30
0.0
 11
0.0
 21
10.0
 31
0.0
  0
LINE
  5
271
330
254
100
AcDbEntity
  8
CONTINUOUS
100
AcDbLine
 10
0.6200000000000197
 20
0.3800000000000016
 30
0.0
 11
15.37999999999996
 21
0.3800000000000016
 31
0.0
  0
LINE
  5
272
330
254
100
AcDbEntity
  8
CONTINUOUS
100
AcDbLine
 10
15.38
 20
9.619999999999999
 30
0.0
 11
0.6200000000000393
 21
9.619999999999999
 31
0.0
  0
LWPOLYLINE
  5
273
330
254
100
AcDbEntity
  8
CONTINUOUS
100
AcDbPolyline
 90
        5
 70
     0
 43
0.0
 10
7.849999999999999
 20
0.2300000000000039
 10
8.15
 20
0.2300000000000039
 10
7.999999999999999
 20
0.3800000000000016
 10
7.999999999999999
 20
0.3800000000000016
 10
7.849999999999999
 20
0.2300000000000039
  0
LWPOLYLINE
  5
274
330
254
100
AcDbEntity
  8
CONTINUOUS
100
AcDbPolyline
 90
        5
 70
     0
 43
0.0
 10
7.849999999999999
 20
9.769999999999999
 10
8.15
 20
9.769999999999999
 10
7.999999999999999
 20
9.619999999999999
 10
7.999999999999999
 20
9.619999999999999
 10
7.849999999999999
 20
9.769999999999999
  0
LINE
  5
275
330
254
100
AcDbEntity
  8
CONTINUOUS
100
AcDbLine
 10
0.0
 20
10.0
 30
0.0
 11
0.0
 21
0.0
 31
0.0
  0
LINE
  5
276
330
254
100
AcDbEntity
  8
CONTINUOUS
100
AcDbLine
 10
0.6200000000000393
 20
9.619999999999999
 30
0.0
 11
0.6200000000000197
 21
0.3800000000000016
 31
0.0
  0
LWPOLYLINE
  5
277
330
254
100
AcDbEntity
  8
CONTINUOUS
100
AcDbPolyline
 90
        5
 70
     0
 43
0.0
 10
0.48
 20
4.849999999999999
 10
0.48
 20
5.15
 10
0.6200000000000197
 20
5.0
 10
0.6200000000000197
 20
5.0
 10
0.48
 20
4.849999999999999
  0
LINE
  5
278
330
254
100
AcDbEntity
  8
CONTINUOUS
100
AcDbLine
 10
16.00000000000004
 20
0.0
 30
0.0
 11
16.00000000000004
 21
10.0
 31
0.0
  0
LINE
  5
279
330
254
100
AcDbEntity
  8
CONTINUOUS
100
AcDbLine
 10
15.38
 20
0.3800000000000016
 30
0.0
 11
15.38
 21
9.619999999999999
 31
0.0
  0
LWPOLYLINE
  5
27A
330
254
100
AcDbEntity
  8
CONTINUOUS
100
AcDbPolyline
 90
        5
 70
     0
 43
0.0
 10
15.52000000000004
 20
4.849999999999999
 10
15.52000000000004
 20
5.15
 10
15.38
 20
5.0
 10
15.38
 20
5.0
 10
15.52000000000004
 20
4.849999999999999
  0
LINE
  5
27B
330
254
100
AcDbEntity
  8
CONTINUOUS
100
AcDbLine
 10
11.13
 20
0.6299999999999999
 30
0.0
 11
15.38
 21
0.6299999999999999
 31
0.0
  0
LINE
  5
27C
330
254
100
AcDbEntity
  8
CONTINUOUS
100
AcDbLine
 10
11.13
 20
1.629999999999999
 30
0.0
 11
15.38
 21
1.629999999999999
 31
0.0
  0
LINE
  5
27D
330
254
100
AcDbEntity
  8
CONTINUOUS
100
AcDbLine
 10
11.13
 20
0.3800000000000016
 30
0.0
 11
11.13
 21
2.129999999999995
 31
0.0
  0
LINE
  5
27E
330
254
100
AcDbEntity
  8
CONTINUOUS
100
AcDbLine
 10
11.51
 20
0.6299999999999999
 30
0.0
 11
11.51
 21
1.01
 31
0.0
  0
LINE
  5
27F
330
254
100
AcDbEntity
  8
CONTINUOUS
100
AcDbLine
 10
12.13
 20
0.3800000000000016
 30
0.0
 11
12.13
 21
0.6299999999999999
 31
0.0
  0
LINE
  5
280
330
254
100
AcDbEntity
  8
CONTINUOUS
100
AcDbLine
 10
12.63000000000003
 20
0.6299999999999999
 30
0.0
 11
12.63000000000003
 21
1.01
 31
0.0
  0
LINE
  5
281
330
254
100
AcDbEntity
  8
CONTINUOUS
100
AcDbLine
 10
13.63
 20
0.3800000000000016
 30
0.0
 11
13.63
 21
0.6299999999999999
 31
0.0
  0
LINE
  5
282
330
254
100
AcDbEntity
  8
CONTINUOUS
100
AcDbLine
 10
15.0
 20
0.6299999999999999
 30
0.0
 11
15.0
 21
1.01
 31
0.0
  0
LINE
  5
283
330
254
100
AcDbEntity
  8
CONTINUOUS
100
AcDbLine
 10
9.88
 20
9.369999999999999
 30
0.0
 11
15.38
 21
9.369999999999999
 31
0.0
  0
LINE
  5
284
330
254
100
AcDbEntity
  8
CONTINUOUS
100
AcDbLine
 10
9.88
 20
9.119999999999999
 30
0.0
 11
15.38
 21
9.119999999999999
 31
0.0
  0
LINE
  5
285
330
254
100
AcDbEntity
  8
CONTINUOUS
100
AcDbLine
 10
9.88
 20
9.619999999999999
 30
0.0
 11
9.88
 21
8.572699999999999
 31
0.0
  0
LINE
  5
286
330
254
100
AcDbEntity
  8
CONTINUOUS
100
AcDbLine
 10
10.38
 20
9.119999999999999
 30
0.0
 11
10.38
 21
9.369999999999999
 31
0.0
  0
LINE
  5
287
330
254
100
AcDbEntity
  8
CONTINUOUS
100
AcDbLine
 10
10.76
 20
9.119999999999999
 30
0.0
 11
10.76
 21
9.369999999999999
 31
0.0
  0
LINE
  5
288
330
254
100
AcDbEntity
  8
CONTINUOUS
100
AcDbLine
 10
13.50000000000003
 20
9.119999999999999
 30
0.0
 11
13.50000000000003
 21
9.369999999999999
 31
0.0
  0
LINE
  5
289
330
254
100
AcDbEntity
  8
CONTINUOUS
100
AcDbLine
 10
14.38
 20
9.119999999999999
 30
0.0
 11
14.38
 21
9.369999999999999
 31
0.0
  0
LINE
  5
28A
330
254
100
AcDbEntity
  8
CONTINUOUS
100
AcDbLine
 10
7.999999999999999
 20
0.1300000000000051
 30
0.0
 11
7.999999999999999
 21
0.2300000000000039
 31
0.0
  0
LINE
  5
28B
330
254
100
AcDbEntity
  8
CONTINUOUS
100
AcDbLine
 10
0.3800000000000016
 20
5.0
 30
0.0
 11
0.48
 21
5.0
 31
0.0
  0
LINE
  5
28C
330
254
100
AcDbEntity
  8
CONTINUOUS
100
AcDbLine
 10
7.999999999999999
 20
9.869999999999999
 30
0.0
 11
7.999999999999999
 21
9.769999999999999
 31
0.0
  0
LINE
  5
28D
330
254
100
AcDbEntity
  8
CONTINUOUS
100
AcDbLine
 10
15.62000000000003
 20
5.0
 30
0.0
 11
15.52000000000004
 21
5.0
 31
0.0
  0
LINE
  5
28E
330
254
100
AcDbEntity
  8
CONTINUOUS
100
AcDbLine
 10
11.13
 20
1.4158617485185
 30
0.0
 11
9.13
 21
1.4158617485185
 31
0.0
  0
LINE
  5
28F
330
254
100
AcDbEntity
  8
CONTINUOUS
100
AcDbLine
 10
9.13
 20
0.6995204745271615
 30
0.0
 11
7.124461979194094
 21
0.6995204745271615
 31
0.0
  0
LINE
  5
290
330
254
100
AcDbEntity
  8
CONTINUOUS
100
AcDbLine
 10
9.134604388150787
 20
2.129999999999995
 30
0.0
 11
9.134604388150787
 21
0.3799999999999996
 31
0.0
  0
LINE
  5
291
330
254
100
AcDbEntity
  8
CONTINUOUS
100
AcDbLine
 10
11.13
 20
1.774037191431886
 30
0.0
 11
9.13
 21
1.774037191431886
 31
0.0
  0
LINE
  5
292
330
254
100
AcDbEntity
  8
CONTINUOUS
100
AcDbLine
 10
9.13
 20
1.006522504546845
 30
0.0
 11
7.124461979194094
 21
1.006522504546845
 31
0.0
  0
LINE
  5
293
330
254
100
AcDbEntity
  8
CONTINUOUS
100
AcDbLine
 10
11.13
 20
1.01
 30
0.0
 11
15.38
 21
1.01
 31
0.0
  0
LINE
  5
294
330
254
100
AcDbEntity
  8
CONTINUOUS
100
AcDbLine
 10
11.13
 20
2.129999999999995
 30
0.0
 11
15.38
 21
2.129999999999995
 31
0.0
  0
LINE
  5
295
330
254
100
AcDbEntity
  8
CONTINUOUS
100
AcDbLine
 10
7.124461979194094
 20
2.129999999999995
 30
0.0
 11
7.124461979194094
 21
0.3799999999999996
 31
0.0
  0
LINE
  5
296
330
254
100
AcDbEntity
  8
CONTINUOUS
100
AcDbLine
 10
7.124461979194094
 20
2.129999999999995
 30
0.0
 11
11.13
 21
2.129999999999995
 31
0.0
  0
LINE
  5
297
330
254
100
AcDbEntity
  8
CONTINUOUS
100
AcDbLine
 10
11.13
 20
0.7287596785133819
 30
0.0
 11
9.13
 21
0.7287596785133819
 31
0.0
  0
LINE
  5
298
330
254
100
AcDbEntity
  8
CONTINUOUS
100
AcDbLine
 10
11.13
 20
1.072315519433854
 30
0.0
 11
9.13
 21
1.072315519433854
 31
0.0
  0
LINE
  5
299
330
254
100
AcDbEntity
  8
CONTINUOUS
100
AcDbLine
 10
10.11408888618227
 20
2.129999999999995
 30
0.0
 11
10.11408888618227
 21
0.3799999999999996
 31
0.0
  0
LINE
  5
29A
330
254
100
AcDbEntity
  8
CONTINUOUS
100
AcDbLine
 10
4.593901746854999
 20
1.629999999999999
 30
0.0
 11
4.593901746854999
 21
0.3800000000000016
 31
0.0
  0
LINE
  5
29B
330
254
100
AcDbEntity
  8
CONTINUOUS
100
AcDbLine
 10
0.7939610518808424
 20
0.5064726251316812
 30
0.0
 11
0.7939610518808424
 21
1.515638096126046
 31
0.0
  0
LINE
  5
29C
330
254
100
AcDbEntity
  8
CONTINUOUS
100
AcDbLine
 10
0.7939610518808424
 20
1.515638096126046
 30
0.0
 11
4.465769369771181
 21
1.515638096126046
 31
0.0
  0
LINE
  5
29D
330
254
100
AcDbEntity
  8
CONTINUOUS
100
AcDbLine
 10
4.465769369771181
 20
1.515638096126046
 30
0.0
 11
4.465769369771181
 21
0.5064726251316812
 31
0.0
  0
LINE
  5
29E
330
254
100
AcDbEntity
  8
CONTINUOUS
100
AcDbLine
 10
4.465769369771181
 20
0.5064726251316812
 30
0.0
 11
0.7939610518808424
 21
0.5064726251316812
 31
0.0
  0
LINE
  5
29F
330
254
100
AcDbEntity
  8
CONTINUOUS
100
AcDbLine
 10
11.13
 20
1.774037191431886
 30
0.0
 11
15.38
 21
1.774037191431886
 31
0.0
  0
LINE
  5
2A0
330
254
100
AcDbEntity
  8
CONTINUOUS
100
AcDbLine
 10
12.13
 20
1.774037191431886
 30
0.0
 11
12.13
 21
1.629999999999999
 31
0.0
  0
LINE
  5
2A1
330
254
100
AcDbEntity
  8
CONTINUOUS
100
AcDbLine
 10
4.593901746854999
 20
1.629999999999999
 30
0.0
 11
0.6200000000000393
 21
1.629999999999999
 31
0.0
  0
LINE
  5
2A2
330
254
100
AcDbEntity
  8
CONTINUOUS
100
AcDbLine
 10
7.124461979194094
 20
2.129999999999995
 30
0.0
 11
4.593901746854999
 21
2.129999999999995
 31
0.0
  0
LINE
  5
2A3
330
254
100
AcDbEntity
  8
CONTINUOUS
100
AcDbLine
 10
4.593901746854999
 20
2.129999999999995
 30
0.0
 11
4.593901746854999
 21
1.629999999999999
 31
0.0
  0
MTEXT
  5
2A4
330
254
100
AcDbEntity
  8
CONTINUOUS
100
AcDbMText
 10
12.62984251968504
 20
0.5277165354330709
 30
0.0
 40
0.0820063694267516
 41
0.0
 71
     4
 72
     1
  1
{\fArial|b0|i0|c0|p0;\C7;}
 73
     1
 44
1.0
  0
MTEXT
  5
2A5
330
254
100
AcDbEntity
  8
CONTINUOUS
100
AcDbMText
 10
9.1919485995189
 20
1.012262692785035
 30
0.0
 40
0.0765392781316348
 41
0.0
 71
     4
 72
     1
  1
{\fArial|b0|i0|c0|p0;\C7;MFG}{\fArial|b0|i0|c0|p0;\C7;}
 73
     1
 44
1.0
  0
MTEXT
  5
2A6
330
254
100
AcDbEntity
  8
CONTINUOUS
100
AcDbMText
 10
11.23659278689405
 20
1.462700121421512
 30
0.0
 40
0.0904994727255297
 41
0.0
 71
     4
 72
     1
  1
{\fMicrosoft Sans Serif|b1|i0|c0|p0;\C7;JOB / ASSEMBLY:}{\fMS Shell Dlg|b0|i0|c0|p0;\C7;\H1.125x;}
 73
     1
 44
1.0
  0
MTEXT
  5
2A7
330
254
100
AcDbEntity
  8
CONTINUOUS
100
AcDbMText
 10
11.24225535955952
 20
2.011464348740465
 30
0.0
 40
0.0904994727255297
 41
0.0
 71
     4
 72
     1
  1
{\fMicrosoft Sans Serif|b1|i0|c0|p0;\C7;PART / TITLE}{\fMS Shell Dlg|b0|i0|c0|p0;\C7;\H1.125x;}
 73
     1
 44
1.0
  0
MTEXT
  5
2A8
330
254
100
AcDbEntity
  8
CONTINUOUS
100
AcDbMText
 10
11.54484251968503
 20
1.687716535433071
 30
0.0
 40
0.0820063694267516
 41
0.0
 71
     4
 72
     1
  1
{\fArial|b0|i0|c0|p0;\C7;}
 73
     1
 44
1.0
  0
MTEXT
  5
2A9
330
254
100
AcDbEntity
  8
CONTINUOUS
100
AcDbMText
 10
9.615623990757244
 20
2.03771653543307
 30
0.0
 40
0.0874734607218684
 41
0.0
 71
     4
 72
     1
  1
{\fArial|b0|i0|c0|p0;\C7;RHB}{\fArial|b0|i0|c0|p0;\C7;\H0.9375x;}
 73
     1
 44
1.0
  0
MTEXT
  5
2AA
330
254
100
AcDbEntity
  8
CONTINUOUS
100
AcDbMText
 10
10.46311751968504
 20
9.259476535433071
 30
0.0
 40
0.0765392781316348
 41
0.0
 71
     4
 72
     1
  1
{\fArial|b0|i0|c0|p0;\C7;REV}{\fArial|b0|i0|c0|p0;\C7;}
 73
     1
 44
1.0
  0
MTEXT
  5
2AB
330
254
100
AcDbEntity
  8
CONTINUOUS
100
AcDbMText
 10
13.13649094949559
 20
0.8268346260851771
 30
0.0
 40
0.0820063694267516
 41
0.0
 71
     4
 72
     1
  1
{\fArial|b0|i0|c0|p0;\C7;}
 73
     1
 44
1.0
  0
MTEXT
  5
2AC
330
254
100
AcDbEntity
  8
CONTINUOUS
100
AcDbMText
 10
10.51066481222318
 20
2.03771653543307
 30
0.0
 40
0.0820063694267516
 41
0.0
 71
     4
 72
     1
  1
{\fArial|b0|i0|c0|p0;\C7;}
 73
     1
 44
1.0
  0
MTEXT
  5
2AD
330
254
100
AcDbEntity
  8
CONTINUOUS
100
AcDbMText
 10
11.76501751968504
 20
9.259476535433071
 30
0.0
 40
0.0765392781316348
 41
0.0
 71
     4
 72
     1
  1
{\fArial|b0|i0|c0|p0;\C7;DESCRIPTION}{\fArial|b0|i0|c0|p0;\C7;}
 73
     1
 44
1.0
  0
MTEXT
  5
2AE
330
254
100
AcDbEntity
  8
CONTINUOUS
100
AcDbMText
 10
9.179818462953935
 20
1.705189535181886
 30
0.0
 40
0.0765392781316348
 41
0.0
 71
     4
 72
     1
  1
{\fArial|b0|i0|c0|p0;\C7;CHECKED}{\fArial|b0|i0|c0|p0;\C7;}
 73
     1
 44
1.0
  0
MTEXT
  5
2AF
330
254
100
AcDbEntity
  8
CONTINUOUS
100
AcDbMText
 10
9.179818462953935
 20
2.054454806466138
 30
0.0
 40
0.0765392781316348
 41
0.0
 71
     4
 72
     1
  1
{\fArial|b0|i0|c0|p0;\C7;DRAWN}{\fArial|b0|i0|c0|p0;\C7;}
 73
     1
 44
1.0
  0
MTEXT
  5
2B0
330
254
100
AcDbEntity
  8
CONTINUOUS
100
AcDbMText
 10
9.991717519685039
 20
9.259476535433071
 30
0.0
 40
0.0765392781316348
 41
0.0
 71
     4
 72
     1
  1
{\fArial|b0|i0|c0|p0;\C7;ZONE}{\fArial|b0|i0|c0|p0;\C7;}
 73
     1
 44
1.0
  0
MTEXT
  5
2B1
330
254
100
AcDbEntity
  8
CONTINUOUS
100
AcDbMText
 10
-0.0559074803149496
 20
3.090316535433062
 30
0.0
 40
0.2296178343949045
 41
0.0
 71
     4
 72
     1
  1
{\fArial|b0|i0|c0|p0;\C7;}
 73
     1
 44
1.0
  0
MTEXT
  5
2B2
330
254
100
AcDbEntity
  8
CONTINUOUS
100
AcDbMText
 10
13.00984251968503
 20
1.687716535433071
 30
0.0
 40
0.0820063694267516
 41
0.0
 71
     4
 72
     1
  1
{\fArial|b0|i0|c0|p0;\C7;}
 73
     1
 44
1.0
  0
MTEXT
  5
2B3
330
254
100
AcDbEntity
  8
CONTINUOUS
100
AcDbMText
 10
13.83071751968504
 20
9.259476535433071
 30
0.0
 40
0.0765392781316348
 41
0.0
 71
     4
 72
     1
  1
{\fArial|b0|i0|c0|p0;\C7;DATE}{\fArial|b0|i0|c0|p0;\C7;}
 73
     1
 44
1.0
  0
MTEXT
  5
2B4
330
254
100
AcDbEntity
  8
CONTINUOUS
100
AcDbMText
 10
11.58191751968503
 20
0.9450765354330707
 30
0.0
 40
0.0765392781316348
 41
0.0
 71
     4
 72
     1
  1
{\fArial|b0|i0|c0|p0;\C7;FSCM NO.}{\fArial|b0|i0|c0|p0;\C7;}
 73
     1
 44
1.0
  0
MTEXT
  5
2B5
330
254
100
AcDbEntity
  8
CONTINUOUS
100
AcDbMText
 10
7.999842519685039
 20
1.767716535433071
 30
0.0
 40
0.0984076433121019
 41
0.0
 71
     4
 72
     1
  1
{\fAlibre Symbols|b0|i0|c0|p0;\C7;0}{\fArial|b0|i0|c0|p0;\C7;}
 73
     1
 44
1.0
  0
MTEXT
  5
2B6
330
254
100
AcDbEntity
  8
CONTINUOUS
100
AcDbMText
 10
12.70401751968504
 20
0.9450765354330707
 30
0.0
 40
0.0765392781316348
 41
0.0
 71
     4
 72
     1
  1
{\fArial|b0|i0|c0|p0;\C7;DWG NO.}{\fArial|b0|i0|c0|p0;\C7;}
 73
     1
 44
1.0
  0
MTEXT
  5
2B7
330
254
100
AcDbEntity
  8
CONTINUOUS
100
AcDbMText
 10
15.10276734359622
 20
0.7920946736974055
 30
0.0
 40
0.0820063694267516
 41
0.0
 71
     4
 72
     1
  1
{\fArial|b0|i0|c0|p0;\C7;0}{\fArial|b0|i0|c0|p0;\C7;}
 73
     1
 44
1.0
  0
MTEXT
  5
2B8
330
254
100
AcDbEntity
  8
CONTINUOUS
100
AcDbMText
 10
7.854842519685039
 20
0.8977165354330708
 30
0.0
 40
0.0820063694267516
 41
0.0
 71
     4
 72
     1
  1
{\fArial|b0|i0|c0|p0;\C7;}
 73
     1
 44
1.0
  0
MTEXT
  5
2B9
330
254
100
AcDbEntity
  8
CONTINUOUS
100
AcDbMText
 10
7.180298043799212
 20
1.75635519553357
 30
0.0
 40
0.0904994727255297
 41
0.0
 71
     4
 72
     1
  3
{\fMicrosoft Sans Serif|b0|i0|c0|p0;\C7;                }{\fMicrosoft Sans Serif|b1|i0|c0|p0;\C7;\H1.125x;  TOLERANCE}{\fMicrosoft Sans Serif|b0|i0|c0|p0;\C7;\P    }{\fArial|b0|i0|c0|p0;\C7;\H1.125x;    DECIMAL:}{\fArial|b0|i0|c0|p0;\C7;\H1.125x;\P F
  1
RACTIONAL:}{\fArial|b0|i0|c0|p0;\C7;\H1.125x;\PANGULARITY:}{\fArial|b0|i0|c0|p0;\C7;\H1.125x;\P            FINISH:}{\fArial|b0|i0|c0|p0;\C7;\H1.125x;}
 73
     1
 44
1.0
  0
MTEXT
  5
2BA
330
254
100
AcDbEntity
  8
CONTINUOUS
100
AcDbMText
 10
7.154842519685039
 20
0.6014160456619882
 30
0.0
 40
0.0904994727255297
 41
0.0
 71
     4
 72
     1
  1
{\fMicrosoft Sans Serif|b1|i0|c0|p0;\C7;JOB NO.:}{\fMS Shell Dlg|b0|i0|c0|p0;\C7;\H1.125x;}
 73
     1
 44
1.0
  0
MTEXT
  5
2BB
330
254
100
AcDbEntity
  8
CONTINUOUS
100
AcDbMText
 10
13.67406705062744
 20
0.5569252017308071
 30
0.0
 40
0.0765392781316348
 41
0.0
 71
     4
 72
     1
  1
{\fArial|b0|i0|c0|p0;\C7;SHEET}{\fArial|b0|i0|c0|p0;\C7;}
 73
     1
 44
1.0
  0
MTEXT
  5
2BC
330
254
100
AcDbEntity
  8
CONTINUOUS
100
AcDbMText
 10
7.159842519685039
 20
0.8977165354330708
 30
0.0
 40
0.0904994727255297
 41
0.0
 71
     4
 72
     1
  1
{\fMicrosoft Sans Serif|b1|i0|c0|p0;\C7;CUSTOMER:}{\fMS Shell Dlg|b0|i0|c0|p0;\C7;\H1.125x;}
 73
     1
 44
1.0
  0
MTEXT
  5
2BD
330
254
100
AcDbEntity
  8
CONTINUOUS
100
AcDbMText
 10
5.775287898506692
 20
1.80250395226666
 30
0.0
 40
0.2583156404812456
 41
0.0
 71
     5
 72
     1
  1
{\fTimes New Roman|b1|i1|c0|p0;\C7;DMW}{\fTimes New Roman|b1|i1|c0|p0;\C7;\P}{\fTimes New Roman|b1|i1|c0|p0;\C7;\H0.3333333x;Davis Machine Works}{\fMS Shell Dlg|b0|i0|c0|p0;\C7;\H0.375x;}
 73
     1
 44
1.0
  0
MTEXT
  5
2BE
330
254
100
AcDbEntity
  8
CONTINUOUS
100
AcDbMText
 10
7.704693050835076
 20
0.6014160456619882
 30
0.0
 40
0.0820063694267516
 41
0.0
 71
     4
 72
     1
  1
{\fArial|b0|i0|c0|p0;\C7;}
 73
     1
 44
1.0
  0
MTEXT
  5
2BF
330
254
100
AcDbEntity
  8
CONTINUOUS
100
AcDbMText
 10
12.59321751968504
 20
9.50167653543307
 30
0.0
 40
0.0765392781316348
 41
0.0
 71
     4
 72
     1
  1
{\fArial|b0|i0|c0|p0;\C7;REVISIONS}{\fArial|b0|i0|c0|p0;\C7;}
 73
     1
 44
1.0
  0
MTEXT
  5
2C0
330
254
100
AcDbEntity
  8
CONTINUOUS
100
AcDbMText
 10
11.22091751968504
 20
0.9450765354330707
 30
0.0
 40
0.0765392781316348
 41
0.0
 71
     4
 72
     1
  1
{\fArial|b0|i0|c0|p0;\C7;SIZE}{\fArial|b0|i0|c0|p0;\C7;}
 73
     1
 44
1.0
  0
MTEXT
  5
2C1
330
254
100
AcDbEntity
  8
CONTINUOUS
100
AcDbMText
 10
12.03659278689404
 20
2.002716535433071
 30
0.0
 40
0.1476114649681529
 41
0.0
 71
     4
 72
     1
  1
{\fArial|b0|i0|c0|p0;\C7;}
 73
     1
 44
1.0
  0
MTEXT
  5
2C2
330
254
100
AcDbEntity
  8
CONTINUOUS
100
AcDbMText
 10
7.999842519685039
 20
1.64771653543307
 30
0.0
 40
0.0984076433121019
 41
0.0
 71
     4
 72
     1
  1
{\fAlibre Symbols|b0|i0|c0|p0;\C7;`}{\fArial|b0|i0|c0|p0;\C7; 1}{\fAlibre Symbols|b0|i0|c0|p0;\C7;_}{\fArial|b0|i0|c0|p0;\C7;}
 73
     1
 44
1.0
  0
MTEXT
  5
2C3
330
254
100
AcDbEntity
  8
CONTINUOUS
100
AcDbMText
 10
5.813818695789251
 20
1.000217996432082
 30
0.0
 40
0.1312101910828025
 41
0.0
 71
     5
 72
     1
  3
{\fTimes New Roman|b1|i0|c0|p0;\C7;Davis  Machine  Works}{\fTimes New Roman|b1|i0|c0|p0;\C7;\Pof  Opelika,  Inc.}{\fTimes New Roman|b1|i0|c0|p0;\C7;\P}{\fArial|b0|i0|c0|p0;\C7;\H0.75x;Machining - Welding - Design - Fabrication}{\fArial|b0|i0|c0|p0;\C
  3
7;\H0.75x;\P1318 Lee Rd 42     P.O. Box 2154}{\fArial|b0|i0|c0|p0;\C7;\H0.75x;\POpelika, AL  36803-2154}{\fArial|b0|i0|c0|p0;\C7;\H0.75x;\PPhone (334) 745-3548   Fax (334) 705-0960}{\fArial|b0|i0|c0|p0;\C7;\H0.75x;\Pdavismachineworks.com}{\fMS Shell 
  1
Dlg|b0|i0|c0|p0;\C7;\H0.75x;}
 73
     1
 44
1.0
  0
MTEXT
  5
2C4
330
254
100
AcDbEntity
  8
CONTINUOUS
100
AcDbMText
 10
-0.0559074803149496
 20
0.0903165354330689
 30
0.0
 40
0.2296178343949045
 41
0.0
 71
     4
 72
     1
  1
{\fArial|b0|i0|c0|p0;\C7;}
 73
     1
 44
1.0
  0
MTEXT
  5
2C5
330
254
100
AcDbEntity
  8
CONTINUOUS
100
AcDbMText
 10
7.999842519685039
 20
1.892716535433071
 30
0.0
 40
0.0984076433121019
 41
0.0
 71
     4
 72
     1
  1
{\fArial|b0|i0|c0|p0;\C7;}
 73
     1
 44
1.0
  0
MTEXT
  5
2C6
330
254
100
AcDbEntity
  8
CONTINUOUS
100
AcDbMText
 10
11.18531751968504
 20
0.5627999481585669
 30
0.0
 40
0.0765392781316348
 41
0.0
 71
     4
 72
     1
  1
{\fArial|b0|i0|c0|p0;\C7;SCALE}{\fArial|b0|i0|c0|p0;\C7;}
 73
     1
 44
1.0
  0
MTEXT
  5
2C7
330
254
100
AcDbEntity
  8
CONTINUOUS
100
AcDbMText
 10
0.8598425196850392
 20
0.9377165354330706
 30
0.0
 40
0.0892671394799054
 41
0.0
 71
     4
 72
     1
  3
{\fArial Narrow|b0|i0|c0|p0;\C7;This drawing and the concepts represented hereon are the exclusive property of the entity named }{\fArial Narrow|b0|i0|c0|p0;\C7;\Pbelow or an affiliate of that entity (the "Owner"). This drawing is provided on the con
  3
dition that it }{\fArial Narrow|b0|i0|c0|p0;\C7;\Pshall not be published, disclosed, reproduced, copied, either in whole or in part or used for making }{\fArial Narrow|b0|i0|c0|p0;\C7;\Pother drawings, apparatus or parts without the prior written app
  3
roval of the Owner in each instance. }{\fArial Narrow|b0|i0|c0|p0;\C7;\PRecipient shall take all reasonable steps to ensure that this document and all concepts represented }{\fArial Narrow|b0|i0|c0|p0;\C7;\Phereon are not disclosed to others. Recipie
  3
nt agrees to return this drawing and all copies to the }{\fArial Narrow|b0|i0|c0|p0;\C7;\POwner upon the Owner's request and to inform the Owner of any persons or firms who have received}{\fArial Narrow|b0|i0|c0|p0;\C7;\Pany copies hereof.}{\fArial N
  1
arrow|b0|i0|c0|p0;\C7;\P}{\fArial Narrow|b0|i0|c0|p0;\C7;}
 73
     1
 44
1.0
  0
MTEXT
  5
2C8
330
254
100
AcDbEntity
  8
CONTINUOUS
100
AcDbMText
 10
11.22484251968503
 20
1.687716535433071
 30
0.0
 40
0.0904994727255297
 41
0.0
 71
     4
 72
     1
  1
{\fMicrosoft Sans Serif|b1|i0|c0|p0;\C7;QTY:}{\fMS Shell Dlg|b0|i0|c0|p0;\C7;\H1.125x;}
 73
     1
 44
1.0
  0
MTEXT
  5
2C9
330
254
100
AcDbEntity
  8
CONTINUOUS
100
AcDbMText
 10
12.28354660394622
 20
1.46071653543307
 30
0.0
 40
0.1312101910828025
 41
0.0
 71
     4
 72
     1
  1
{\fArial|b0|i0|c0|p0;\C7;}
 73
     1
 44
1.0
  0
MTEXT
  5
2CA
330
254
100
AcDbEntity
  8
CONTINUOUS
100
AcDbMText
 10
14.62441751968504
 20
9.259476535433071
 30
0.0
 40
0.0765392781316348
 41
0.0
 71
     4
 72
     1
  1
{\fArial|b0|i0|c0|p0;\C7;APPROVED}{\fArial|b0|i0|c0|p0;\C7;}
 73
     1
 44
1.0
  0
MTEXT
  5
2CB
330
254
100
AcDbEntity
  8
CONTINUOUS
100
AcDbMText
 10
9.179837686625194
 20
0.6573937213283426
 30
0.0
 40
0.0765392781316348
 41
0.0
 71
     4
 72
     1
  1
{\fArial|b0|i0|c0|p0;\C7;APPROVED}{\fArial|b0|i0|c0|p0;\C7;}
 73
     1
 44
1.0
  0
MTEXT
  5
2CC
330
254
100
AcDbEntity
  8
CONTINUOUS
100
AcDbMText
 10
15.08351751968504
 20
0.9450765354330707
 30
0.0
 40
0.0765392781316348
 41
0.0
 71
     4
 72
     1
  1
{\fArial|b0|i0|c0|p0;\C7;REV}{\fArial|b0|i0|c0|p0;\C7;}
 73
     1
 44
1.0
  0
MTEXT
  5
2CD
330
254
100
AcDbEntity
  8
CONTINUOUS
100
AcDbMText
 10
7.234149842750353
 20
1.133651132658712
 30
0.0
 40
0.0765392781316348
 41
0.0
 71
     4
 72
     1
  3
{\fArial|b0|i0|c0|p0;\C7;DRAWING IS NOT APPROVED }{\fArial|b0|i0|c0|p0;\C7;\PFOR PRODUCTION UNLESS "CHECKED" }{\fArial|b0|i0|c0|p0;\C7;\POR "APPROVED" BOX IS INITIALED}{\fArial|b0|i0|c0|p0;\C7;\PBY CUSTOMER OR SALESPERSON}{\fMicrosoft Sans Serif|b0|i
  1
0|c0|p0;\C7;\H1.142857x;\P}{\fMicrosoft Sans Serif|b0|i0|c0|p0;\C7;\H1.142857x;}
 73
     1
 44
1.0
  0
MTEXT
  5
2CE
330
254
100
AcDbEntity
  8
CONTINUOUS
100
AcDbMText
 10
-0.0559074803149496
 20
6.090316535433071
 30
0.0
 40
0.2296178343949045
 41
0.0
 71
     4
 72
     1
  1
{\fArial|b0|i0|c0|p0;\C7;}
 73
     1
 44
1.0
  0
MTEXT
  5
2CF
330
254
100
AcDbEntity
  8
CONTINUOUS
100
AcDbMText
 10
12.18485448642039
 20
1.687716535433071
 30
0.0
 40
0.0904994727255297
 41
0.0
 71
     4
 72
     1
  1
{\fMicrosoft Sans Serif|b1|i0|c0|p0;\C7;DESCRIPTION:}{\fMS Shell Dlg|b0|i0|c0|p0;\C7;\H1.125x;}
 73
     1
 44
1.0
  0
MTEXT
  5
2D0
330
254
100
AcDbEntity
  8
CONTINUOUS
100
AcDbMText
 10
7.999842519685039
 20
1.517716535433071
 30
0.0
 40
0.0984076433121019
 41
0.0
 71
     4
 72
     1
  1
{\fArial|b0|i0|c0|p0;\C7;}
 73
     1
 44
1.0
  0
MTEXT
  5
2D1
330
254
100
AcDbEntity
  8
CONTINUOUS
100
AcDbMText
 10
9.190083903406694
 20
1.355924263897239
 30
0.0
 40
0.0765392781316348
 41
0.0
 71
     4
 72
     1
  1
{\fArial|b0|i0|c0|p0;\C7;QA}{\fArial|b0|i0|c0|p0;\C7;}
 73
     1
 44
1.0
  0
MTEXT
  5
2D2
330
254
100
AcDbEntity
  8
CONTINUOUS
100
AcDbMText
 10
11.55984251968503
 20
0.5177165354330709
 30
0.0
 40
0.0820063694267516
 41
0.0
 71
     4
 72
     1
  1
{\fArial|b0|i0|c0|p0;\C7;}
 73
     1
 44
1.0
  0
MTEXT
  5
2D3
330
254
100
AcDbEntity
  8
CONTINUOUS
100
AcDbMText
 10
10.17960315783583
 20
2.064960542809839
 30
0.0
 40
0.0765392781316348
 41
0.0
 71
     4
 72
     1
  1
{\fArial|b0|i0|c0|p0;\C7;DATE}{\fArial|b0|i0|c0|p0;\C7;}
 73
     1
 44
1.0
  0
MTEXT
  5
2D4
330
254
100
AcDbEntity
  8
CONTINUOUS
100
AcDbMText
 10
12.17442780742496
 20
0.5277165354330709
 30
0.0
 40
0.0904994727255297
 41
0.0
 71
     4
 72
     1
  1
{\fMicrosoft Sans Serif|b0|i0|c0|p0;\C7;MAT'L:}{\fMS Shell Dlg|b0|i0|c0|p0;\C7;\H1.125x;}
 73
     1
 44
1.0
  0
ENDBLK
  5
256
330
254
100
AcDbEntity
  8
0
100
AcDbBlockEnd
  0
BLOCK
  5
319
330
30E
100
AcDbEntity
  8
0
100
AcDbBlockBegin
  2
*D3
 70
     1
 10
0.0
 20
0.0
 30
0.0
  3
*D3
  1

  0
LINE
  5
327
330
30E
100
AcDbEntity
  8
0
 62
     0
370
    -2
100
AcDbLine
 10
2.763719022293216
 20
48.93531826132371
 30
0.0
 11
-2.827371270495645
 21
48.93531826132371
 31
0.0
  0
LINE
  5
328
330
30E
100
AcDbEntity
  8
0
 62
     0
370
    -2
100
AcDbLine
 10
2.763719022293216
 20
1.185318261323718
 30
0.0
 11
-2.827371270495655
 21
1.18531826132372
 31
0.0
  0
LINE
  5
329
330
30E
100
AcDbEntity
  8
0
 62
     0
370
    -2
100
AcDbLine
 10
-2.647371270495646
 20
48.87531826132371
 30
0.0
 11
-2.64737127049565
 21
25.65031826132371
 31
0.0
  0
LINE
  5
32A
330
30E
100
AcDbEntity
  8
0
 62
     0
370
    -2
100
AcDbLine
 10
-2.647371270495656
 20
1.24531826132372
 30
0.0
 11
-2.647371270495651
 21
24.47031826132371
 31
0.0
  0
SOLID
  5
32B
330
30E
100
AcDbEntity
  8
0
 62
     0
100
AcDbTrace
 10
-2.657371270495645
 20
48.87531826132371
 30
0.0
 11
-2.637371270495646
 21
48.87531826132371
 31
0.0
 12
-2.647371270495646
 22
48.93531826132371
 32
0.0
 13
-2.647371270495646
 23
48.93531826132371
 33
0.0
  0
SOLID
  5
32C
330
30E
100
AcDbEntity
  8
0
 62
     0
100
AcDbTrace
 10
-2.657371270495656
 20
1.24531826132372
 30
0.0
 11
-2.637371270495656
 21
1.24531826132372
 31
0.0
 12
-2.647371270495656
 22
1.18531826132372
 32
0.0
 13
-2.647371270495656
 23
1.18531826132372
 33
0.0
  0
MTEXT
  5
32D
330
30E
100
AcDbEntity
  8
0
 62
     0
100
AcDbMText
 10
-2.647371270495655
 20
25.06031826132371
 30
0.0
 40
1.0
 41
0.0
 71
     5
 72
     1
  1
\A1;47.7500
 73
     1
 44
1.0
  0
POINT
  5
32E
330
30E
100
AcDbEntity
  8
Defpoints
 62
     0
100
AcDbPoint
 10
2.826219022293216
 20
48.93531826132371
 30
0.0
  0
POINT
  5
32F
330
30E
100
AcDbEntity
  8
Defpoints
 62
     0
100
AcDbPoint
 10
2.826219022293216
 20
1.185318261323718
 30
0.0
  0
POINT
  5
330
330
30E
100
AcDbEntity
  8
Defpoints
 62
     0
100
AcDbPoint
 10
-2.647371270495656
 20
1.18531826132372
 30
0.0
  0
ENDBLK
  5
31A
330
30E
100
AcDbEntity
  8
0
100
AcDbBlockEnd
  0
BLOCK
  5
33D
330
332
100
AcDbEntity
  8
0
100
AcDbBlockBegin
  2
*D4
 70
     1
 10
0.0
 20
0.0
 30
0.0
  3
*D4
  1

  0
LINE
  5
355
330
332
100
AcDbEntity
  8
0
 62
     0
370
    -2
100
AcDbLine
 10
2.763719022293216
 20
49.18531826132372
 30
0.0
 11
-5.096591047470907
 21
49.18531826132372
 31
0.0
  0
LINE
  5
356
330
332
100
AcDbEntity
  8
0
 62
     0
370
    -2
100
AcDbLine
 10
2.763719022293231
 20
1.185318261323718
 30
0.0
 11
-5.096591047470917
 21
1.18531826132372
 31
0.0
  0
LINE
  5
357
330
332
100
AcDbEntity
  8
0
 62
     0
370
    -2
100
AcDbLine
 10
-4.916591047470907
 20
49.12531826132371
 30
0.0
 11
-4.916591047470912
 21
25.77531826132371
 31
0.0
  0
LINE
  5
358
330
332
100
AcDbEntity
  8
0
 62
     0
370
    -2
100
AcDbLine
 10
-4.916591047470918
 20
1.245318261323721
 30
0.0
 11
-4.916591047470912
 21
24.59531826132371
 31
0.0
  0
SOLID
  5
359
330
332
100
AcDbEntity
  8
0
 62
     0
100
AcDbTrace
 10
-4.926591047470907
 20
49.12531826132371
 30
0.0
 11
-4.906591047470907
 21
49.12531826132371
 31
0.0
 12
-4.916591047470907
 22
49.18531826132372
 32
0.0
 13
-4.916591047470907
 23
49.18531826132372
 33
0.0
  0
SOLID
  5
35A
330
332
100
AcDbEntity
  8
0
 62
     0
100
AcDbTrace
 10
-4.926591047470918
 20
1.245318261323721
 30
0.0
 11
-4.906591047470918
 21
1.245318261323721
 31
0.0
 12
-4.916591047470918
 22
1.18531826132372
 32
0.0
 13
-4.916591047470918
 23
1.18531826132372
 33
0.0
  0
MTEXT
  5
35B
330
332
100
AcDbEntity
  8
0
 62
     0
100
AcDbMText
 10
-4.916591047470916
 20
25.18531826132371
 30
0.0
 40
1.0
 41
0.0
 71
     5
 72
     1
  1
\A1;48.0000
 73
     1
 44
1.0
  0
POINT
  5
35C
330
332
100
AcDbEntity
  8
Defpoints
 62
     0
100
AcDbPoint
 10
2.826219022293216
 20
49.18531826132372
 30
0.0
  0
POINT
  5
35D
330
332
100
AcDbEntity
  8
Defpoints
 62
     0
100
AcDbPoint
 10
2.826219022293231
 20
1.185318261323718
 30
0.0
  0
POINT
  5
35E
330
332
100
AcDbEntity
  8
Defpoints
 62
     0
100
AcDbPoint
 10
-4.916591047470918
 20
1.18531826132372
 30
0.0
  0
ENDBLK
  5
33E
330
332
100
AcDbEntity
  8
0
100
AcDbBlockEnd
  0
BLOCK
  5
36B
330
360
100
AcDbEntity
  8
0
100
AcDbBlockBegin
  2
*D5
 70
     1
 10
0.0
 20
0.0
 30
0.0
  3
*D5
  1

  0
LINE
  5
379
330
360
100
AcDbEntity
  8
0
 62
     0
370
    -2
100
AcDbLine
 10
2.826219022293216
 20
49.24781826132371
 30
0.0
 11
2.826219022293216
 21
54.02785040419422
 31
0.0
  0
LINE
  5
37A
330
360
100
AcDbEntity
  8
0
 62
     0
370
    -2
100
AcDbLine
 10
98.82621902229313
 20
49.24781826132371
 30
0.0
 11
98.82621902229313
 21
54.02785040419422
 31
0.0
  0
LINE
  5
37B
330
360
100
AcDbEntity
  8
0
 62
     0
370
    -2
100
AcDbLine
 10
2.886219022293216
 20
53.84785040419422
 30
0.0
 11
48.0695523556265
 21
53.84785040419422
 31
0.0
  0
LINE
  5
37C
330
360
100
AcDbEntity
  8
0
 62
     0
370
    -2
100
AcDbLine
 10
98.76621902229313
 20
53.84785040419422
 30
0.0
 11
53.58288568895984
 21
53.84785040419422
 31
0.0
  0
SOLID
  5
37D
330
360
100
AcDbEntity
  8
0
 62
     0
100
AcDbTrace
 10
2.886219022293216
 20
53.85785040419421
 30
0.0
 11
2.886219022293216
 21
53.83785040419422
 31
0.0
 12
2.826219022293216
 22
53.84785040419422
 32
0.0
 13
2.826219022293216
 23
53.84785040419422
 33
0.0
  0
SOLID
  5
37E
330
360
100
AcDbEntity
  8
0
 62
     0
100
AcDbTrace
 10
98.76621902229313
 20
53.85785040419421
 30
0.0
 11
98.76621902229313
 21
53.83785040419422
 31
0.0
 12
98.82621902229313
 22
53.84785040419422
 32
0.0
 13
98.82621902229313
 23
53.84785040419422
 33
0.0
  0
MTEXT
  5
37F
330
360
100
AcDbEntity
  8
0
 62
     0
100
AcDbMText
 10
50.82621902229317
 20
53.84785040419422
 30
0.0
 40
1.0
 41
0.0
 71
     5
 72
     1
  1
\A1;96.0000
 73
     1
 44
1.0
  0
POINT
  5
380
330
360
100
AcDbEntity
  8
Defpoints
 62
     0
100
AcDbPoint
 10
2.826219022293216
 20
49.18531826132372
 30
0.0
  0
POINT
  5
381
330
360
100
AcDbEntity
  8
Defpoints
 62
     0
100
AcDbPoint
 10
98.82621902229313
 20
49.18531826132372
 30
0.0
  0
POINT
  5
382
330
360
100
AcDbEntity
  8
Defpoints
 62
     0
100
AcDbPoint
 10
98.82621902229313
 20
53.84785040419422
 30
0.0
  0
ENDBLK
  5
36C
330
360
100
AcDbEntity
  8
0
100
AcDbBlockEnd
  0
ENDSEC
  0
SECTION
  2
ENTITIES
  0
LINE
  5
40
330
1F
100
AcDbEntity
  8
VISIBLE
100
AcDbLine
 10
36.1855940222932
 20
43.43531826132371
 30
0.0
 11
35.4355940222932
 21
43.43531826132371
 31
0.0
  0
LINE
  5
41
330
1F
100
AcDbEntity
  8
VISIBLE
100
AcDbLine
 10
3.732469022293196
 20
35.56069326132372
 30
0.0
 11
3.732469022293196
 21
31.13806826132371
 31
0.0
  0
LINE
  5
42
330
1F
100
AcDbEntity
  8
VISIBLE
100
AcDbLine
 10
40.4980940222932
 20
27.65406826132372
 30
0.0
 11
39.74809402229318
 21
27.65406826132372
 31
0.0
  0
LINE
  5
43
330
1F
100
AcDbEntity
  8
VISIBLE
100
AcDbLine
 10
36.1855940222932
 20
39.06031826132371
 30
0.0
 11
36.1855940222932
 21
35.52906826132373
 31
0.0
  0
LINE
  5
44
330
1F
100
AcDbEntity
  8
VISIBLE
100
AcDbLine
 10
3.076219022293196
 20
27.67006826132372
 30
0.0
 11
3.076219022293196
 21
31.13806826132371
 31
0.0
  0
LINE
  5
45
330
1F
100
AcDbEntity
  8
VISIBLE
100
AcDbLine
 10
51.20121902229319
 20
31.13806826132371
 30
0.0
 11
50.5449690222932
 21
31.13806826132371
 31
0.0
  0
LINE
  5
46
330
1F
100
AcDbEntity
  8
VISIBLE
100
AcDbLine
 10
50.5449690222932
 20
31.13806826132371
 30
0.0
 11
50.5449690222932
 21
35.56069326132372
 31
0.0
  0
LINE
  5
47
330
1F
100
AcDbEntity
  8
VISIBLE
100
AcDbLine
 10
47.51371902229318
 20
26.13844326132372
 30
0.0
 11
43.5137190222932
 21
26.13844326132372
 31
0.0
  0
LINE
  5
48
330
1F
100
AcDbEntity
  8
VISIBLE
100
AcDbLine
 10
40.4980940222932
 20
31.1696932613237
 30
0.0
 11
40.4980940222932
 21
27.65406826132372
 31
0.0
  0
LINE
  5
49
330
1F
100
AcDbEntity
  8
VISIBLE
100
AcDbLine
 10
3.076219022293196
 20
35.56069326132372
 30
0.0
 11
3.732469022293196
 21
35.56069326132372
 31
0.0
  0
LINE
  5
4A
330
1F
100
AcDbEntity
  8
VISIBLE
100
AcDbLine
 10
36.1855940222932
 20
46.93531826132371
 30
0.0
 11
36.1855940222932
 21
43.43531826132371
 31
0.0
  0
LINE
  5
4B
330
1F
100
AcDbEntity
  8
VISIBLE
100
AcDbLine
 10
3.732469022293196
 20
31.13806826132371
 30
0.0
 11
3.076219022293196
 21
31.13806826132371
 31
0.0
  0
LINE
  5
4C
330
1F
100
AcDbEntity
  8
VISIBLE
100
AcDbLine
 10
51.20121902229319
 20
39.02869326132371
 30
0.0
 11
51.20121902229319
 21
35.56069326132372
 31
0.0
  0
LINE
  5
4D
330
1F
100
AcDbEntity
  8
VISIBLE
100
AcDbLine
 10
40.4980940222932
 20
39.06031826132371
 30
0.0
 11
40.4980940222932
 21
35.52906826132373
 31
0.0
  0
LINE
  5
4E
330
1F
100
AcDbEntity
  8
VISIBLE
100
AcDbLine
 10
3.732469022293196
 20
48.93531826132371
 30
0.0
 11
3.732469022293196
 21
46.9193182613237
 31
0.0
  0
LINE
  5
4F
330
1F
100
AcDbEntity
  8
VISIBLE
100
AcDbLine
 10
47.51371902229318
 20
26.88844326132372
 30
0.0
 11
47.51371902229318
 21
26.13844326132372
 31
0.0
  0
LINE
  5
50
330
1F
100
AcDbEntity
  8
VISIBLE
100
AcDbLine
 10
39.74809402229318
 20
31.1696932613237
 30
0.0
 11
40.4980940222932
 21
31.1696932613237
 31
0.0
  0
LINE
  5
51
330
1F
100
AcDbEntity
  8
VISIBLE
100
AcDbLine
 10
3.732469022293196
 20
48.93531826132371
 30
0.0
 11
50.5449690222932
 21
48.93531826132371
 31
0.0
  0
LINE
  5
52
330
1F
100
AcDbEntity
  8
VISIBLE
100
AcDbLine
 10
3.732469022293196
 20
25.65406826132372
 30
0.0
 11
50.5449690222932
 21
25.65406826132372
 31
0.0
  0
LINE
  5
53
330
1F
100
AcDbEntity
  8
VISIBLE
100
AcDbLine
 10
3.076219022293196
 20
27.67006826132372
 30
0.0
 11
3.732469022293196
 21
27.67006826132372
 31
0.0
  0
LINE
  5
54
330
1F
100
AcDbEntity
  8
VISIBLE
100
AcDbLine
 10
35.4355940222932
 20
39.06031826132371
 30
0.0
 11
36.1855940222932
 21
39.06031826132371
 31
0.0
  0
LINE
  5
55
330
1F
100
AcDbEntity
  8
VISIBLE
100
AcDbLine
 10
39.74809402229318
 20
27.65406826132372
 30
0.0
 11
39.74809402229318
 21
31.1696932613237
 31
0.0
  0
LINE
  5
56
330
1F
100
AcDbEntity
  8
VISIBLE
100
AcDbLine
 10
3.732469022293196
 20
46.9193182613237
 30
0.0
 11
3.076219022293196
 21
46.9193182613237
 31
0.0
  0
LINE
  5
57
330
1F
100
AcDbEntity
  8
VISIBLE
100
AcDbLine
 10
50.5449690222932
 20
27.67006826132372
 30
0.0
 11
51.20121902229319
 21
27.67006826132372
 31
0.0
  0
LINE
  5
58
330
1F
100
AcDbEntity
  8
VISIBLE
100
AcDbLine
 10
40.4980940222932
 20
35.52906826132373
 30
0.0
 11
39.74809402229318
 21
35.52906826132373
 31
0.0
  0
LINE
  5
59
330
1F
100
AcDbEntity
  8
VISIBLE
100
AcDbLine
 10
51.20121902229319
 20
39.02869326132371
 30
0.0
 11
50.5449690222932
 21
39.02869326132371
 31
0.0
  0
LINE
  5
5A
330
1F
100
AcDbEntity
  8
VISIBLE
100
AcDbLine
 10
3.732469022293196
 20
39.02869326132371
 30
0.0
 11
3.076219022293196
 21
39.02869326132371
 31
0.0
  0
LINE
  5
5B
330
1F
100
AcDbEntity
  8
VISIBLE
100
AcDbLine
 10
3.076219022293196
 20
43.45131826132372
 30
0.0
 11
3.076219022293196
 21
46.9193182613237
 31
0.0
  0
LINE
  5
5C
330
1F
100
AcDbEntity
  8
VISIBLE
100
AcDbLine
 10
50.5449690222932
 20
43.45131826132372
 30
0.0
 11
51.20121902229319
 21
43.45131826132372
 31
0.0
  0
LINE
  5
5D
330
1F
100
AcDbEntity
  8
VISIBLE
100
AcDbLine
 10
50.5449690222932
 20
35.56069326132372
 30
0.0
 11
51.20121902229319
 21
35.56069326132372
 31
0.0
  0
LINE
  5
5E
330
1F
100
AcDbEntity
  8
VISIBLE
100
AcDbLine
 10
3.076219022293196
 20
43.45131826132372
 30
0.0
 11
3.732469022293196
 21
43.45131826132372
 31
0.0
  0
LINE
  5
5F
330
1F
100
AcDbEntity
  8
VISIBLE
100
AcDbLine
 10
35.4355940222932
 20
46.93531826132371
 30
0.0
 11
36.1855940222932
 21
46.93531826132371
 31
0.0
  0
LINE
  5
60
330
1F
100
AcDbEntity
  8
VISIBLE
100
AcDbLine
 10
50.5449690222932
 20
46.9193182613237
 30
0.0
 11
50.5449690222932
 21
48.93531826132371
 31
0.0
  0
LINE
  5
61
330
1F
100
AcDbEntity
  8
VISIBLE
100
AcDbLine
 10
50.5449690222932
 20
25.65406826132372
 30
0.0
 11
50.5449690222932
 21
27.67006826132372
 31
0.0
  0
LINE
  5
62
330
1F
100
AcDbEntity
  8
VISIBLE
100
AcDbLine
 10
43.5137190222932
 20
26.88844326132372
 30
0.0
 11
47.51371902229318
 21
26.88844326132372
 31
0.0
  0
LINE
  5
63
330
1F
100
AcDbEntity
  8
VISIBLE
100
AcDbLine
 10
39.74809402229318
 20
39.06031826132371
 30
0.0
 11
40.4980940222932
 21
39.06031826132371
 31
0.0
  0
LINE
  5
64
330
1F
100
AcDbEntity
  8
VISIBLE
100
AcDbLine
 10
36.1855940222932
 20
35.52906826132373
 30
0.0
 11
35.4355940222932
 21
35.52906826132373
 31
0.0
  0
LINE
  5
65
330
1F
100
AcDbEntity
  8
VISIBLE
100
AcDbLine
 10
51.20121902229319
 20
46.9193182613237
 30
0.0
 11
51.20121902229319
 21
43.45131826132372
 31
0.0
  0
LINE
  5
66
330
1F
100
AcDbEntity
  8
VISIBLE
100
AcDbLine
 10
3.732469022293196
 20
27.67006826132372
 30
0.0
 11
3.732469022293196
 21
25.65406826132372
 31
0.0
  0
LINE
  5
67
330
1F
100
AcDbEntity
  8
VISIBLE
100
AcDbLine
 10
50.5449690222932
 20
39.02869326132371
 30
0.0
 11
50.5449690222932
 21
43.45131826132372
 31
0.0
  0
LINE
  5
68
330
1F
100
AcDbEntity
  8
VISIBLE
100
AcDbLine
 10
51.20121902229319
 20
31.13806826132371
 30
0.0
 11
51.20121902229319
 21
27.67006826132372
 31
0.0
  0
LINE
  5
69
330
1F
100
AcDbEntity
  8
VISIBLE
100
AcDbLine
 10
39.74809402229318
 20
35.52906826132373
 30
0.0
 11
39.74809402229318
 21
39.06031826132371
 31
0.0
  0
LINE
  5
6A
330
1F
100
AcDbEntity
  8
VISIBLE
100
AcDbLine
 10
3.732469022293196
 20
43.45131826132372
 30
0.0
 11
3.732469022293196
 21
39.02869326132371
 31
0.0
  0
LINE
  5
6B
330
1F
100
AcDbEntity
  8
VISIBLE
100
AcDbLine
 10
35.4355940222932
 20
35.52906826132373
 30
0.0
 11
35.4355940222932
 21
39.06031826132371
 31
0.0
  0
LINE
  5
6C
330
1F
100
AcDbEntity
  8
VISIBLE
100
AcDbLine
 10
43.5137190222932
 20
26.13844326132372
 30
0.0
 11
43.5137190222932
 21
26.88844326132372
 31
0.0
  0
LINE
  5
6D
330
1F
100
AcDbEntity
  8
VISIBLE
100
AcDbLine
 10
51.20121902229319
 20
46.9193182613237
 30
0.0
 11
50.5449690222932
 21
46.9193182613237
 31
0.0
  0
LINE
  5
6E
330
1F
100
AcDbEntity
  8
VISIBLE
100
AcDbLine
 10
35.4355940222932
 20
43.43531826132371
 30
0.0
 11
35.4355940222932
 21
46.93531826132371
 31
0.0
  0
LINE
  5
6F
330
1F
100
AcDbEntity
  8
VISIBLE
100
AcDbLine
 10
3.076219022293196
 20
35.56069326132372
 30
0.0
 11
3.076219022293196
 21
39.02869326132371
 31
0.0
  0
LINE
  5
71
330
1F
100
AcDbEntity
  8
CONTINUOUS
100
AcDbLine
 10
2.826219022293216
 20
49.18531826132372
 30
0.0
 11
2.826219022293216
 21
1.185318261323718
 31
0.0
  0
LINE
  5
72
102
{ACAD_REACTORS
330
34A
102
}
330
1F
100
AcDbEntity
  8
CONTINUOUS
100
AcDbLine
 10
2.826219022293216
 20
1.185318261323718
 30
0.0
 11
98.82621902229313
 21
1.185318261323749
 31
0.0
  0
LINE
  5
73
330
1F
100
AcDbEntity
  8
CONTINUOUS
100
AcDbLine
 10
98.82621902229313
 20
1.185318261323749
 30
0.0
 11
98.82621902229313
 21
49.18531826132372
 31
0.0
  0
LINE
  5
74
102
{ACAD_REACTORS
330
34A
330
378
102
}
330
1F
100
AcDbEntity
  8
CONTINUOUS
100
AcDbLine
 10
98.82621902229313
 20
49.18531826132372
 30
0.0
 11
2.826219022293216
 21
49.18531826132372
 31
0.0
  0
LINE
  5
75
330
1F
100
AcDbEntity
  8
VISIBLE
100
AcDbLine
 10
5.368078236054405
 20
25.314067598107
 30
0.0
 11
5.368078236054405
 21
23.29806759810839
 31
0.0
  0
LINE
  5
76
330
1F
100
AcDbEntity
  8
VISIBLE
100
AcDbLine
 10
19.74307823605407
 20
11.93944259810796
 30
0.0
 11
20.33682823605445
 21
11.93944259810796
 31
0.0
  0
LINE
  5
77
330
1F
100
AcDbEntity
  8
VISIBLE
100
AcDbLine
 10
19.74307823605407
 20
8.06406759810703
 30
0.0
 11
19.74307823605407
 21
11.93944259810796
 31
0.0
  0
LINE
  5
78
330
1F
100
AcDbEntity
  8
VISIBLE
100
AcDbLine
 10
4.774328236054453
 20
23.29806759810839
 30
0.0
 11
4.774328236054453
 21
19.83006759810839
 31
0.0
  0
LINE
  5
79
330
1F
100
AcDbEntity
  8
VISIBLE
100
AcDbLine
 10
19.74307823605407
 20
23.29806759810796
 30
0.0
 11
19.74307823605407
 21
25.314067598107
 31
0.0
  0
LINE
  5
7A
330
1F
100
AcDbEntity
  8
VISIBLE
100
AcDbLine
 10
4.774328236054453
 20
15.40744259810836
 30
0.0
 11
4.774328236054453
 21
11.93944259810837
 31
0.0
  0
LINE
  5
7B
330
1F
100
AcDbEntity
  8
VISIBLE
100
AcDbLine
 10
4.774328236054453
 20
19.83006759810839
 30
0.0
 11
5.368078236054405
 21
19.83006759810839
 31
0.0
  0
LINE
  5
7C
330
1F
100
AcDbEntity
  8
VISIBLE
100
AcDbLine
 10
5.368078236054405
 20
8.06406759810703
 30
0.0
 11
19.74307823605407
 21
8.06406759810703
 31
0.0
  0
LINE
  5
7D
330
1F
100
AcDbEntity
  8
VISIBLE
100
AcDbLine
 10
20.33682823605445
 20
23.29806759810796
 30
0.0
 11
20.33682823605445
 21
19.83006759810796
 31
0.0
  0
LINE
  5
7E
330
1F
100
AcDbEntity
  8
VISIBLE
100
AcDbLine
 10
5.368078236054405
 20
23.29806759810839
 30
0.0
 11
4.774328236054453
 21
23.29806759810839
 31
0.0
  0
LINE
  5
7F
330
1F
100
AcDbEntity
  8
VISIBLE
100
AcDbLine
 10
20.33682823605445
 20
15.40744259810796
 30
0.0
 11
19.74307823605407
 21
15.40744259810796
 31
0.0
  0
LINE
  5
80
330
1F
100
AcDbEntity
  8
VISIBLE
100
AcDbLine
 10
5.368078236054405
 20
15.40744259810836
 30
0.0
 11
4.774328236054453
 21
15.40744259810836
 31
0.0
  0
LINE
  5
81
330
1F
100
AcDbEntity
  8
VISIBLE
100
AcDbLine
 10
20.33682823605445
 20
23.29806759810796
 30
0.0
 11
19.74307823605407
 21
23.29806759810796
 31
0.0
  0
LINE
  5
82
330
1F
100
AcDbEntity
  8
VISIBLE
100
AcDbLine
 10
20.33682823605445
 20
15.40744259810796
 30
0.0
 11
20.33682823605445
 21
11.93944259810796
 31
0.0
  0
LINE
  5
83
330
1F
100
AcDbEntity
  8
VISIBLE
100
AcDbLine
 10
19.74307823605407
 20
15.40744259810796
 30
0.0
 11
19.74307823605407
 21
19.83006759810796
 31
0.0
  0
LINE
  5
84
330
1F
100
AcDbEntity
  8
VISIBLE
100
AcDbLine
 10
19.74307823605407
 20
19.83006759810796
 30
0.0
 11
20.33682823605445
 21
19.83006759810796
 31
0.0
  0
LINE
  5
85
330
1F
100
AcDbEntity
  8
VISIBLE
100
AcDbLine
 10
4.774328236054453
 20
11.93944259810837
 30
0.0
 11
5.368078236054405
 21
11.93944259810837
 31
0.0
  0
LINE
  5
86
330
1F
100
AcDbEntity
  8
VISIBLE
100
AcDbLine
 10
5.368078236054405
 20
25.314067598107
 30
0.0
 11
19.74307823605407
 21
25.314067598107
 31
0.0
  0
LINE
  5
87
330
1F
100
AcDbEntity
  8
VISIBLE
100
AcDbLine
 10
5.368078236054405
 20
19.83006759810839
 30
0.0
 11
5.368078236054405
 21
15.40744259810836
 31
0.0
  0
LINE
  5
88
330
1F
100
AcDbEntity
  8
VISIBLE
100
AcDbLine
 10
5.368078236054405
 20
11.93944259810837
 30
0.0
 11
5.368078236054405
 21
8.06406759810703
 31
0.0
  0
LINE
  5
89
330
1F
100
AcDbEntity
  8
VISIBLE
100
AcDbLine
 10
21.42721312489126
 20
25.30326870077693
 30
0.0
 11
21.42721312489126
 21
23.28726870077831
 31
0.0
  0
LINE
  5
8A
330
1F
100
AcDbEntity
  8
VISIBLE
100
AcDbLine
 10
35.80221312489094
 20
11.92864370077787
 30
0.0
 11
36.39596312489133
 21
11.92864370077787
 31
0.0
  0
LINE
  5
8B
330
1F
100
AcDbEntity
  8
VISIBLE
100
AcDbLine
 10
35.80221312489094
 20
8.053268700776929
 30
0.0
 11
35.80221312489094
 21
11.92864370077787
 31
0.0
  0
LINE
  5
8C
330
1F
100
AcDbEntity
  8
VISIBLE
100
AcDbLine
 10
20.83346312489129
 20
23.28726870077831
 30
0.0
 11
20.83346312489129
 21
19.8192687007783
 31
0.0
  0
LINE
  5
8D
330
1F
100
AcDbEntity
  8
VISIBLE
100
AcDbLine
 10
35.80221312489094
 20
23.28726870077788
 30
0.0
 11
35.80221312489094
 21
25.30326870077693
 31
0.0
  0
LINE
  5
8E
330
1F
100
AcDbEntity
  8
VISIBLE
100
AcDbLine
 10
20.83346312489129
 20
15.39664370077829
 30
0.0
 11
20.83346312489129
 21
11.9286437007783
 31
0.0
  0
LINE
  5
8F
330
1F
100
AcDbEntity
  8
VISIBLE
100
AcDbLine
 10
20.83346312489129
 20
19.8192687007783
 30
0.0
 11
21.42721312489126
 21
19.8192687007783
 31
0.0
  0
LINE
  5
90
330
1F
100
AcDbEntity
  8
VISIBLE
100
AcDbLine
 10
21.42721312489126
 20
8.053268700776929
 30
0.0
 11
35.80221312489094
 21
8.053268700776929
 31
0.0
  0
LINE
  5
91
330
1F
100
AcDbEntity
  8
VISIBLE
100
AcDbLine
 10
36.39596312489133
 20
23.28726870077788
 30
0.0
 11
36.39596312489133
 21
19.81926870077788
 31
0.0
  0
LINE
  5
92
330
1F
100
AcDbEntity
  8
VISIBLE
100
AcDbLine
 10
21.42721312489126
 20
23.28726870077831
 30
0.0
 11
20.83346312489129
 21
23.28726870077831
 31
0.0
  0
LINE
  5
93
330
1F
100
AcDbEntity
  8
VISIBLE
100
AcDbLine
 10
36.39596312489133
 20
15.39664370077789
 30
0.0
 11
35.80221312489094
 21
15.39664370077789
 31
0.0
  0
LINE
  5
94
330
1F
100
AcDbEntity
  8
VISIBLE
100
AcDbLine
 10
21.42721312489126
 20
15.39664370077829
 30
0.0
 11
20.83346312489129
 21
15.39664370077829
 31
0.0
  0
LINE
  5
95
330
1F
100
AcDbEntity
  8
VISIBLE
100
AcDbLine
 10
36.39596312489133
 20
23.28726870077788
 30
0.0
 11
35.80221312489094
 21
23.28726870077788
 31
0.0
  0
LINE
  5
96
330
1F
100
AcDbEntity
  8
VISIBLE
100
AcDbLine
 10
36.39596312489133
 20
15.39664370077789
 30
0.0
 11
36.39596312489133
 21
11.92864370077787
 31
0.0
  0
LINE
  5
97
330
1F
100
AcDbEntity
  8
VISIBLE
100
AcDbLine
 10
35.80221312489094
 20
15.39664370077789
 30
0.0
 11
35.80221312489094
 21
19.81926870077788
 31
0.0
  0
LINE
  5
98
330
1F
100
AcDbEntity
  8
VISIBLE
100
AcDbLine
 10
35.80221312489094
 20
19.81926870077788
 30
0.0
 11
36.39596312489133
 21
19.81926870077788
 31
0.0
  0
LINE
  5
99
330
1F
100
AcDbEntity
  8
VISIBLE
100
AcDbLine
 10
20.83346312489129
 20
11.9286437007783
 30
0.0
 11
21.42721312489126
 21
11.9286437007783
 31
0.0
  0
LINE
  5
9A
330
1F
100
AcDbEntity
  8
VISIBLE
100
AcDbLine
 10
21.42721312489126
 20
25.30326870077693
 30
0.0
 11
35.80221312489094
 21
25.30326870077693
 31
0.0
  0
LINE
  5
9B
330
1F
100
AcDbEntity
  8
VISIBLE
100
AcDbLine
 10
21.42721312489126
 20
19.8192687007783
 30
0.0
 11
21.42721312489126
 21
15.39664370077829
 31
0.0
  0
LINE
  5
9C
330
1F
100
AcDbEntity
  8
VISIBLE
100
AcDbLine
 10
21.42721312489126
 20
11.9286437007783
 30
0.0
 11
21.42721312489126
 21
8.053268700776929
 31
0.0
  0
LINE
  5
9D
330
1F
100
AcDbEntity
  8
VISIBLE
100
AcDbLine
 10
93.63567403077217
 20
11.95596779213377
 30
0.0
 11
93.72175552808473
 21
9.732197342653119
 31
0.0
  0
LINE
  5
9E
330
1F
100
AcDbEntity
  8
VISIBLE
100
AcDbLine
 10
98.34398882456692
 20
25.56302348893658
 30
0.0
 11
67.22753927324738
 21
25.56302348893658
 31
0.0
  0
LINE
  5
9F
330
1F
100
AcDbEntity
  8
VISIBLE
100
AcDbLine
 10
85.00595055022927
 20
14.17208598893658
 30
0.0
 11
86.52665334871027
 21
14.60675186632594
 31
0.0
  0
LINE
  5
A0
330
1F
100
AcDbEntity
  8
VISIBLE
100
AcDbLine
 10
72.49316427324735
 20
23.0630234889366
 30
0.0
 11
72.49316427324735
 21
24.31302348893659
 31
0.0
  0
LINE
  5
A1
330
1F
100
AcDbEntity
  8
VISIBLE
100
AcDbLine
 10
85.00595055022927
 20
13.6720859889366
 30
0.0
 11
86.90165334871018
 21
13.6720859889366
 31
0.0
  0
LINE
  5
A2
330
1F
100
AcDbEntity
  8
VISIBLE
100
AcDbLine
 10
93.3207726544359
 20
15.47785392598061
 30
0.0
 11
94.13886726307167
 21
15.71169173518659
 31
0.0
  0
LINE
  5
A3
330
1F
100
AcDbEntity
  8
VISIBLE
100
AcDbLine
 10
95.48642547206702
 20
9.818278839965607
 30
0.0
 11
94.58885757450566
 21
10.71975144737548
 31
0.0
  0
LINE
  5
A4
330
1F
100
AcDbEntity
  8
VISIBLE
100
AcDbLine
 10
93.3207726544359
 20
12.36631805189254
 30
0.0
 11
92.39746191731942
 21
13.9199709912225
 31
0.0
  0
LINE
  5
A5
330
1F
100
AcDbEntity
  8
VISIBLE
100
AcDbLine
 10
88.89906476585931
 20
11.81889689827695
 30
0.0
 11
88.71372217702779
 21
12.14348553801872
 31
0.0
  0
LINE
  5
A6
330
1F
100
AcDbEntity
  8
VISIBLE
100
AcDbLine
 10
89.5212755567123
 20
12.20015529495725
 30
0.0
 11
91.76552770739551
 21
13.77190803237049
 31
0.0
  0
LINE
  5
A7
330
1F
100
AcDbEntity
  8
VISIBLE
100
AcDbLine
 10
94.58885757450566
 20
17.12442053049768
 30
0.0
 11
95.48642547206702
 21
18.02589313790754
 31
0.0
  0
LINE
  5
A8
330
1F
100
AcDbEntity
  8
VISIBLE
100
AcDbLine
 10
93.1096561450335
 20
14.12083810173821
 30
0.0
 11
94.61141952474363
 21
14.32602792813284
 31
0.0
  0
LINE
  5
A9
330
1F
100
AcDbEntity
  8
VISIBLE
100
AcDbLine
 10
94.27303968899416
 20
15.94617693846821
 30
0.0
 11
94.58885757450566
 21
17.12442053049768
 31
0.0
  0
LINE
  5
AA
330
1F
100
AcDbEntity
  8
VISIBLE
100
AcDbLine
 10
72.35253927324738
 20
25.07864848893659
 30
0.0
 11
72.35253927324738
 21
24.32864848893657
 31
0.0
  0
LINE
  5
AB
330
1F
100
AcDbEntity
  8
VISIBLE
100
AcDbLine
 10
97.2431642732473
 20
7.781773488936593
 30
0.0
 11
97.2431642732473
 21
4.281773488936593
 31
0.0
  0
LINE
  5
AC
330
1F
100
AcDbEntity
  8
VISIBLE
100
AcDbLine
 10
73.24316427324737
 20
24.31302348893659
 30
0.0
 11
73.24316427324737
 21
23.0630234889366
 31
0.0
  0
LINE
  5
AD
330
1F
100
AcDbEntity
  8
VISIBLE
100
AcDbLine
 10
88.71372217702779
 20
12.14348553801872
 30
0.0
 11
89.25595735449078
 21
11.65534781581973
 31
0.0
  0
LINE
  5
AE
330
1F
100
AcDbEntity
  8
VISIBLE
100
AcDbLine
 10
67.22753927324738
 20
7.922398488936586
 30
0.0
 11
67.22753927324738
 21
2.281773488936575
 31
0.0
  0
LINE
  5
AF
330
1F
100
AcDbEntity
  8
VISIBLE
100
AcDbLine
 10
88.71372217702779
 20
15.70068643985442
 30
0.0
 11
88.89906476585931
 21
16.0252750795962
 31
0.0
  0
LINE
  5
B0
330
1F
100
AcDbEntity
  8
VISIBLE
100
AcDbLine
 10
94.58885757450566
 20
10.71975144737548
 30
0.0
 11
94.27303968899416
 21
11.89799503940498
 31
0.0
  0
LINE
  5
B1
330
1F
100
AcDbEntity
  8
VISIBLE
100
AcDbLine
 10
71.10253927324729
 20
25.07864848893659
 30
0.0
 11
72.35253927324738
 21
25.07864848893659
 31
0.0
  0
LINE
  5
B2
330
1F
100
AcDbEntity
  8
VISIBLE
100
AcDbLine
 10
98.34398882456692
 20
2.2817734889366
 30
0.0
 11
98.34398882456692
 21
25.56302348893658
 31
0.0
  0
LINE
  5
B3
330
1F
100
AcDbEntity
  8
VISIBLE
100
AcDbLine
 10
95.84480510190555
 20
9.533468013281751
 30
0.0
 11
95.84480510190555
 21
12.92748783744473
 31
0.0
  0
LINE
  5
B4
330
1F
100
AcDbEntity
  8
VISIBLE
100
AcDbLine
 10
67.22753927324738
 20
2.281773488936575
 30
0.0
 11
98.34398882456692
 21
2.2817734889366
 31
0.0
  0
LINE
  5
B5
330
1F
100
AcDbEntity
  8
VISIBLE
100
AcDbLine
 10
94.36822356296426
 20
13.78940065802751
 30
0.0
 11
94.61141952474363
 21
13.51814404974033
 31
0.0
  0
LINE
  5
B6
330
1F
100
AcDbEntity
  8
VISIBLE
100
AcDbLine
 10
93.63567403077217
 20
15.88820418573939
 30
0.0
 11
93.31343907518236
 21
17.07583270138845
 31
0.0
  0
LINE
  5
B7
330
1F
100
AcDbEntity
  8
VISIBLE
100
AcDbLine
 10
86.90165334871018
 20
9.533468013281726
 30
0.0
 11
86.52665334871027
 21
9.158468013281737
 31
0.0
  0
LINE
  5
B8
330
1F
100
AcDbEntity
  8
VISIBLE
100
AcDbLine
 10
72.49316427324735
 20
24.31302348893659
 30
0.0
 11
73.24316427324737
 21
24.31302348893659
 31
0.0
  0
LINE
  5
B9
330
1F
100
AcDbEntity
  8
VISIBLE
100
AcDbLine
 10
93.31343907518236
 20
17.07583270138845
 30
0.0
 11
93.72175552808473
 21
18.11197463522005
 31
0.0
  0
LINE
  5
BA
330
1F
100
AcDbEntity
  8
VISIBLE
100
AcDbLine
 10
95.84480510190555
 20
14.91668414042844
 30
0.0
 11
95.84480510190555
 21
18.31070396459143
 31
0.0
  0
LINE
  5
BB
330
1F
100
AcDbEntity
  8
VISIBLE
100
AcDbLine
 10
97.2431642732473
 20
15.67239848893658
 30
0.0
 11
97.2431642732473
 21
12.17239848893657
 31
0.0
  0
LINE
  5
BC
330
1F
100
AcDbEntity
  8
VISIBLE
100
AcDbLine
 10
89.5212755567123
 20
15.64401668291593
 30
0.0
 11
89.45398036045437
 21
16.11217497440974
 31
0.0
  0
LINE
  5
BD
330
1F
100
AcDbEntity
  8
VISIBLE
100
AcDbLine
 10
93.31343907518236
 20
10.76833927648473
 30
0.0
 11
93.63567403077217
 21
11.95596779213377
 31
0.0
  0
LINE
  5
BE
330
1F
100
AcDbEntity
  8
VISIBLE
100
AcDbLine
 10
93.1096561450335
 20
13.72333387613498
 30
0.0
 11
94.36822356296426
 21
13.78940065802753
 31
0.0
  0
LINE
  5
BF
330
1F
100
AcDbEntity
  8
VISIBLE
100
AcDbLine
 10
94.13886726307167
 20
12.13248024268659
 30
0.0
 11
93.3207726544359
 21
12.36631805189255
 31
0.0
  0
LINE
  5
C0
330
1F
100
AcDbEntity
  8
VISIBLE
100
AcDbLine
 10
90.89541328329826
 20
15.98863266184776
 30
0.0
 11
92.5883496474195
 21
14.91261450863461
 31
0.0
  0
LINE
  5
C1
330
1F
100
AcDbEntity
  8
VISIBLE
100
AcDbLine
 10
96.21980510190567
 20
13.30248783744472
 30
0.0
 11
96.21980510190567
 21
9.158468013281748
 31
0.0
  0
LINE
  5
C2
330
1F
100
AcDbEntity
  8
VISIBLE
100
AcDbLine
 10
94.93924127297665
 20
14.88830571773683
 30
0.0
 11
94.51324171415993
 21
14.9429210313494
 31
0.0
  0
LINE
  5
C3
330
1F
100
AcDbEntity
  8
VISIBLE
100
AcDbLine
 10
95.84480510190555
 20
8.826361232095198
 30
0.0
 11
96.21980510190567
 21
8.451361232095209
 31
0.0
  0
LINE
  5
C4
330
1F
100
AcDbEntity
  8
VISIBLE
100
AcDbLine
 10
87.5589703971007
 20
13.92208598893659
 30
0.0
 11
88.7981667000845
 21
14.54168414042842
 31
0.0
  0
LINE
  5
C5
330
1F
100
AcDbEntity
  8
VISIBLE
100
AcDbLine
 10
96.49316427324741
 20
7.781773488936593
 30
0.0
 11
97.2431642732473
 21
7.781773488936593
 31
0.0
  0
LINE
  5
C6
330
1F
100
AcDbEntity
  8
VISIBLE
100
AcDbLine
 10
96.49316427324741
 20
20.06302348893657
 30
0.0
 11
96.49316427324741
 21
23.56302348893657
 31
0.0
  0
LINE
  5
C7
330
1F
100
AcDbEntity
  8
VISIBLE
100
AcDbLine
 10
88.4326461757274
 20
16.18882416205343
 30
0.0
 11
88.89906476585931
 21
16.35237324451066
 31
0.0
  0
LINE
  5
C8
330
1F
100
AcDbEntity
  8
VISIBLE
100
AcDbLine
 10
91.68658600173673
 20
17.37137068514011
 30
0.0
 11
92.93267563666967
 21
15.5869191328767
 31
0.0
  0
LINE
  5
C9
330
1F
100
AcDbEntity
  8
VISIBLE
100
AcDbLine
 10
93.72175552808473
 20
9.732197342653119
 30
0.0
 11
93.31343907518236
 21
10.76833927648473
 31
0.0
  0
LINE
  5
CA
330
1F
100
AcDbEntity
  8
VISIBLE
100
AcDbLine
 10
71.10253927324729
 20
24.32864848893657
 30
0.0
 11
71.10253927324729
 21
25.07864848893659
 31
0.0
  0
LINE
  5
CB
330
1F
100
AcDbEntity
  8
VISIBLE
100
AcDbLine
 10
72.35253927324738
 20
24.32864848893657
 30
0.0
 11
71.10253927324729
 21
24.32864848893657
 31
0.0
  0
LINE
  5
CC
330
1F
100
AcDbEntity
  8
VISIBLE
100
AcDbLine
 10
94.36822356296426
 20
14.05477131984564
 30
0.0
 11
93.1096561450335
 21
14.12083810173821
 31
0.0
  0
LINE
  5
CD
330
1F
100
AcDbEntity
  8
VISIBLE
100
AcDbLine
 10
93.72175552808473
 20
18.11197463522005
 30
0.0
 11
93.63567403077217
 21
15.88820418573939
 31
0.0
  0
LINE
  5
CE
330
1F
100
AcDbEntity
  8
VISIBLE
100
AcDbLine
 10
97.2431642732473
 20
23.56302348893657
 30
0.0
 11
97.2431642732473
 21
20.06302348893657
 31
0.0
  0
LINE
  5
CF
330
1F
100
AcDbEntity
  8
VISIBLE
100
AcDbLine
 10
95.84480510190555
 20
19.01781074577796
 30
0.0
 11
86.90165334871018
 21
19.01781074577796
 31
0.0
  0
LINE
  5
D0
330
1F
100
AcDbEntity
  8
VISIBLE
100
AcDbLine
 10
91.3688615185171
 20
13.01763896655111
 30
0.0
 11
92.5883496474195
 21
12.93155746923858
 31
0.0
  0
LINE
  5
D1
330
1F
100
AcDbEntity
  8
VISIBLE
100
AcDbLine
 10
96.21980510190567
 20
8.451361232095209
 30
0.0
 11
86.52665334871027
 21
8.451361232095209
 31
0.0
  0
LINE
  5
D2
330
1F
100
AcDbEntity
  8
VISIBLE
100
AcDbLine
 10
94.61141952474363
 20
14.32602792813284
 30
0.0
 11
94.36822356296426
 21
14.05477131984564
 31
0.0
  0
LINE
  5
D3
330
1F
100
AcDbEntity
  8
VISIBLE
100
AcDbLine
 10
95.84480510190555
 20
12.92748783744473
 30
0.0
 11
96.21980510190567
 21
13.30248783744472
 31
0.0
  0
LINE
  5
D4
330
1F
100
AcDbEntity
  8
VISIBLE
100
AcDbLine
 10
94.13886726307167
 20
15.71169173518659
 30
0.0
 11
92.39746191731942
 21
13.92420098665069
 31
0.0
  0
LINE
  5
D5
330
1F
100
AcDbEntity
  8
VISIBLE
100
AcDbLine
 10
88.7981667000845
 20
13.30248783744472
 30
0.0
 11
87.5589703971007
 21
13.92208598893659
 31
0.0
  0
LINE
  5
D6
330
1F
100
AcDbEntity
  8
VISIBLE
100
AcDbLine
 10
91.74188108989651
 20
11.84119252496077
 30
0.0
 11
92.93267563666967
 21
12.25725284499647
 31
0.0
  0
LINE
  5
D7
330
1F
100
AcDbEntity
  8
VISIBLE
100
AcDbLine
 10
95.84480510190555
 20
18.31070396459143
 30
0.0
 11
96.21980510190567
 21
18.68570396459142
 31
0.0
  0
LINE
  5
D8
330
1F
100
AcDbEntity
  8
VISIBLE
100
AcDbLine
 10
96.49316427324741
 20
12.17239848893657
 30
0.0
 11
96.49316427324741
 21
15.67239848893658
 31
0.0
  0
LINE
  5
D9
330
1F
100
AcDbEntity
  8
VISIBLE
100
AcDbLine
 10
92.93267563666967
 20
12.25725284499648
 30
0.0
 11
91.68658600173673
 21
10.47280129273307
 31
0.0
  0
LINE
  5
DA
330
1F
100
AcDbEntity
  8
VISIBLE
100
AcDbLine
 10
88.89906476585931
 20
16.35237324451066
 30
0.0
 11
88.71372217702779
 21
16.67696188425244
 31
0.0
  0
LINE
  5
DB
330
1F
100
AcDbEntity
  8
VISIBLE
100
AcDbLine
 10
92.39746191731942
 20
13.9199709912225
 30
0.0
 11
94.13886726307167
 21
12.13248024268659
 31
0.0
  0
LINE
  5
DC
330
1F
100
AcDbEntity
  8
VISIBLE
100
AcDbLine
 10
86.90165334871018
 20
19.01781074577796
 30
0.0
 11
86.52665334871027
 21
19.39281074577797
 31
0.0
  0
LINE
  5
DD
330
1F
100
AcDbEntity
  8
VISIBLE
100
AcDbLine
 10
86.90165334871018
 20
13.6720859889366
 30
0.0
 11
86.90165334871018
 21
9.533468013281726
 31
0.0
  0
LINE
  5
DE
330
1F
100
AcDbEntity
  8
VISIBLE
100
AcDbLine
 10
95.30554382328505
 20
14.278575586458
 30
0.0
 11
94.78913936184225
 21
13.54031417946377
 31
0.0
  0
LINE
  5
DF
330
1F
100
AcDbEntity
  8
VISIBLE
100
AcDbLine
 10
96.49316427324741
 20
23.56302348893657
 30
0.0
 11
97.2431642732473
 21
23.56302348893657
 31
0.0
  0
LINE
  5
E0
330
1F
100
AcDbEntity
  8
VISIBLE
100
AcDbLine
 10
86.52665334871027
 20
19.39281074577797
 30
0.0
 11
96.21980510190567
 21
19.39281074577797
 31
0.0
  0
LINE
  5
E1
330
1F
100
AcDbEntity
  8
VISIBLE
100
AcDbLine
 10
67.22753927324738
 20
25.56302348893658
 30
0.0
 11
67.22753927324738
 21
19.92239848893659
 31
0.0
  0
LINE
  5
E2
330
1F
100
AcDbEntity
  8
VISIBLE
100
AcDbLine
 10
96.21980510190567
 20
14.54168414042844
 30
0.0
 11
95.84480510190555
 21
14.91668414042844
 31
0.0
  0
LINE
  5
E3
330
1F
100
AcDbEntity
  8
VISIBLE
100
AcDbLine
 10
88.71372217702779
 20
16.67696188425244
 30
0.0
 11
89.25595735449078
 21
16.18882416205343
 31
0.0
  0
LINE
  5
E4
330
1F
100
AcDbEntity
  8
VISIBLE
100
AcDbLine
 10
91.3688615185171
 20
14.82653301132206
 30
0.0
 11
90.89541328329826
 21
15.98863266184776
 31
0.0
  0
LINE
  5
E5
330
1F
100
AcDbEntity
  8
VISIBLE
100
AcDbLine
 10
96.49316427324741
 20
4.281773488936593
 30
0.0
 11
96.49316427324741
 21
7.781773488936593
 31
0.0
  0
LINE
  5
E6
330
1F
100
AcDbEntity
  8
VISIBLE
100
AcDbLine
 10
97.2431642732473
 20
4.281773488936593
 30
0.0
 11
96.49316427324741
 21
4.281773488936593
 31
0.0
  0
LINE
  5
E7
330
1F
100
AcDbEntity
  8
VISIBLE
100
AcDbLine
 10
89.45398036045437
 20
11.73199700346343
 30
0.0
 11
89.5212755567123
 21
12.20015529495725
 31
0.0
  0
LINE
  5
E8
330
1F
100
AcDbEntity
  8
VISIBLE
100
AcDbLine
 10
96.49316427324741
 20
15.67239848893658
 30
0.0
 11
97.2431642732473
 21
15.67239848893658
 31
0.0
  0
LINE
  5
E9
330
1F
100
AcDbEntity
  8
VISIBLE
100
AcDbLine
 10
86.90165334871018
 20
14.17208598893658
 30
0.0
 11
85.00595055022927
 21
14.17208598893658
 31
0.0
  0
LINE
  5
EA
330
1F
100
AcDbEntity
  8
VISIBLE
100
AcDbLine
 10
91.68658600173673
 20
10.47280129273307
 30
0.0
 11
91.74188108989651
 21
11.84119252496077
 31
0.0
  0
LINE
  5
EB
330
1F
100
AcDbEntity
  8
VISIBLE
100
AcDbLine
 10
73.24316427324737
 20
23.0630234889366
 30
0.0
 11
72.49316427324735
 21
23.0630234889366
 31
0.0
  0
LINE
  5
EC
330
1F
100
AcDbEntity
  8
VISIBLE
100
AcDbLine
 10
94.27303968899416
 20
11.89799503940498
 30
0.0
 11
95.48642547206702
 21
9.818278839965607
 31
0.0
  0
LINE
  5
ED
330
1F
100
AcDbEntity
  8
VISIBLE
100
AcDbLine
 10
88.89906476585931
 20
11.49179873336251
 30
0.0
 11
88.4326461757274
 21
11.65534781581973
 31
0.0
  0
LINE
  5
EE
330
1F
100
AcDbEntity
  8
VISIBLE
100
AcDbLine
 10
94.51324171415993
 20
14.9429210313494
 30
0.0
 11
95.14009860065565
 21
15.08848810494616
 31
0.0
  0
LINE
  5
EF
330
1F
100
AcDbEntity
  8
VISIBLE
100
AcDbLine
 10
89.45398036045437
 20
16.11217497440972
 30
0.0
 11
91.76552770739551
 21
14.07226394550268
 31
0.0
  0
LINE
  5
F0
330
1F
100
AcDbEntity
  8
VISIBLE
100
AcDbLine
 10
88.7981667000845
 20
14.54168414042842
 30
0.0
 11
91.30065277900365
 21
13.92208598893659
 31
0.0
  0
LINE
  5
F1
330
1F
100
AcDbEntity
  8
VISIBLE
100
AcDbLine
 10
88.89906476585931
 20
16.0252750795962
 30
0.0
 11
88.4326461757274
 21
16.18882416205343
 31
0.0
  0
LINE
  5
F2
330
1F
100
AcDbEntity
  8
VISIBLE
100
AcDbLine
 10
90.89541328329826
 20
11.85553931602541
 30
0.0
 11
91.3688615185171
 21
13.01763896655111
 31
0.0
  0
LINE
  5
F3
330
1F
100
AcDbEntity
  8
VISIBLE
100
AcDbLine
 10
86.52665334871027
 20
9.158468013281748
 30
0.0
 11
86.52665334871027
 21
13.23742011154723
 31
0.0
  0
LINE
  5
F4
330
1F
100
AcDbEntity
  8
VISIBLE
100
AcDbLine
 10
86.52665334871027
 20
14.60675186632594
 30
0.0
 11
86.52665334871027
 21
18.68570396459142
 31
0.0
  0
LINE
  5
F5
330
1F
100
AcDbEntity
  8
VISIBLE
100
AcDbLine
 10
96.21980510190567
 20
18.68570396459142
 30
0.0
 11
96.21980510190567
 21
14.54168414042844
 31
0.0
  0
LINE
  5
F6
330
1F
100
AcDbEntity
  8
VISIBLE
100
AcDbLine
 10
95.48642547206702
 20
18.02589313790754
 30
0.0
 11
94.27303968899416
 21
15.94617693846821
 31
0.0
  0
LINE
  5
F7
330
1F
100
AcDbEntity
  8
VISIBLE
100
AcDbLine
 10
89.25595735449078
 20
16.18882416205343
 30
0.0
 11
88.71372217702779
 21
15.70068643985442
 31
0.0
  0
LINE
  5
F8
330
1F
100
AcDbEntity
  8
VISIBLE
100
AcDbLine
 10
92.5883496474195
 20
14.91261450863461
 30
0.0
 11
91.3688615185171
 21
14.82653301132206
 31
0.0
  0
LINE
  5
F9
330
1F
100
AcDbEntity
  8
VISIBLE
100
AcDbLine
 10
97.2431642732473
 20
20.06302348893657
 30
0.0
 11
96.49316427324741
 21
20.06302348893657
 31
0.0
  0
LINE
  5
FA
330
1F
100
AcDbEntity
  8
VISIBLE
100
AcDbLine
 10
91.74188108989651
 20
16.00297945291238
 30
0.0
 11
91.68658600173673
 21
17.37137068514011
 31
0.0
  0
LINE
  5
FB
330
1F
100
AcDbEntity
  8
VISIBLE
100
AcDbLine
 10
97.2431642732473
 20
12.17239848893657
 30
0.0
 11
96.49316427324741
 21
12.17239848893657
 31
0.0
  0
ARC
  5
FC
330
1F
100
AcDbEntity
  8
VISIBLE
100
AcDbCircle
 10
61.27753927324736
 20
13.92239848893658
 30
0.0
 40
8.450000000000008
100
AcDbArc
 50
314.7602701039192
 51
45.23972989608076
  0
LINE
  5
FD
330
1F
100
AcDbEntity
  8
VISIBLE
100
AcDbLine
 10
86.52665334871027
 20
18.68570396459142
 30
0.0
 11
86.90165334871018
 21
18.31070396459141
 31
0.0
  0
LINE
  5
FE
330
1F
100
AcDbEntity
  8
VISIBLE
100
AcDbLine
 10
91.30065277900365
 20
13.92208598893659
 30
0.0
 11
88.7981667000845
 21
13.30248783744472
 31
0.0
  0
LINE
  5
FF
330
1F
100
AcDbEntity
  8
VISIBLE
100
AcDbLine
 10
94.9481521638461
 20
14.29449903002136
 30
0.0
 11
94.93924127297665
 21
14.88830571773683
 31
0.0
  0
LINE
  5
100
330
1F
100
AcDbEntity
  8
VISIBLE
100
AcDbLine
 10
92.93267563666967
 20
15.5869191328767
 30
0.0
 11
91.74188108989651
 21
16.00297945291238
 31
0.0
  0
LINE
  5
101
330
1F
100
AcDbEntity
  8
VISIBLE
100
AcDbLine
 10
94.61141952474363
 20
13.51814404974033
 30
0.0
 11
93.1096561450335
 21
13.72333387613498
 31
0.0
  0
LINE
  5
102
330
1F
100
AcDbEntity
  8
VISIBLE
100
AcDbLine
 10
92.39746191731942
 20
13.92420098665069
 30
0.0
 11
93.3207726544359
 21
15.47785392598061
 31
0.0
  0
LINE
  5
103
330
1F
100
AcDbEntity
  8
VISIBLE
100
AcDbLine
 10
89.25595735449078
 20
11.65534781581973
 30
0.0
 11
88.71372217702779
 21
11.16721009362075
 31
0.0
  0
LINE
  5
104
330
1F
100
AcDbEntity
  8
VISIBLE
100
AcDbLine
 10
86.90165334871018
 20
8.826361232095198
 30
0.0
 11
95.84480510190555
 21
8.826361232095198
 31
0.0
  0
LINE
  5
105
330
1F
100
AcDbEntity
  8
VISIBLE
100
AcDbLine
 10
95.14009860065565
 20
15.08848810494616
 30
0.0
 11
94.9481521638461
 21
14.29449903002136
 31
0.0
  0
LINE
  5
106
330
1F
100
AcDbEntity
  8
VISIBLE
100
AcDbLine
 10
86.52665334871027
 20
8.451361232095209
 30
0.0
 11
86.90165334871018
 21
8.826361232095198
 31
0.0
  0
LINE
  5
107
330
1F
100
AcDbEntity
  8
VISIBLE
100
AcDbLine
 10
96.21980510190567
 20
9.158468013281737
 30
0.0
 11
95.84480510190555
 21
9.533468013281726
 31
0.0
  0
LINE
  5
108
330
1F
100
AcDbEntity
  8
VISIBLE
100
AcDbLine
 10
91.76552770739551
 20
13.77190803237049
 30
0.0
 11
89.45398036045437
 21
11.73199700346343
 31
0.0
  0
LINE
  5
109
330
1F
100
AcDbEntity
  8
VISIBLE
100
AcDbLine
 10
96.21980510190567
 20
19.39281074577797
 30
0.0
 11
95.84480510190555
 21
19.01781074577796
 31
0.0
  0
LINE
  5
10A
330
1F
100
AcDbEntity
  8
VISIBLE
100
AcDbLine
 10
88.71372217702779
 20
11.16721009362075
 30
0.0
 11
88.89906476585931
 21
11.49179873336251
 31
0.0
  0
LINE
  5
10B
330
1F
100
AcDbEntity
  8
VISIBLE
100
AcDbLine
 10
86.52665334871027
 20
13.23742011154723
 30
0.0
 11
85.00595055022927
 21
13.6720859889366
 31
0.0
  0
LINE
  5
10C
330
1F
100
AcDbEntity
  8
VISIBLE
100
AcDbLine
 10
86.90165334871018
 20
18.31070396459143
 30
0.0
 11
86.90165334871018
 21
14.17208598893658
 31
0.0
  0
LINE
  5
10D
330
1F
100
AcDbEntity
  8
VISIBLE
100
AcDbLine
 10
91.76552770739551
 20
14.07226394550268
 30
0.0
 11
89.5212755567123
 21
15.64401668291593
 31
0.0
  0
LINE
  5
10E
330
1F
100
AcDbEntity
  8
VISIBLE
100
AcDbLine
 10
88.4326461757274
 20
11.65534781581973
 30
0.0
 11
88.89906476585931
 21
11.81889689827695
 31
0.0
  0
LINE
  5
10F
330
1F
100
AcDbEntity
  8
VISIBLE
100
AcDbLine
 10
94.78913936184225
 20
13.54031417946377
 30
0.0
 11
94.9481521638461
 21
14.17636406162793
 31
0.0
  0
LINE
  5
110
330
1F
100
AcDbEntity
  8
VISIBLE
100
AcDbLine
 10
92.5883496474195
 20
12.93155746923858
 30
0.0
 11
90.89541328329826
 21
11.85553931602541
 31
0.0
  0
LINE
  5
111
330
1F
100
AcDbEntity
  8
VISIBLE
100
AcDbLine
 10
94.9481521638461
 20
14.17636406162793
 30
0.0
 11
95.30554382328505
 21
14.27857558645802
 31
0.0
  0
LINE
  5
112
330
1F
100
AcDbEntity
  8
VISIBLE
100
AcDbLine
 10
53.53647348122314
 20
21.54715701509137
 30
0.0
 11
54.2864734812231
 21
21.54715701509137
 31
0.0
  0
LINE
  5
113
330
1F
100
AcDbEntity
  8
VISIBLE
100
AcDbLine
 10
66.27084848122303
 20
18.06315701509134
 30
0.0
 11
66.92709848122302
 21
18.06315701509134
 31
0.0
  0
LINE
  5
114
330
1F
100
AcDbEntity
  8
VISIBLE
100
AcDbLine
 10
66.27084848122303
 20
8.156532015091361
 30
0.0
 11
66.27084848122303
 21
10.17253201509135
 31
0.0
  0
LINE
  5
115
330
1F
100
AcDbEntity
  8
VISIBLE
100
AcDbLine
 10
41.53647348122316
 20
18.04715701509137
 30
0.0
 11
40.78647348122319
 21
18.04715701509137
 31
0.0
  0
LINE
  5
116
330
1F
100
AcDbEntity
  8
VISIBLE
100
AcDbLine
 10
54.2864734812231
 20
21.54715701509137
 30
0.0
 11
54.2864734812231
 21
18.04715701509137
 31
0.0
  0
LINE
  5
117
330
1F
100
AcDbEntity
  8
VISIBLE
100
AcDbLine
 10
66.92709848122302
 20
21.53115701509138
 30
0.0
 11
66.27084848122303
 21
21.53115701509138
 31
0.0
  0
LINE
  5
118
330
1F
100
AcDbEntity
  8
VISIBLE
100
AcDbLine
 10
66.27084848122303
 20
10.17253201509135
 30
0.0
 11
66.92709848122302
 21
10.17253201509135
 31
0.0
  0
LINE
  5
119
330
1F
100
AcDbEntity
  8
VISIBLE
100
AcDbLine
 10
54.2864734812231
 20
18.04715701509137
 30
0.0
 11
53.53647348122314
 21
18.04715701509137
 31
0.0
  0
LINE
  5
11A
330
1F
100
AcDbEntity
  8
VISIBLE
100
AcDbLine
 10
54.28647348122314
 20
10.15653201509134
 30
0.0
 11
53.53647348122314
 21
10.15653201509134
 31
0.0
  0
LINE
  5
11B
330
1F
100
AcDbEntity
  8
VISIBLE
100
AcDbLine
 10
66.92709848122302
 20
13.64053201509137
 30
0.0
 11
66.27084848122303
 21
13.64053201509137
 31
0.0
  0
LINE
  5
11C
330
1F
100
AcDbEntity
  8
VISIBLE
100
AcDbLine
 10
40.78647348122319
 20
21.54715701509137
 30
0.0
 11
41.53647348122316
 21
21.54715701509137
 31
0.0
  0
LINE
  5
11D
330
1F
100
AcDbEntity
  8
VISIBLE
100
AcDbLine
 10
41.53647348122319
 20
13.65653201509134
 30
0.0
 11
41.53647348122319
 21
10.15653201509134
 31
0.0
  0
LINE
  5
11E
330
1F
100
AcDbEntity
  8
VISIBLE
100
AcDbLine
 10
53.53647348122314
 20
10.15653201509134
 30
0.0
 11
53.53647348122314
 21
13.65653201509134
 31
0.0
  0
LINE
  5
11F
330
1F
100
AcDbEntity
  8
VISIBLE
100
AcDbLine
 10
40.78647348122318
 20
13.65653201509134
 30
0.0
 11
41.53647348122319
 21
13.65653201509134
 31
0.0
  0
LINE
  5
120
330
1F
100
AcDbEntity
  8
VISIBLE
100
AcDbLine
 10
53.53647348122314
 20
18.04715701509137
 30
0.0
 11
53.53647348122314
 21
21.54715701509137
 31
0.0
  0
LINE
  5
121
330
1F
100
AcDbEntity
  8
VISIBLE
100
AcDbLine
 10
66.92709848122302
 20
10.17253201509135
 30
0.0
 11
66.92709848122302
 21
13.64053201509137
 31
0.0
  0
LINE
  5
122
330
1F
100
AcDbEntity
  8
VISIBLE
100
AcDbLine
 10
36.98959848122302
 20
25.40653201509137
 30
0.0
 11
36.98959848122302
 21
8.156532015091361
 31
0.0
  0
LINE
  5
123
330
1F
100
AcDbEntity
  8
VISIBLE
100
AcDbLine
 10
66.92709848122302
 20
18.06315701509134
 30
0.0
 11
66.92709848122302
 21
21.53115701509138
 31
0.0
  0
LINE
  5
124
330
1F
100
AcDbEntity
  8
VISIBLE
100
AcDbLine
 10
40.78647348122319
 20
18.04715701509137
 30
0.0
 11
40.78647348122319
 21
21.54715701509137
 31
0.0
  0
LINE
  5
125
330
1F
100
AcDbEntity
  8
VISIBLE
100
AcDbLine
 10
66.27084848122303
 20
13.64053201509137
 30
0.0
 11
66.27084848122303
 21
18.06315701509134
 31
0.0
  0
LINE
  5
126
330
1F
100
AcDbEntity
  8
VISIBLE
100
AcDbLine
 10
66.27084848122303
 20
21.53115701509138
 30
0.0
 11
66.27084848122303
 21
25.40653201509138
 31
0.0
  0
LINE
  5
127
330
1F
100
AcDbEntity
  8
VISIBLE
100
AcDbLine
 10
41.53647348122319
 20
10.15653201509134
 30
0.0
 11
40.78647348122318
 21
10.15653201509134
 31
0.0
  0
LINE
  5
128
330
1F
100
AcDbEntity
  8
VISIBLE
100
AcDbLine
 10
53.53647348122314
 20
13.65653201509134
 30
0.0
 11
54.28647348122314
 21
13.65653201509134
 31
0.0
  0
LINE
  5
129
330
1F
100
AcDbEntity
  8
VISIBLE
100
AcDbLine
 10
36.98959848122302
 20
25.40653201509137
 30
0.0
 11
66.27084848122303
 21
25.40653201509138
 31
0.0
  0
LINE
  5
12A
330
1F
100
AcDbEntity
  8
VISIBLE
100
AcDbLine
 10
36.98959848122302
 20
8.156532015091361
 30
0.0
 11
66.27084848122303
 21
8.156532015091361
 31
0.0
  0
LINE
  5
12B
330
1F
100
AcDbEntity
  8
VISIBLE
100
AcDbLine
 10
40.78647348122318
 20
10.15653201509134
 30
0.0
 11
40.78647348122318
 21
13.65653201509134
 31
0.0
  0
LINE
  5
12C
330
1F
100
AcDbEntity
  8
VISIBLE
100
AcDbLine
 10
54.28647348122314
 20
13.65653201509134
 30
0.0
 11
54.28647348122314
 21
10.15653201509134
 31
0.0
  0
LINE
  5
12D
330
1F
100
AcDbEntity
  8
VISIBLE
100
AcDbLine
 10
41.53647348122316
 20
21.54715701509137
 30
0.0
 11
41.53647348122316
 21
18.04715701509137
 31
0.0
  0
LINE
  5
12E
330
1F
100
AcDbEntity
  8
VISIBLE
100
AcDbLine
 10
50.97391400799045
 20
2.418377254019549
 30
0.0
 11
51.56766400799043
 21
2.418377254019549
 31
0.0
  0
LINE
  5
12F
330
1F
100
AcDbEntity
  8
VISIBLE
100
AcDbLine
 10
9.378858452434899
 20
3.683627254019548
 30
0.0
 11
4.161414007990424
 21
3.683627254019548
 31
0.0
  0
LINE
  5
130
330
1F
100
AcDbEntity
  8
VISIBLE
100
AcDbLine
 10
3.567664007990448
 20
3.636377254019546
 30
0.0
 11
3.567664007990448
 21
2.418377254019549
 31
0.0
  0
LINE
  5
131
330
1F
100
AcDbEntity
  8
VISIBLE
100
AcDbLine
 10
50.97391400799045
 20
2.277377254019544
 30
0.0
 11
50.97391400799045
 21
2.418377254019549
 31
0.0
  0
LINE
  5
132
330
1F
100
AcDbEntity
  8
VISIBLE
100
AcDbLine
 10
50.97391400799045
 20
3.683627254019548
 30
0.0
 11
45.75385845243488
 21
3.683627254019548
 31
0.0
  0
LINE
  5
133
330
1F
100
AcDbEntity
  8
VISIBLE
100
AcDbLine
 10
45.75385845243488
 20
3.683627254019548
 30
0.0
 11
45.75385845243488
 21
4.402377254019564
 31
0.0
  0
LINE
  5
134
330
1F
100
AcDbEntity
  8
VISIBLE
100
AcDbLine
 10
14.54785845243489
 20
3.683627254019548
 30
0.0
 11
14.54785845243489
 21
4.402377254019564
 31
0.0
  0
LINE
  5
135
330
1F
100
AcDbEntity
  8
VISIBLE
100
AcDbLine
 10
24.9498584524349
 20
3.683627254019548
 30
0.0
 11
24.9498584524349
 21
4.402377254019564
 31
0.0
  0
LINE
  5
136
330
1F
100
AcDbEntity
  8
VISIBLE
100
AcDbLine
 10
9.378858452434899
 20
4.402377254019564
 30
0.0
 11
9.378858452434899
 21
3.683627254019548
 31
0.0
  0
LINE
  5
137
330
1F
100
AcDbEntity
  8
VISIBLE
100
AcDbLine
 10
4.161414007990424
 20
2.277377254019544
 30
0.0
 11
50.97391400799045
 21
2.277377254019544
 31
0.0
  0
LINE
  5
138
330
1F
100
AcDbEntity
  8
VISIBLE
100
AcDbLine
 10
45.75385845243488
 20
4.402377254019564
 30
0.0
 11
40.5848584524349
 21
4.402377254019564
 31
0.0
  0
LINE
  5
139
330
1F
100
AcDbEntity
  8
VISIBLE
100
AcDbLine
 10
3.567664007990448
 20
2.418377254019549
 30
0.0
 11
4.161414007990424
 21
2.418377254019549
 31
0.0
  0
LINE
  5
13A
330
1F
100
AcDbEntity
  8
VISIBLE
100
AcDbLine
 10
50.97391400799045
 20
3.63637725401954
 30
0.0
 11
50.97391400799045
 21
3.683627254019548
 31
0.0
  0
LINE
  5
13B
330
1F
100
AcDbEntity
  8
VISIBLE
100
AcDbLine
 10
4.161414007990424
 20
2.418377254019549
 30
0.0
 11
4.161414007990424
 21
2.277377254019544
 31
0.0
  0
LINE
  5
13C
330
1F
100
AcDbEntity
  8
VISIBLE
100
AcDbLine
 10
35.35185845243489
 20
4.402377254019564
 30
0.0
 11
30.18285845243489
 21
4.402377254019564
 31
0.0
  0
LINE
  5
13D
330
1F
100
AcDbEntity
  8
VISIBLE
100
AcDbLine
 10
4.161414007990424
 20
3.683627254019548
 30
0.0
 11
4.161414007990424
 21
3.636377254019546
 31
0.0
  0
LINE
  5
13E
330
1F
100
AcDbEntity
  8
VISIBLE
100
AcDbLine
 10
24.9498584524349
 20
4.402377254019564
 30
0.0
 11
19.7808584524349
 21
4.402377254019564
 31
0.0
  0
LINE
  5
13F
330
1F
100
AcDbEntity
  8
VISIBLE
100
AcDbLine
 10
30.18285845243489
 20
3.683627254019548
 30
0.0
 11
24.9498584524349
 21
3.683627254019548
 31
0.0
  0
LINE
  5
140
330
1F
100
AcDbEntity
  8
VISIBLE
100
AcDbLine
 10
35.35185845243489
 20
3.683627254019548
 30
0.0
 11
35.35185845243489
 21
4.402377254019564
 31
0.0
  0
LINE
  5
141
330
1F
100
AcDbEntity
  8
VISIBLE
100
AcDbLine
 10
40.5848584524349
 20
3.683627254019548
 30
0.0
 11
35.35185845243489
 21
3.683627254019548
 31
0.0
  0
LINE
  5
142
330
1F
100
AcDbEntity
  8
VISIBLE
100
AcDbLine
 10
14.54785845243489
 20
4.402377254019564
 30
0.0
 11
9.378858452434899
 21
4.402377254019564
 31
0.0
  0
LINE
  5
143
330
1F
100
AcDbEntity
  8
VISIBLE
100
AcDbLine
 10
40.5848584524349
 20
4.402377254019564
 30
0.0
 11
40.5848584524349
 21
3.683627254019548
 31
0.0
  0
LINE
  5
144
330
1F
100
AcDbEntity
  8
VISIBLE
100
AcDbLine
 10
19.7808584524349
 20
3.683627254019548
 30
0.0
 11
14.54785845243489
 21
3.683627254019548
 31
0.0
  0
LINE
  5
145
330
1F
100
AcDbEntity
  8
VISIBLE
100
AcDbLine
 10
4.161414007990424
 20
3.636377254019546
 30
0.0
 11
3.567664007990448
 21
3.636377254019546
 31
0.0
  0
LINE
  5
146
330
1F
100
AcDbEntity
  8
VISIBLE
100
AcDbLine
 10
51.56766400799043
 20
2.418377254019549
 30
0.0
 11
51.56766400799043
 21
3.63637725401954
 31
0.0
  0
LINE
  5
147
330
1F
100
AcDbEntity
  8
VISIBLE
100
AcDbLine
 10
51.56766400799043
 20
3.63637725401954
 30
0.0
 11
50.97391400799045
 21
3.63637725401954
 31
0.0
  0
LINE
  5
148
330
1F
100
AcDbEntity
  8
VISIBLE
100
AcDbLine
 10
19.7808584524349
 20
4.402377254019564
 30
0.0
 11
19.7808584524349
 21
3.683627254019548
 31
0.0
  0
LINE
  5
149
330
1F
100
AcDbEntity
  8
VISIBLE
100
AcDbLine
 10
30.18285845243489
 20
4.402377254019564
 30
0.0
 11
30.18285845243489
 21
3.683627254019548
 31
0.0
  0
LINE
  5
14A
330
1F
100
AcDbEntity
  8
VISIBLE
100
AcDbLine
 10
40.52970824443528
 20
6.92225938114107
 30
0.0
 11
40.52970824443528
 21
7.641009381141055
 31
0.0
  0
LINE
  5
14B
330
1F
100
AcDbEntity
  8
VISIBLE
100
AcDbLine
 10
4.122263799990838
 20
5.532009381141063
 30
0.0
 11
4.122263799990838
 21
4.641009381141066
 31
0.0
  0
LINE
  5
14C
330
1F
100
AcDbEntity
  8
VISIBLE
100
AcDbLine
 10
50.93476379999084
 20
4.641009381141041
 30
0.0
 11
4.122263799990838
 21
4.641009381141066
 31
0.0
  0
LINE
  5
14D
330
1F
100
AcDbEntity
  8
VISIBLE
100
AcDbLine
 10
24.92670824443528
 20
7.641009381141055
 30
0.0
 11
30.1277082444353
 21
7.641009381141055
 31
0.0
  0
LINE
  5
14E
330
1F
100
AcDbEntity
  8
VISIBLE
100
AcDbLine
 10
51.52851379999082
 20
6.750009381141059
 30
0.0
 11
50.93476379999084
 21
6.750009381141059
 31
0.0
  0
LINE
  5
14F
330
1F
100
AcDbEntity
  8
VISIBLE
100
AcDbLine
 10
24.92670824443528
 20
7.641009381141055
 30
0.0
 11
24.92670824443528
 21
6.92225938114107
 31
0.0
  0
LINE
  5
150
330
1F
100
AcDbEntity
  8
VISIBLE
100
AcDbLine
 10
35.3287082444353
 20
7.641009381141055
 30
0.0
 11
35.32870824443527
 21
6.92225938114107
 31
0.0
  0
LINE
  5
151
330
1F
100
AcDbEntity
  8
VISIBLE
100
AcDbLine
 10
24.92670824443528
 20
6.92225938114107
 30
0.0
 11
19.72570824443528
 21
6.92225938114107
 31
0.0
  0
LINE
  5
152
330
1F
100
AcDbEntity
  8
VISIBLE
100
AcDbLine
 10
14.52470824443528
 20
6.92225938114107
 30
0.0
 11
9.323708244435279
 21
6.92225938114107
 31
0.0
  0
LINE
  5
153
330
1F
100
AcDbEntity
  8
VISIBLE
100
AcDbLine
 10
30.1277082444353
 20
6.92225938114107
 30
0.0
 11
30.1277082444353
 21
7.641009381141055
 31
0.0
  0
LINE
  5
154
330
1F
100
AcDbEntity
  8
VISIBLE
100
AcDbLine
 10
45.73070824443528
 20
7.641009381141055
 30
0.0
 11
50.93476379999084
 21
7.641009381141055
 31
0.0
  0
LINE
  5
155
330
1F
100
AcDbEntity
  8
VISIBLE
100
AcDbLine
 10
4.122263799990838
 20
7.641009381141055
 30
0.0
 11
4.122263799990838
 21
6.750009381141059
 31
0.0
  0
LINE
  5
156
330
1F
100
AcDbEntity
  8
VISIBLE
100
AcDbLine
 10
4.122263799990838
 20
6.750009381141059
 30
0.0
 11
3.528513799990824
 21
6.750009381141059
 31
0.0
  0
LINE
  5
157
330
1F
100
AcDbEntity
  8
VISIBLE
100
AcDbLine
 10
35.32870824443527
 20
6.92225938114107
 30
0.0
 11
30.1277082444353
 21
6.92225938114107
 31
0.0
  0
LINE
  5
158
330
1F
100
AcDbEntity
  8
VISIBLE
100
AcDbLine
 10
3.528513799990824
 20
5.532009381141063
 30
0.0
 11
3.528513799990824
 21
6.750009381141059
 31
0.0
  0
LINE
  5
159
330
1F
100
AcDbEntity
  8
VISIBLE
100
AcDbLine
 10
51.52851379999082
 20
6.750009381141059
 30
0.0
 11
51.52851379999082
 21
5.532009381141063
 31
0.0
  0
LINE
  5
15A
330
1F
100
AcDbEntity
  8
VISIBLE
100
AcDbLine
 10
4.122263799990838
 20
7.641009381141055
 30
0.0
 11
9.323708244435279
 21
7.641009381141055
 31
0.0
  0
LINE
  5
15B
330
1F
100
AcDbEntity
  8
VISIBLE
100
AcDbLine
 10
50.93476379999084
 20
6.750009381141059
 30
0.0
 11
50.93476379999084
 21
7.641009381141055
 31
0.0
  0
LINE
  5
15C
330
1F
100
AcDbEntity
  8
VISIBLE
100
AcDbLine
 10
50.93476379999084
 20
4.641009381141041
 30
0.0
 11
50.93476379999084
 21
5.532009381141063
 31
0.0
  0
LINE
  5
15D
330
1F
100
AcDbEntity
  8
VISIBLE
100
AcDbLine
 10
50.93476379999084
 20
5.532009381141063
 30
0.0
 11
51.52851379999082
 21
5.532009381141063
 31
0.0
  0
LINE
  5
15E
330
1F
100
AcDbEntity
  8
VISIBLE
100
AcDbLine
 10
3.528513799990824
 20
5.532009381141063
 30
0.0
 11
4.122263799990838
 21
5.532009381141063
 31
0.0
  0
LINE
  5
15F
330
1F
100
AcDbEntity
  8
VISIBLE
100
AcDbLine
 10
45.73070824443528
 20
7.641009381141055
 30
0.0
 11
45.73070824443528
 21
6.92225938114107
 31
0.0
  0
LINE
  5
160
330
1F
100
AcDbEntity
  8
VISIBLE
100
AcDbLine
 10
14.52470824443528
 20
7.641009381141055
 30
0.0
 11
14.52470824443528
 21
6.92225938114107
 31
0.0
  0
LINE
  5
161
330
1F
100
AcDbEntity
  8
VISIBLE
100
AcDbLine
 10
19.72570824443528
 20
6.92225938114107
 30
0.0
 11
19.72570824443528
 21
7.641009381141055
 31
0.0
  0
LINE
  5
162
330
1F
100
AcDbEntity
  8
VISIBLE
100
AcDbLine
 10
45.73070824443528
 20
6.92225938114107
 30
0.0
 11
40.52970824443528
 21
6.92225938114107
 31
0.0
  0
LINE
  5
163
330
1F
100
AcDbEntity
  8
VISIBLE
100
AcDbLine
 10
35.32870824443527
 20
7.641009381141055
 30
0.0
 11
40.52970824443528
 21
7.641009381141055
 31
0.0
  0
LINE
  5
164
330
1F
100
AcDbEntity
  8
VISIBLE
100
AcDbLine
 10
9.323708244435279
 20
6.92225938114107
 30
0.0
 11
9.323708244435279
 21
7.641009381141055
 31
0.0
  0
LINE
  5
165
330
1F
100
AcDbEntity
  8
VISIBLE
100
AcDbLine
 10
14.52470824443528
 20
7.641009381141055
 30
0.0
 11
19.72570824443528
 21
7.641009381141055
 31
0.0
  0
LINE
  5
166
330
1F
100
AcDbEntity
  8
VISIBLE
100
AcDbLine
 10
61.33029011856853
 20
37.3186215608748
 30
0.0
 11
63.8327761974878
 21
37.93821971236664
 31
0.0
  0
LINE
  5
167
330
1F
100
AcDbEntity
  8
VISIBLE
100
AcDbLine
 10
52.24715362432482
 20
39.06830906087479
 30
0.0
 11
51.65340362432483
 21
39.06830906087479
 31
0.0
  0
LINE
  5
168
330
1F
100
AcDbEntity
  8
VISIBLE
100
AcDbLine
 10
56.41113779566655
 20
37.93821971236664
 30
0.0
 11
56.41113779566655
 21
42.08223953652965
 31
0.0
  0
LINE
  5
169
330
1F
100
AcDbEntity
  8
VISIBLE
100
AcDbLine
 10
57.32539907428743
 20
36.96213196335337
 30
0.0
 11
57.84180353572994
 21
37.70039337034761
 31
0.0
  0
LINE
  5
16A
330
1F
100
AcDbEntity
  8
VISIBLE
100
AcDbLine
 10
60.94435689583548
 20
33.86933686467125
 30
0.0
 11
59.69826726090276
 21
35.65378841693469
 31
0.0
  0
LINE
  5
16B
330
1F
100
AcDbEntity
  8
VISIBLE
100
AcDbLine
 10
51.65340362432483
 20
35.56830906087479
 30
0.0
 11
52.24715362432482
 21
35.56830906087479
 31
0.0
  0
LINE
  5
16C
330
1F
100
AcDbEntity
  8
VISIBLE
100
AcDbLine
 10
61.26208137905514
 20
36.4141745384893
 30
0.0
 11
61.73552961427406
 21
35.25207488796363
 31
0.0
  0
LINE
  5
16D
330
1F
100
AcDbEntity
  8
VISIBLE
100
AcDbLine
 10
66.10428954886202
 20
31.84789680403338
 30
0.0
 11
56.41113779566655
 21
31.84789680403338
 31
0.0
  0
LINE
  5
16E
330
1F
100
AcDbEntity
  8
VISIBLE
100
AcDbLine
 10
65.72928954886204
 20
42.41434631771618
 30
0.0
 11
56.78613779566656
 21
42.41434631771618
 31
0.0
  0
LINE
  5
16F
330
1F
100
AcDbEntity
  8
VISIBLE
100
AcDbLine
 10
68.1065286243248
 20
43.45893406087481
 30
0.0
 11
68.1065286243248
 21
46.9589340608748
 31
0.0
  0
LINE
  5
170
330
1F
100
AcDbEntity
  8
VISIBLE
100
AcDbLine
 10
58.01952337282877
 20
36.91467962167854
 30
0.0
 11
58.26271933460789
 21
37.1859362299657
 31
0.0
  0
LINE
  5
171
330
1F
100
AcDbEntity
  8
VISIBLE
100
AcDbLine
 10
63.10966734085986
 20
35.59669086689545
 30
0.0
 11
63.17696253711773
 21
35.12853257540164
 31
0.0
  0
LINE
  5
172
330
1F
100
AcDbEntity
  8
VISIBLE
100
AcDbLine
 10
60.88906180767562
 20
39.39951502485061
 30
0.0
 11
59.69826726090278
 21
38.98345470481493
 31
0.0
  0
LINE
  5
173
330
1F
100
AcDbEntity
  8
VISIBLE
100
AcDbLine
 10
55.3877786243248
 20
43.45893406087481
 30
0.0
 11
55.3877786243248
 21
46.9589340608748
 31
0.0
  0
LINE
  5
174
330
1F
100
AcDbEntity
  8
VISIBLE
100
AcDbLine
 10
60.23348098025277
 20
37.3165065631607
 30
0.0
 11
59.31017024313625
 21
35.76285362383075
 31
0.0
  0
LINE
  5
175
330
1F
100
AcDbEntity
  8
VISIBLE
100
AcDbLine
 10
81.60652862432476
 20
35.56830906087479
 30
0.0
 11
80.85652862432475
 21
35.56830906087479
 31
0.0
  0
LINE
  5
176
330
1F
100
AcDbEntity
  8
VISIBLE
100
AcDbLine
 10
59.69826726090278
 20
35.65378841693469
 30
0.0
 11
60.88906180767562
 21
35.23772809689901
 31
0.0
  0
LINE
  5
177
330
1F
100
AcDbEntity
  8
VISIBLE
100
AcDbLine
 10
56.78613779566656
 20
36.32402340938296
 30
0.0
 11
56.78613779566656
 21
32.93000358521996
 31
0.0
  0
LINE
  5
178
330
1F
100
AcDbEntity
  8
VISIBLE
100
AcDbLine
 10
55.3877786243248
 20
31.17768406087481
 30
0.0
 11
56.13777862432485
 21
31.17768406087481
 31
0.0
  0
LINE
  5
179
330
1F
100
AcDbEntity
  8
VISIBLE
100
AcDbLine
 10
52.24715362432482
 20
27.67768406087481
 30
0.0
 11
52.24715362432482
 21
25.67768406087481
 31
0.0
  0
LINE
  5
17A
330
1F
100
AcDbEntity
  8
VISIBLE
100
AcDbLine
 10
59.31750382238975
 20
40.47236827332665
 30
0.0
 11
58.99526886680003
 21
39.28473975767761
 31
0.0
  0
LINE
  5
17B
330
1F
100
AcDbEntity
  8
VISIBLE
100
AcDbLine
 10
68.1065286243248
 20
39.06830906087479
 30
0.0
 11
68.85652862432472
 21
39.06830906087479
 31
0.0
  0
LINE
  5
17C
330
1F
100
AcDbEntity
  8
VISIBLE
100
AcDbLine
 10
56.13777862432485
 20
31.17768406087481
 30
0.0
 11
56.13777862432485
 21
27.67768406087481
 31
0.0
  0
LINE
  5
17D
330
1F
100
AcDbEntity
  8
VISIBLE
100
AcDbLine
 10
81.60652862432476
 20
46.9589340608748
 30
0.0
 11
81.60652862432476
 21
43.45893406087481
 31
0.0
  0
LINE
  5
17E
330
1F
100
AcDbEntity
  8
VISIBLE
100
AcDbLine
 10
60.86541519017678
 20
37.16844360430869
 30
0.0
 11
63.10966734085986
 21
35.59669086689545
 31
0.0
  0
LINE
  5
17F
330
1F
100
AcDbEntity
  8
VISIBLE
100
AcDbLine
 10
80.2784036243249
 20
26.16205906087479
 30
0.0
 11
80.2784036243249
 21
26.91205906087481
 31
0.0
  0
LINE
  5
180
330
1F
100
AcDbEntity
  8
VISIBLE
100
AcDbLine
 10
58.35790320857798
 20
39.3427125104064
 30
0.0
 11
57.14451742550513
 21
41.42242870984574
 31
0.0
  0
LINE
  5
181
330
1F
100
AcDbEntity
  8
VISIBLE
100
AcDbLine
 10
56.78613779566656
 20
38.31321971236664
 30
0.0
 11
56.41113779566655
 21
37.93821971236664
 31
0.0
  0
LINE
  5
182
330
1F
100
AcDbEntity
  8
VISIBLE
100
AcDbLine
 10
65.72928954886204
 20
32.93000358521996
 30
0.0
 11
65.72928954886204
 21
37.06862156087481
 31
0.0
  0
LINE
  5
183
330
1F
100
AcDbEntity
  8
VISIBLE
100
AcDbLine
 10
56.78613779566656
 20
32.93000358521996
 30
0.0
 11
56.41113779566655
 21
32.55500358521995
 31
0.0
  0
LINE
  5
184
330
1F
100
AcDbEntity
  8
VISIBLE
100
AcDbLine
 10
51.65340362432483
 20
40.42768406087478
 30
0.0
 11
52.24715362432482
 21
40.42768406087478
 31
0.0
  0
LINE
  5
185
330
1F
100
AcDbEntity
  8
VISIBLE
100
AcDbLine
 10
63.17696253711773
 20
39.50871054634794
 30
0.0
 11
63.10966734085986
 21
39.04055225485413
 31
0.0
  0
LINE
  5
186
330
1F
100
AcDbEntity
  8
VISIBLE
100
AcDbLine
 10
59.31750382238975
 20
34.16487484842295
 30
0.0
 11
58.9091873694874
 21
33.12873291459133
 31
0.0
  0
LINE
  5
187
330
1F
100
AcDbEntity
  8
VISIBLE
100
AcDbLine
 10
58.26271933460789
 20
37.45130689178385
 30
0.0
 11
58.01952337282877
 21
37.72256350007104
 31
0.0
  0
LINE
  5
188
330
1F
100
AcDbEntity
  8
VISIBLE
100
AcDbLine
 10
68.85652862432472
 20
43.45893406087481
 30
0.0
 11
68.1065286243248
 21
43.45893406087481
 31
0.0
  0
LINE
  5
189
330
1F
100
AcDbEntity
  8
VISIBLE
100
AcDbLine
 10
51.65340362432483
 20
39.06830906087479
 30
0.0
 11
51.65340362432483
 21
35.56830906087479
 31
0.0
  0
LINE
  5
18A
330
1F
100
AcDbEntity
  8
VISIBLE
100
AcDbLine
 10
52.24715362432482
 20
31.17768406087481
 30
0.0
 11
51.65340362432483
 21
31.17768406087481
 31
0.0
  0
LINE
  5
18B
330
1F
100
AcDbEntity
  8
VISIBLE
100
AcDbLine
 10
65.72928954886204
 20
37.06862156087481
 30
0.0
 11
67.62499234734296
 21
37.06862156087481
 31
0.0
  0
LINE
  5
18C
330
1F
100
AcDbEntity
  8
VISIBLE
100
AcDbLine
 10
85.40340362432491
 20
43.31830906087481
 30
0.0
 11
85.40340362432491
 21
48.95893406087482
 31
0.0
  0
LINE
  5
18D
330
1F
100
AcDbEntity
  8
VISIBLE
100
AcDbLine
 10
58.99526886680003
 20
39.28473975767761
 30
0.0
 11
58.9091873694874
 21
41.50851020715828
 31
0.0
  0
LINE
  5
18E
330
1F
100
AcDbEntity
  8
VISIBLE
100
AcDbLine
 10
61.26208137905514
 20
38.2230685832603
 30
0.0
 11
60.04259325015276
 21
38.3091500805728
 31
0.0
  0
LINE
  5
18F
330
1F
100
AcDbEntity
  8
VISIBLE
100
AcDbLine
 10
59.31017024313622
 20
35.76285362383075
 30
0.0
 11
58.49207563450081
 21
35.52901581462481
 31
0.0
  0
LINE
  5
190
330
1F
100
AcDbEntity
  8
VISIBLE
100
AcDbLine
 10
57.14451742550513
 20
41.42242870984574
 30
0.0
 11
58.04208532306654
 21
40.5209561024359
 31
0.0
  0
LINE
  5
191
330
1F
100
AcDbEntity
  8
VISIBLE
100
AcDbLine
 10
51.65340362432483
 20
48.95893406087482
 30
0.0
 11
51.65340362432483
 21
40.42768406087478
 31
0.0
  0
LINE
  5
192
330
1F
100
AcDbEntity
  8
VISIBLE
100
AcDbLine
 10
63.91722072054452
 20
34.56374566555895
 30
0.0
 11
63.3749855430815
 21
35.05188338775794
 31
0.0
  0
LINE
  5
193
330
1F
100
AcDbEntity
  8
VISIBLE
100
AcDbLine
 10
61.73552961427403
 20
39.38516823378596
 30
0.0
 11
61.26208137905514
 21
38.2230685832603
 31
0.0
  0
LINE
  5
194
330
1F
100
AcDbEntity
  8
VISIBLE
100
AcDbLine
 10
64.1982967218449
 20
39.58535973399163
 30
0.0
 11
63.73187813171305
 21
39.42181065153443
 31
0.0
  0
LINE
  5
195
330
1F
100
AcDbEntity
  8
VISIBLE
100
AcDbLine
 10
56.41113779566655
 20
36.69902340938296
 30
0.0
 11
56.78613779566656
 21
36.32402340938296
 31
0.0
  0
LINE
  5
196
330
1F
100
AcDbEntity
  8
VISIBLE
100
AcDbLine
 10
66.10428954886202
 20
42.78934631771618
 30
0.0
 11
65.72928954886204
 21
42.41434631771618
 31
0.0
  0
LINE
  5
197
330
1F
100
AcDbEntity
  8
VISIBLE
100
AcDbLine
 10
59.5212867525386
 20
37.11986944807319
 30
0.0
 11
58.01952337282877
 21
36.91467962167854
 31
0.0
  0
LINE
  5
198
330
1F
100
AcDbEntity
  8
VISIBLE
100
AcDbLine
 10
79.38777862432494
 20
26.92768406087479
 30
0.0
 11
79.38777862432494
 21
28.17768406087478
 31
0.0
  0
LINE
  5
199
330
1F
100
AcDbEntity
  8
VISIBLE
100
AcDbLine
 10
56.13777862432485
 20
35.56830906087479
 30
0.0
 11
55.3877786243248
 21
35.56830906087479
 31
0.0
  0
LINE
  5
19A
330
1F
100
AcDbEntity
  8
VISIBLE
100
AcDbLine
 10
63.91722072054452
 20
39.09722201179265
 30
0.0
 11
63.3749855430815
 21
39.58535973399163
 31
0.0
  0
LINE
  5
19B
330
1F
100
AcDbEntity
  8
VISIBLE
100
AcDbLine
 10
80.85652862432475
 20
46.9589340608748
 30
0.0
 11
81.60652862432476
 21
46.9589340608748
 31
0.0
  0
LINE
  5
19C
330
1F
100
AcDbEntity
  8
VISIBLE
100
AcDbLine
 10
59.31017024313625
 20
38.87438949791884
 30
0.0
 11
60.23348098025277
 21
37.32073655858889
 31
0.0
  0
LINE
  5
19D
330
1F
100
AcDbEntity
  8
VISIBLE
100
AcDbLine
 10
63.8327761974878
 20
36.69902340938296
 30
0.0
 11
61.33029011856853
 21
37.3186215608748
 31
0.0
  0
LINE
  5
19E
330
1F
100
AcDbEntity
  8
VISIBLE
100
AcDbLine
 10
85.40340362432491
 20
48.95893406087482
 30
0.0
 11
51.65340362432483
 21
48.95893406087482
 31
0.0
  0
LINE
  5
19F
330
1F
100
AcDbEntity
  8
VISIBLE
100
AcDbLine
 10
60.23348098025277
 20
37.32073655858887
 30
0.0
 11
58.49207563450081
 21
39.10822730712476
 31
0.0
  0
LINE
  5
1A0
330
1F
100
AcDbEntity
  8
VISIBLE
100
AcDbLine
 10
56.13777862432485
 20
39.06830906087479
 30
0.0
 11
56.13777862432485
 21
35.56830906087479
 31
0.0
  0
LINE
  5
1A1
330
1F
100
AcDbEntity
  8
VISIBLE
100
AcDbLine
 10
55.3877786243248
 20
39.06830906087479
 30
0.0
 11
56.13777862432485
 21
39.06830906087479
 31
0.0
  0
ARC
  5
1A2
330
1F
100
AcDbEntity
  8
VISIBLE
100
AcDbCircle
 10
91.35340362432492
 20
37.31830906087479
 30
0.0
 40
8.450000000000008
100
AcDbArc
 50
134.7602701039191
 51
225.2397298960807
  0
LINE
  5
1A3
330
1F
100
AcDbEntity
  8
VISIBLE
100
AcDbLine
 10
56.13777862432485
 20
43.45893406087481
 30
0.0
 11
55.3877786243248
 21
43.45893406087481
 31
0.0
  0
LINE
  5
1A4
330
1F
100
AcDbEntity
  8
VISIBLE
100
AcDbLine
 10
85.40340362432491
 20
25.67768406087481
 30
0.0
 11
85.40340362432491
 21
31.31830906087481
 31
0.0
  0
LINE
  5
1A5
330
1F
100
AcDbEntity
  8
VISIBLE
100
AcDbLine
 10
80.13777862432494
 20
26.92768406087479
 30
0.0
 11
79.38777862432494
 21
26.92768406087479
 31
0.0
  0
LINE
  5
1A6
330
1F
100
AcDbEntity
  8
VISIBLE
100
AcDbLine
 10
65.07197250047147
 20
37.31862156087482
 30
0.0
 11
63.8327761974878
 21
36.69902340938296
 31
0.0
  0
LINE
  5
1A7
330
1F
100
AcDbEntity
  8
VISIBLE
100
AcDbLine
 10
80.2784036243249
 20
26.91205906087481
 30
0.0
 11
81.52840362432488
 21
26.91205906087481
 31
0.0
  0
LINE
  5
1A8
330
1F
100
AcDbEntity
  8
VISIBLE
100
AcDbLine
 10
80.85652862432475
 20
43.45893406087481
 30
0.0
 11
80.85652862432475
 21
46.9589340608748
 31
0.0
  0
LINE
  5
1A9
330
1F
100
AcDbEntity
  8
VISIBLE
100
AcDbLine
 10
56.78613779566656
 20
41.70723953652964
 30
0.0
 11
56.78613779566656
 21
38.31321971236664
 31
0.0
  0
LINE
  5
1AA
330
1F
100
AcDbEntity
  8
VISIBLE
100
AcDbLine
 10
57.84180353572994
 20
37.70039337034761
 30
0.0
 11
57.68279073372597
 21
37.06434348818345
 31
0.0
  0
LINE
  5
1AB
330
1F
100
AcDbEntity
  8
VISIBLE
100
AcDbLine
 10
65.72928954886204
 20
41.70723953652964
 30
0.0
 11
66.10428954886202
 21
42.08223953652965
 31
0.0
  0
LINE
  5
1AC
330
1F
100
AcDbEntity
  8
VISIBLE
100
AcDbLine
 10
81.60652862432476
 20
39.06830906087479
 30
0.0
 11
81.60652862432476
 21
35.56830906087479
 31
0.0
  0
LINE
  5
1AD
330
1F
100
AcDbEntity
  8
VISIBLE
100
AcDbLine
 10
60.88906180767562
 20
35.23772809689901
 30
0.0
 11
60.94435689583548
 21
33.86933686467128
 31
0.0
  0
LINE
  5
1AE
330
1F
100
AcDbEntity
  8
VISIBLE
100
AcDbLine
 10
63.73187813171305
 20
34.88833430530073
 30
0.0
 11
63.91722072054452
 21
34.56374566555895
 31
0.0
  0
LINE
  5
1AF
330
1F
100
AcDbEntity
  8
VISIBLE
100
AcDbLine
 10
57.49084429691653
 20
36.15221944486521
 30
0.0
 11
57.68279073372597
 21
36.94620851979003
 31
0.0
  0
LINE
  5
1B0
330
1F
100
AcDbEntity
  8
VISIBLE
100
AcDbLine
 10
63.17696253711773
 20
35.12853257540164
 30
0.0
 11
60.86541519017678
 21
37.16844360430869
 31
0.0
  0
LINE
  5
1B1
330
1F
100
AcDbEntity
  8
VISIBLE
100
AcDbLine
 10
66.10428954886202
 20
36.63395568348542
 30
0.0
 11
66.10428954886202
 21
32.55500358521995
 31
0.0
  0
LINE
  5
1B2
330
1F
100
AcDbEntity
  8
VISIBLE
100
AcDbLine
 10
58.35790320857798
 20
35.29453061134319
 30
0.0
 11
58.04208532306654
 21
34.1162870193137
 31
0.0
  0
LINE
  5
1B3
330
1F
100
AcDbEntity
  8
VISIBLE
100
AcDbLine
 10
56.41113779566655
 20
32.55500358521995
 30
0.0
 11
56.41113779566655
 21
36.69902340938296
 31
0.0
  0
LINE
  5
1B4
330
1F
100
AcDbEntity
  8
VISIBLE
100
AcDbLine
 10
56.13777862432485
 20
27.67768406087481
 30
0.0
 11
55.3877786243248
 21
27.67768406087481
 31
0.0
  0
LINE
  5
1B5
330
1F
100
AcDbEntity
  8
VISIBLE
100
AcDbLine
 10
56.41113779566655
 20
42.08223953652965
 30
0.0
 11
56.78613779566656
 21
41.70723953652964
 31
0.0
  0
LINE
  5
1B6
330
1F
100
AcDbEntity
  8
VISIBLE
100
AcDbLine
 10
68.1065286243248
 20
46.9589340608748
 30
0.0
 11
68.85652862432472
 21
46.9589340608748
 31
0.0
  0
LINE
  5
1B7
330
1F
100
AcDbEntity
  8
VISIBLE
100
AcDbLine
 10
68.85652862432472
 20
35.56830906087479
 30
0.0
 11
68.1065286243248
 21
35.56830906087479
 31
0.0
  0
LINE
  5
1B8
330
1F
100
AcDbEntity
  8
VISIBLE
100
AcDbLine
 10
63.3749855430815
 20
35.05188338775795
 30
0.0
 11
63.91722072054452
 21
35.54002110995694
 31
0.0
  0
LINE
  5
1B9
330
1F
100
AcDbEntity
  8
VISIBLE
100
AcDbLine
 10
61.73552961427403
 20
35.25207488796363
 30
0.0
 11
60.04259325015276
 21
36.32809304117677
 31
0.0
  0
LINE
  5
1BA
330
1F
100
AcDbEntity
  8
VISIBLE
100
AcDbLine
 10
81.52840362432488
 20
26.91205906087481
 30
0.0
 11
81.52840362432488
 21
26.16205906087479
 31
0.0
  0
LINE
  5
1BB
330
1F
100
AcDbEntity
  8
VISIBLE
100
AcDbLine
 10
63.73187813171305
 20
39.74890881644887
 30
0.0
 11
64.1982967218449
 21
39.58535973399163
 31
0.0
  0
LINE
  5
1BC
330
1F
100
AcDbEntity
  8
VISIBLE
100
AcDbLine
 10
56.78613779566656
 20
42.41434631771618
 30
0.0
 11
56.41113779566655
 21
42.78934631771618
 31
0.0
  0
LINE
  5
1BD
330
1F
100
AcDbEntity
  8
VISIBLE
100
AcDbLine
 10
55.3877786243248
 20
46.9589340608748
 30
0.0
 11
56.13777862432485
 21
46.9589340608748
 31
0.0
  0
LINE
  5
1BE
330
1F
100
AcDbEntity
  8
VISIBLE
100
AcDbLine
 10
56.41113779566655
 20
31.84789680403338
 30
0.0
 11
56.78613779566656
 21
32.22289680403342
 31
0.0
  0
LINE
  5
1BF
330
1F
100
AcDbEntity
  8
VISIBLE
100
AcDbLine
 10
57.69170162459566
 20
36.35240183207455
 30
0.0
 11
58.11770118341223
 21
36.29778651846196
 31
0.0
  0
LINE
  5
1C0
330
1F
100
AcDbEntity
  8
VISIBLE
100
AcDbLine
 10
57.14451742550513
 20
33.21481441190383
 30
0.0
 11
58.35790320857798
 21
35.29453061134319
 31
0.0
  0
LINE
  5
1C1
330
1F
100
AcDbEntity
  8
VISIBLE
100
AcDbLine
 10
51.65340362432483
 20
31.17768406087481
 30
0.0
 11
51.65340362432483
 21
27.67768406087481
 31
0.0
  0
LINE
  5
1C2
330
1F
100
AcDbEntity
  8
VISIBLE
100
AcDbLine
 10
58.01952337282877
 20
37.72256350007104
 30
0.0
 11
59.5212867525386
 21
37.51737367367641
 31
0.0
  0
LINE
  5
1C3
330
1F
100
AcDbEntity
  8
VISIBLE
100
AcDbLine
 10
58.11770118341223
 20
36.29778651846196
 30
0.0
 11
57.49084429691653
 21
36.15221944486521
 31
0.0
  0
LINE
  5
1C4
330
1F
100
AcDbEntity
  8
VISIBLE
100
AcDbLine
 10
64.1982967218449
 20
35.05188338775795
 30
0.0
 11
63.73187813171305
 21
34.88833430530073
 31
0.0
  0
LINE
  5
1C5
330
1F
100
AcDbEntity
  8
VISIBLE
100
AcDbLine
 10
56.41113779566655
 20
42.78934631771618
 30
0.0
 11
66.10428954886202
 21
42.78934631771618
 31
0.0
  0
LINE
  5
1C6
330
1F
100
AcDbEntity
  8
VISIBLE
100
AcDbLine
 10
58.26271933460789
 20
37.18593622996575
 30
0.0
 11
59.5212867525386
 21
37.11986944807319
 31
0.0
  0
LINE
  5
1C7
330
1F
100
AcDbEntity
  8
VISIBLE
100
AcDbLine
 10
66.10428954886202
 20
42.08223953652965
 30
0.0
 11
66.10428954886202
 21
38.00328743826414
 31
0.0
  0
LINE
  5
1C8
330
1F
100
AcDbEntity
  8
VISIBLE
100
AcDbLine
 10
60.04259325015276
 20
38.3091500805728
 30
0.0
 11
61.73552961427403
 21
39.38516823378596
 31
0.0
  0
LINE
  5
1C9
330
1F
100
AcDbEntity
  8
VISIBLE
100
AcDbLine
 10
52.24715362432482
 20
40.42768406087478
 30
0.0
 11
52.24715362432482
 21
39.06830906087479
 31
0.0
  0
LINE
  5
1CA
330
1F
100
AcDbEntity
  8
VISIBLE
100
AcDbLine
 10
63.10966734085986
 20
39.04055225485413
 30
0.0
 11
60.86541519017678
 21
37.4687995174409
 31
0.0
  0
LINE
  5
1CB
330
1F
100
AcDbEntity
  8
VISIBLE
100
AcDbLine
 10
56.13777862432485
 20
46.9589340608748
 30
0.0
 11
56.13777862432485
 21
43.45893406087481
 31
0.0
  0
LINE
  5
1CC
330
1F
100
AcDbEntity
  8
VISIBLE
100
AcDbLine
 10
57.68279073372597
 20
37.06434348818345
 30
0.0
 11
57.32539907428743
 21
36.96213196335337
 31
0.0
  0
LINE
  5
1CD
330
1F
100
AcDbEntity
  8
VISIBLE
100
AcDbLine
 10
55.3877786243248
 20
35.56830906087479
 30
0.0
 11
55.3877786243248
 21
39.06830906087479
 31
0.0
  0
LINE
  5
1CE
330
1F
100
AcDbEntity
  8
VISIBLE
100
AcDbLine
 10
60.94435689583548
 20
40.76790625707832
 30
0.0
 11
60.88906180767562
 21
39.39951502485061
 31
0.0
  0
LINE
  5
1CF
330
1F
100
AcDbEntity
  8
VISIBLE
100
AcDbLine
 10
57.68279073372597
 20
36.94620851979003
 30
0.0
 11
57.69170162459566
 21
36.35240183207455
 31
0.0
  0
LINE
  5
1D0
330
1F
100
AcDbEntity
  8
VISIBLE
100
AcDbLine
 10
80.85652862432475
 20
39.06830906087479
 30
0.0
 11
81.60652862432476
 21
39.06830906087479
 31
0.0
  0
LINE
  5
1D1
330
1F
100
AcDbEntity
  8
VISIBLE
100
AcDbLine
 10
58.9091873694874
 20
41.50851020715828
 30
0.0
 11
59.31750382238975
 21
40.47236827332665
 31
0.0
  0
LINE
  5
1D2
330
1F
100
AcDbEntity
  8
VISIBLE
100
AcDbLine
 10
68.85652862432472
 20
46.9589340608748
 30
0.0
 11
68.85652862432472
 21
43.45893406087481
 31
0.0
  0
LINE
  5
1D3
330
1F
100
AcDbEntity
  8
VISIBLE
100
AcDbLine
 10
56.78613779566656
 20
32.22289680403342
 30
0.0
 11
65.72928954886204
 21
32.22289680403338
 31
0.0
  0
LINE
  5
1D4
330
1F
100
AcDbEntity
  8
VISIBLE
100
AcDbLine
 10
58.04208532306654
 20
40.5209561024359
 30
0.0
 11
58.35790320857798
 21
39.3427125104064
 31
0.0
  0
LINE
  5
1D5
330
1F
100
AcDbEntity
  8
VISIBLE
100
AcDbLine
 10
66.10428954886202
 20
38.00328743826414
 30
0.0
 11
67.62499234734296
 21
37.56862156087478
 31
0.0
  0
LINE
  5
1D6
330
1F
100
AcDbEntity
  8
VISIBLE
100
AcDbLine
 10
52.24715362432482
 20
35.56830906087479
 30
0.0
 11
52.24715362432482
 21
31.17768406087481
 31
0.0
  0
LINE
  5
1D7
330
1F
100
AcDbEntity
  8
VISIBLE
100
AcDbLine
 10
81.60652862432476
 20
43.45893406087481
 30
0.0
 11
80.85652862432475
 21
43.45893406087481
 31
0.0
  0
LINE
  5
1D8
330
1F
100
AcDbEntity
  8
VISIBLE
100
AcDbLine
 10
60.86541519017678
 20
37.4687995174409
 30
0.0
 11
63.17696253711773
 21
39.50871054634794
 31
0.0
  0
LINE
  5
1D9
330
1F
100
AcDbEntity
  8
VISIBLE
100
AcDbLine
 10
58.99526886680003
 20
35.35250336407199
 30
0.0
 11
59.31750382238975
 21
34.16487484842295
 31
0.0
  0
LINE
  5
1DA
330
1F
100
AcDbEntity
  8
VISIBLE
100
AcDbLine
 10
63.73187813171305
 20
35.21543247021519
 30
0.0
 11
64.1982967218449
 21
35.05188338775795
 31
0.0
  0
LINE
  5
1DB
330
1F
100
AcDbEntity
  8
VISIBLE
100
AcDbLine
 10
52.24715362432482
 20
25.67768406087481
 30
0.0
 11
85.40340362432491
 21
25.67768406087481
 31
0.0
  0
LINE
  5
1DC
330
1F
100
AcDbEntity
  8
VISIBLE
100
AcDbLine
 10
63.73187813171305
 20
39.4218106515344
 30
0.0
 11
63.91722072054452
 21
39.09722201179265
 31
0.0
  0
LINE
  5
1DD
330
1F
100
AcDbEntity
  8
VISIBLE
100
AcDbLine
 10
63.91722072054452
 20
40.07349745619063
 30
0.0
 11
63.73187813171305
 21
39.74890881644887
 31
0.0
  0
LINE
  5
1DE
330
1F
100
AcDbEntity
  8
VISIBLE
100
AcDbLine
 10
58.49207563450081
 20
39.1082273071248
 30
0.0
 11
59.31017024313622
 21
38.87438949791884
 31
0.0
  0
LINE
  5
1DF
330
1F
100
AcDbEntity
  8
VISIBLE
100
AcDbLine
 10
58.9091873694874
 20
33.12873291459133
 30
0.0
 11
58.99526886680003
 21
35.35250336407199
 31
0.0
  0
LINE
  5
1E0
330
1F
100
AcDbEntity
  8
VISIBLE
100
AcDbLine
 10
58.49207563450081
 20
35.52901581462481
 30
0.0
 11
60.23348098025277
 21
37.3165065631607
 31
0.0
  0
LINE
  5
1E1
330
1F
100
AcDbEntity
  8
VISIBLE
100
AcDbLine
 10
59.5212867525386
 20
37.51737367367641
 30
0.0
 11
58.26271933460789
 21
37.45130689178385
 31
0.0
  0
LINE
  5
1E2
330
1F
100
AcDbEntity
  8
VISIBLE
100
AcDbLine
 10
65.72928954886204
 20
37.56862156087478
 30
0.0
 11
65.72928954886204
 21
41.70723953652964
 31
0.0
  0
LINE
  5
1E3
330
1F
100
AcDbEntity
  8
VISIBLE
100
AcDbLine
 10
63.8327761974878
 20
37.93821971236664
 30
0.0
 11
65.07197250047147
 21
37.3186215608748
 31
0.0
  0
LINE
  5
1E4
330
1F
100
AcDbEntity
  8
VISIBLE
100
AcDbLine
 10
80.13777862432494
 20
28.17768406087478
 30
0.0
 11
80.13777862432494
 21
26.92768406087479
 31
0.0
  0
LINE
  5
1E5
330
1F
100
AcDbEntity
  8
VISIBLE
100
AcDbLine
 10
67.62499234734296
 20
37.56862156087478
 30
0.0
 11
65.72928954886204
 21
37.56862156087478
 31
0.0
  0
LINE
  5
1E6
330
1F
100
AcDbEntity
  8
VISIBLE
100
AcDbLine
 10
55.3877786243248
 20
27.67768406087481
 30
0.0
 11
55.3877786243248
 21
31.17768406087481
 31
0.0
  0
LINE
  5
1E7
330
1F
100
AcDbEntity
  8
VISIBLE
100
AcDbLine
 10
51.65340362432483
 20
27.67768406087481
 30
0.0
 11
52.24715362432482
 21
27.67768406087481
 31
0.0
  0
LINE
  5
1E8
330
1F
100
AcDbEntity
  8
VISIBLE
100
AcDbLine
 10
67.62499234734296
 20
37.06862156087481
 30
0.0
 11
66.10428954886202
 21
36.63395568348542
 31
0.0
  0
LINE
  5
1E9
330
1F
100
AcDbEntity
  8
VISIBLE
100
AcDbLine
 10
81.52840362432488
 20
26.16205906087479
 30
0.0
 11
80.2784036243249
 21
26.16205906087479
 31
0.0
  0
LINE
  5
1EA
330
1F
100
AcDbEntity
  8
VISIBLE
100
AcDbLine
 10
80.85652862432475
 20
35.56830906087479
 30
0.0
 11
80.85652862432475
 21
39.06830906087479
 31
0.0
  0
LINE
  5
1EB
330
1F
100
AcDbEntity
  8
VISIBLE
100
AcDbLine
 10
68.1065286243248
 20
35.56830906087479
 30
0.0
 11
68.1065286243248
 21
39.06830906087479
 31
0.0
  0
LINE
  5
1EC
330
1F
100
AcDbEntity
  8
VISIBLE
100
AcDbLine
 10
63.91722072054452
 20
35.54002110995694
 30
0.0
 11
63.73187813171305
 21
35.21543247021519
 31
0.0
  0
LINE
  5
1ED
330
1F
100
AcDbEntity
  8
VISIBLE
100
AcDbLine
 10
59.69826726090278
 20
38.98345470481493
 30
0.0
 11
60.94435689583548
 21
40.76790625707832
 31
0.0
  0
LINE
  5
1EE
330
1F
100
AcDbEntity
  8
VISIBLE
100
AcDbLine
 10
66.10428954886202
 20
32.55500358521995
 30
0.0
 11
65.72928954886204
 21
32.93000358521996
 31
0.0
  0
LINE
  5
1EF
330
1F
100
AcDbEntity
  8
VISIBLE
100
AcDbLine
 10
63.3749855430815
 20
39.58535973399163
 30
0.0
 11
63.91722072054452
 21
40.07349745619063
 31
0.0
  0
LINE
  5
1F0
330
1F
100
AcDbEntity
  8
VISIBLE
100
AcDbLine
 10
58.04208532306654
 20
34.1162870193137
 30
0.0
 11
57.14451742550513
 21
33.21481441190383
 31
0.0
  0
LINE
  5
1F1
330
1F
100
AcDbEntity
  8
VISIBLE
100
AcDbLine
 10
65.72928954886204
 20
32.22289680403338
 30
0.0
 11
66.10428954886202
 21
31.84789680403338
 31
0.0
  0
LINE
  5
1F2
330
1F
100
AcDbEntity
  8
VISIBLE
100
AcDbLine
 10
60.04259325015276
 20
36.32809304117677
 30
0.0
 11
61.26208137905514
 21
36.4141745384893
 31
0.0
  0
LINE
  5
1F3
330
1F
100
AcDbEntity
  8
VISIBLE
100
AcDbLine
 10
79.38777862432494
 20
28.17768406087478
 30
0.0
 11
80.13777862432494
 21
28.17768406087478
 31
0.0
  0
LINE
  5
1F4
330
1F
100
AcDbEntity
  8
VISIBLE
100
AcDbLine
 10
68.85652862432472
 20
39.06830906087479
 30
0.0
 11
68.85652862432472
 21
35.56830906087479
 31
0.0
  0
LINE
  5
1F5
330
1F
100
AcDbEntity
  8
VISIBLE
100
AcDbLine
 10
61.40339330986368
 20
7.222090741484971
 30
0.0
 11
57.01201830986363
 21
7.222090741484971
 31
0.0
  0
LINE
  5
1F6
330
1F
100
AcDbEntity
  8
VISIBLE
100
AcDbLine
 10
64.88701830986363
 20
7.222090741484971
 30
0.0
 11
64.88701830986363
 21
7.815840741484961
 31
0.0
  0
LINE
  5
1F7
330
1F
100
AcDbEntity
  8
VISIBLE
100
AcDbLine
 10
52.15301830986366
 20
7.222090741484971
 30
0.0
 11
52.15301830986366
 21
4.06584074148498
 31
0.0
  0
LINE
  5
1F8
330
1F
100
AcDbEntity
  8
VISIBLE
100
AcDbLine
 10
66.90301830986363
 20
7.222090741484971
 30
0.0
 11
64.88701830986363
 21
7.222090741484971
 31
0.0
  0
LINE
  5
1F9
330
1F
100
AcDbEntity
  8
VISIBLE
100
AcDbLine
 10
64.88701830986363
 20
4.065840741484993
 30
0.0
 11
66.90301830986363
 21
4.065840741484993
 31
0.0
  0
LINE
  5
1FA
330
1F
100
AcDbEntity
  8
VISIBLE
100
AcDbLine
 10
61.40339330986368
 20
7.815840741484961
 30
0.0
 11
61.40339330986368
 21
7.222090741484971
 31
0.0
  0
LINE
  5
1FB
330
1F
100
AcDbEntity
  8
VISIBLE
100
AcDbLine
 10
53.51276830986365
 20
7.815840741484961
 30
0.0
 11
53.51276830986365
 21
7.222090741484971
 31
0.0
  0
LINE
  5
1FC
330
1F
100
AcDbEntity
  8
VISIBLE
100
AcDbLine
 10
53.51276830986365
 20
7.222090741484971
 30
0.0
 11
52.15301830986366
 21
7.222090741484971
 31
0.0
  0
LINE
  5
1FD
330
1F
100
AcDbEntity
  8
VISIBLE
100
AcDbLine
 10
52.15301830986366
 20
4.06584074148498
 30
0.0
 11
53.51276830986365
 21
4.06584074148498
 31
0.0
  0
LINE
  5
1FE
330
1F
100
AcDbEntity
  8
VISIBLE
100
AcDbLine
 10
57.01201830986363
 20
3.472090741484954
 30
0.0
 11
53.51276830986365
 21
3.472090741484954
 31
0.0
  0
LINE
  5
1FF
330
1F
100
AcDbEntity
  8
VISIBLE
100
AcDbLine
 10
53.51276830986365
 20
4.06584074148498
 30
0.0
 11
53.51276830986365
 21
3.472090741484954
 31
0.0
  0
LINE
  5
200
330
1F
100
AcDbEntity
  8
VISIBLE
100
AcDbLine
 10
57.01201830986363
 20
3.472090741484954
 30
0.0
 11
57.01201830986363
 21
4.06584074148498
 31
0.0
  0
LINE
  5
201
330
1F
100
AcDbEntity
  8
VISIBLE
100
AcDbLine
 10
66.90301830986363
 20
7.222090741484971
 30
0.0
 11
66.90301830986363
 21
4.065840741484993
 31
0.0
  0
LINE
  5
202
330
1F
100
AcDbEntity
  8
VISIBLE
100
AcDbLine
 10
64.88701830986363
 20
7.815840741484961
 30
0.0
 11
61.40339330986368
 21
7.815840741484961
 31
0.0
  0
LINE
  5
203
330
1F
100
AcDbEntity
  8
VISIBLE
100
AcDbLine
 10
64.88701830986363
 20
3.472090741484978
 30
0.0
 11
64.88701830986363
 21
4.065840741484993
 31
0.0
  0
LINE
  5
204
330
1F
100
AcDbEntity
  8
VISIBLE
100
AcDbLine
 10
64.88701830986363
 20
3.472090741484978
 30
0.0
 11
61.40339330986368
 21
3.472090741484954
 31
0.0
  0
LINE
  5
205
330
1F
100
AcDbEntity
  8
VISIBLE
100
AcDbLine
 10
57.01201830986363
 20
7.222090741484971
 30
0.0
 11
57.01201830986363
 21
7.815840741484961
 31
0.0
  0
LINE
  5
206
330
1F
100
AcDbEntity
  8
VISIBLE
100
AcDbLine
 10
61.40339330986368
 20
4.06584074148498
 30
0.0
 11
61.40339330986368
 21
3.472090741484954
 31
0.0
  0
LINE
  5
207
330
1F
100
AcDbEntity
  8
VISIBLE
100
AcDbLine
 10
57.01201830986363
 20
7.815840741484961
 30
0.0
 11
53.51276830986365
 21
7.815840741484961
 31
0.0
  0
LINE
  5
208
330
1F
100
AcDbEntity
  8
VISIBLE
100
AcDbLine
 10
57.01201830986363
 20
4.06584074148498
 30
0.0
 11
61.40339330986368
 21
4.06584074148498
 31
0.0
  0
LINE
  5
209
330
1F
100
AcDbEntity
  8
VISIBLE
100
AcDbLine
 10
97.71976698150799
 20
46.90399304870978
 30
0.0
 11
94.79751698150804
 21
46.90399304870974
 31
0.0
  0
LINE
  5
20A
330
1F
100
AcDbEntity
  8
VISIBLE
100
AcDbLine
 10
90.82951698150791
 20
46.90399304870978
 30
0.0
 11
87.90726698150795
 21
46.90399304870978
 31
0.0
  0
LINE
  5
20B
330
1F
100
AcDbEntity
  8
VISIBLE
100
AcDbLine
 10
90.82951698150791
 20
47.49774304870982
 30
0.0
 11
90.82951698150791
 21
46.90399304870978
 31
0.0
  0
LINE
  5
20C
330
1F
100
AcDbEntity
  8
VISIBLE
100
AcDbLine
 10
94.79751698150804
 20
43.15399304870986
 30
0.0
 11
90.82951698150791
 21
43.15399304870986
 31
0.0
  0
LINE
  5
20D
330
1F
100
AcDbEntity
  8
VISIBLE
100
AcDbLine
 10
90.82951698150791
 20
47.49774304870982
 30
0.0
 11
94.79751698150804
 21
47.49774304870982
 31
0.0
  0
LINE
  5
20E
330
1F
100
AcDbEntity
  8
VISIBLE
100
AcDbLine
 10
87.90726698150795
 20
43.74774304870976
 30
0.0
 11
90.82951698150791
 21
43.74774304870976
 31
0.0
  0
LINE
  5
20F
330
1F
100
AcDbEntity
  8
VISIBLE
100
AcDbLine
 10
94.79751698150804
 20
43.74774304870976
 30
0.0
 11
97.71976698150799
 21
43.74774304870976
 31
0.0
  0
LINE
  5
210
330
1F
100
AcDbEntity
  8
VISIBLE
100
AcDbLine
 10
97.71976698150799
 20
46.90399304870978
 30
0.0
 11
97.71976698150799
 21
43.74774304870976
 31
0.0
  0
LINE
  5
211
330
1F
100
AcDbEntity
  8
VISIBLE
100
AcDbLine
 10
94.79751698150804
 20
46.90399304870974
 30
0.0
 11
94.79751698150804
 21
47.49774304870982
 31
0.0
  0
LINE
  5
212
330
1F
100
AcDbEntity
  8
VISIBLE
100
AcDbLine
 10
87.90726698150795
 20
43.74774304870976
 30
0.0
 11
87.90726698150795
 21
46.90399304870978
 31
0.0
  0
LINE
  5
213
330
1F
100
AcDbEntity
  8
VISIBLE
100
AcDbLine
 10
90.82951698150791
 20
43.74774304870976
 30
0.0
 11
90.82951698150791
 21
43.15399304870986
 31
0.0
  0
LINE
  5
214
330
1F
100
AcDbEntity
  8
VISIBLE
100
AcDbLine
 10
94.79751698150804
 20
43.15399304870986
 30
0.0
 11
94.79751698150804
 21
43.74774304870976
 31
0.0
  0
LINE
  5
215
330
1F
100
AcDbEntity
  8
VISIBLE
100
AcDbLine
 10
98.09101644324556
 20
26.29908490902295
 30
0.0
 11
98.09101644324556
 21
41.04908490902293
 31
0.0
  0
LINE
  5
216
330
1F
100
AcDbEntity
  8
VISIBLE
100
AcDbLine
 10
97.10664144324557
 20
35.53345990902293
 30
0.0
 11
97.10664144324557
 21
39.06470990902295
 31
0.0
  0
LINE
  5
217
330
1F
100
AcDbEntity
  8
VISIBLE
100
AcDbLine
 10
97.10664144324557
 20
39.06470990902295
 30
0.0
 11
97.85664144324556
 21
39.06470990902295
 31
0.0
  0
LINE
  5
218
330
1F
100
AcDbEntity
  8
VISIBLE
100
AcDbLine
 10
86.32539144324564
 20
27.64283490902293
 30
0.0
 11
86.32539144324564
 21
31.17408490902294
 31
0.0
  0
LINE
  5
219
330
1F
100
AcDbEntity
  8
VISIBLE
100
AcDbLine
 10
94.0910164432455
 20
40.56470990902293
 30
0.0
 11
94.0910164432455
 21
39.81470990902293
 31
0.0
  0
LINE
  5
21A
330
1F
100
AcDbEntity
  8
VISIBLE
100
AcDbLine
 10
86.32539144324564
 20
31.17408490902294
 30
0.0
 11
87.07539144324551
 21
31.17408490902294
 31
0.0
  0
LINE
  5
21B
330
1F
100
AcDbEntity
  8
VISIBLE
100
AcDbLine
 10
97.10664144324557
 20
27.64283490902293
 30
0.0
 11
97.10664144324557
 21
31.17408490902294
 31
0.0
  0
LINE
  5
21C
330
1F
100
AcDbEntity
  8
VISIBLE
100
AcDbLine
 10
94.0910164432455
 20
39.81470990902293
 30
0.0
 11
90.09101644324557
 21
39.81470990902293
 31
0.0
  0
LINE
  5
21D
330
1F
100
AcDbEntity
  8
VISIBLE
100
AcDbLine
 10
86.09101644324551
 20
26.29908490902295
 30
0.0
 11
86.09101644324551
 21
41.04908490902293
 31
0.0
  0
LINE
  5
21E
330
1F
100
AcDbEntity
  8
VISIBLE
100
AcDbLine
 10
87.07539144324551
 20
31.17408490902294
 30
0.0
 11
87.07539144324551
 21
27.64283490902293
 31
0.0
  0
LINE
  5
21F
330
1F
100
AcDbEntity
  8
VISIBLE
100
AcDbLine
 10
86.32539144324564
 20
35.53345990902293
 30
0.0
 11
86.32539144324564
 21
39.04908490902293
 31
0.0
  0
LINE
  5
220
330
1F
100
AcDbEntity
  8
VISIBLE
100
AcDbLine
 10
97.85664144324556
 20
31.17408490902294
 30
0.0
 11
97.85664144324556
 21
27.64283490902293
 31
0.0
  0
LINE
  5
221
330
1F
100
AcDbEntity
  8
VISIBLE
100
AcDbLine
 10
98.09101644324556
 20
26.29908490902295
 30
0.0
 11
86.09101644324551
 21
26.29908490902295
 31
0.0
  0
LINE
  5
222
330
1F
100
AcDbEntity
  8
VISIBLE
100
AcDbLine
 10
90.09101644324557
 20
40.56470990902293
 30
0.0
 11
94.0910164432455
 21
40.56470990902293
 31
0.0
  0
LINE
  5
223
330
1F
100
AcDbEntity
  8
VISIBLE
100
AcDbLine
 10
97.85664144324556
 20
35.53345990902293
 30
0.0
 11
97.10664144324557
 21
35.53345990902293
 31
0.0
  0
LINE
  5
224
330
1F
100
AcDbEntity
  8
VISIBLE
100
AcDbLine
 10
97.10664144324557
 20
31.17408490902294
 30
0.0
 11
97.85664144324556
 21
31.17408490902294
 31
0.0
  0
LINE
  5
225
330
1F
100
AcDbEntity
  8
VISIBLE
100
AcDbLine
 10
97.85664144324556
 20
27.64283490902293
 30
0.0
 11
97.10664144324557
 21
27.64283490902293
 31
0.0
  0
LINE
  5
226
330
1F
100
AcDbEntity
  8
VISIBLE
100
AcDbLine
 10
87.07539144324551
 20
27.64283490902293
 30
0.0
 11
86.32539144324564
 21
27.64283490902293
 31
0.0
  0
LINE
  5
227
330
1F
100
AcDbEntity
  8
VISIBLE
100
AcDbLine
 10
87.07539144324551
 20
39.04908490902293
 30
0.0
 11
87.07539144324551
 21
35.53345990902293
 31
0.0
  0
LINE
  5
228
330
1F
100
AcDbEntity
  8
VISIBLE
100
AcDbLine
 10
87.07539144324551
 20
35.53345990902293
 30
0.0
 11
86.32539144324564
 21
35.53345990902293
 31
0.0
  0
LINE
  5
229
330
1F
100
AcDbEntity
  8
VISIBLE
100
AcDbLine
 10
90.09101644324557
 20
39.81470990902293
 30
0.0
 11
90.09101644324557
 21
40.56470990902293
 31
0.0
  0
LINE
  5
22A
330
1F
100
AcDbEntity
  8
VISIBLE
100
AcDbLine
 10
97.85664144324556
 20
39.06470990902295
 30
0.0
 11
97.85664144324556
 21
35.53345990902293
 31
0.0
  0
LINE
  5
22B
330
1F
100
AcDbEntity
  8
VISIBLE
100
AcDbLine
 10
98.09101644324556
 20
41.04908490902293
 30
0.0
 11
86.09101644324551
 21
41.04908490902293
 31
0.0
  0
LINE
  5
22C
330
1F
100
AcDbEntity
  8
VISIBLE
100
AcDbLine
 10
86.32539144324564
 20
39.04908490902293
 30
0.0
 11
87.07539144324551
 21
39.04908490902293
 31
0.0
  0
DIMENSION
  5
331
102
{ACAD_XDICTIONARY
360
33F
102
}
102
{ACAD_REACTORS
330
34A
102
}
330
1F
100
AcDbEntity
  8
0
100
AcDbDimension
  2
*D4
 10
-4.916591047470918
 20
1.18531826132372
 30
0.0
 11
-4.916591047470916
 21
25.18531826132371
 31
0.0
 70
   160
 71
     5
 42
47.99999999999999
  3
Standard
100
AcDbAlignedDimension
 13
2.826219022293216
 23
49.18531826132372
 33
0.0
 14
2.826219022293231
 24
1.185318261323718
 34
0.0
 50
90.0
100
AcDbRotatedDimension
1001
ACAD
1000
DSTYLE
1002
{
1070
    41
1040
0.06
1070
   140
1040
1.0
1002
}
  0
DIMENSION
  5
35F
102
{ACAD_XDICTIONARY
360
36D
102
}
102
{ACAD_REACTORS
330
378
102
}
330
1F
100
AcDbEntity
  8
0
100
AcDbDimension
  2
*D5
 10
98.82621902229313
 20
53.84785040419422
 30
0.0
 11
50.82621902229317
 21
53.84785040419422
 31
0.0
 70
    32
 71
     5
 42
95.99999999999992
  3
Standard
100
AcDbAlignedDimension
 13
2.826219022293216
 23
49.18531826132372
 33
0.0
 14
98.82621902229313
 24
49.18531826132372
 34
0.0
100
AcDbRotatedDimension
1001
ACAD
1000
DSTYLE
1002
{
1070
    41
1040
0.06
1070
   140
1040
1.0
1002
}
  0
ENDSEC
  0
SECTION
  2
OBJECTS
  0
DICTIONARY
  5
C
330
0
100
AcDbDictionary
281
     1
  3
ACAD_GROUP
350
D
  3
ACAD_LAYOUT
350
1A
  3
ACAD_MATERIAL
350
3B
  3
ACAD_MLEADERSTYLE
350
2D7
  3
ACAD_MLINESTYLE
350
17
  3
ACAD_PLOTSETTINGS
350
19
  3
ACAD_PLOTSTYLENAME
350
E
  3
ACAD_SCALELIST
350
22F
  3
ACAD_VISUALSTYLE
350
2A
  3
AcDbVariableDictionary
350
2D5
  0
DICTIONARY
  5
33F
330
331
100
AcDbDictionary
280
     1
281
     1
  3
ACAD_DIMASSOC
360
34A
  0
DICTIONARY
  5
36D
330
35F
100
AcDbDictionary
280
     1
281
     1
  3
ACAD_DIMASSOC
360
378
  0
DICTIONARY
  5
D
102
{ACAD_REACTORS
330
C
102
}
330
C
100
AcDbDictionary
281
     1
  0
DICTIONARY
  5
1A
102
{ACAD_REACTORS
330
C
102
}
330
C
100
AcDbDictionary
281
     1
  3
Layout1
350
1E
  3
Layout2
350
26
  3
Model
350
22
  0
DICTIONARY
  5
3B
102
{ACAD_REACTORS
330
C
102
}
330
C
100
AcDbDictionary
281
     1
  3
ByBlock
350
3D
  3
ByLayer
350
3C
  3
Global
350
3E
  0
DICTIONARY
  5
2D7
102
{ACAD_REACTORS
330
C
102
}
330
C
100
AcDbDictionary
281
     1
  0
DICTIONARY
  5
17
102
{ACAD_REACTORS
330
C
102
}
330
C
100
AcDbDictionary
281
     1
  3
Standard
350
18
  0
DICTIONARY
  5
19
102
{ACAD_REACTORS
330
C
102
}
330
C
100
AcDbDictionary
281
     1
  0
ACDBDICTIONARYWDFLT
  5
E
102
{ACAD_REACTORS
330
C
102
}
330
C
100
AcDbDictionary
281
     1
  3
Normal
350
F
100
AcDbDictionaryWithDefault
340
F
  0
DICTIONARY
  5
22F
102
{ACAD_REACTORS
330
C
102
}
330
C
100
AcDbDictionary
281
     1
  3
A0
350
230
  3
A1
350
231
  3
A2
350
232
  3
A3
350
233
  3
A4
350
234
  3
A5
350
235
  3
A6
350
236
  3
A7
350
237
  3
A8
350
238
  3
A9
350
239
  3
B0
350
23A
  3
B1
350
23B
  3
B2
350
23C
  3
B3
350
23D
  3
B4
350
23E
  3
B5
350
23F
  3
B6
350
240
  3
B7
350
241
  3
B8
350
242
  3
B9
350
243
  3
C0
350
244
  3
C1
350
245
  3
C2
350
246
  3
C3
350
247
  3
C4
350
248
  3
C5
350
249
  3
C6
350
24A
  3
C7
350
24B
  3
C8
350
24C
  3
C9
350
24D
  3
D0
350
24E
  3
D1
350
24F
  3
D2
350
250
  0
DICTIONARY
  5
2A
102
{ACAD_REACTORS
330
C
102
}
330
C
100
AcDbDictionary
281
     1
  3
2dWireframe
350
2F
  3
3D Hidden
350
31
  3
3dWireframe
350
30
  3
Basic
350
32
  3
Brighten
350
36
  3
ColorChange
350
3A
  3
Conceptual
350
34
  3
Dim
350
35
  3
Facepattern
350
39
  3
Flat
350
2B
  3
FlatWithEdges
350
2C
  3
Gouraud
350
2D
  3
GouraudWithEdges
350
2E
  3
Linepattern
350
38
  3
Realistic
350
33
  3
Thicken
350
37
  0
DICTIONARY
  5
2D5
102
{ACAD_REACTORS
330
C
102
}
330
C
100
AcDbDictionary
281
     1
  3
CANNOSCALE
350
2D8
  3
DIMASSOC
350
2D9
  3
HIDETEXT
350
2DA
  0
DIMASSOC
  5
34A
102
{ACAD_REACTORS
330
33F
102
}
330
33F
100
AcDbDimAssoc
330
331
 90
        3
 70
     0
 71
     0
  1
AcDbOsnapPointRef
 72
     1
331
74
 73
     2
 91
        0
 40
1.0
 10
2.826219022293216
 20
49.18531826132372
 30
0.0
 75
     0
  1
AcDbOsnapPointRef
 72
     8
331
72
 73
     2
 91
        0
 40
0.0000000000000002
 10
2.826219022293231
 20
1.185318261323718
 30
0.0
 75
     1
  1
AcDbOsnapPointRef
 72
     1
331
74
 73
     2
 91
        0
 40
1.0
 10
2.826219022293216
 20
49.18531826132372
 30
0.0
 75
     0
  0
DIMASSOC
  5
378
102
{ACAD_REACTORS
330
36D
102
}
330
36D
100
AcDbDimAssoc
330
35F
 90
        3
 70
     0
 71
     0
  1
AcDbOsnapPointRef
 72
     1
331
74
 73
     2
 91
        0
 40
1.0
 10
2.826219022293216
 20
49.18531826132372
 30
0.0
 75
     0
  1
AcDbOsnapPointRef
 72
    13
331
74
 73
     2
 91
        0
 40
0.0
 10
98.82621902229313
 20
49.18531826132372
 30
0.0
 75
     0
  0
LAYOUT
  5
1E
102
{ACAD_REACTORS
330
1A
102
}
330
1A
100
AcDbPlotSettings
  1

  2
none_device
  4

  6

 40
0.0
 41
0.0
 42
0.0
 43
0.0
 44
0.0
 45
0.0
 46
0.0
 47
0.0
 48
0.0
 49
0.0
140
0.0
141
0.0
142
1.0
143
1.0
 70
   688
 72
     0
 73
     0
 74
     5
  7

 75
    16
147
1.0
148
0.0
149
0.0
100
AcDbLayout
  1
Layout1
 70
     1
 71
     1
 10
0.0
 20
0.0
 11
12.0
 21
9.0
 12
0.0
 22
0.0
 32
0.0
 14
1.000000000000000E+20
 24
1.000000000000000E+20
 34
1.000000000000000E+20
 15
-1.000000000000000E+20
 25
-1.000000000000000E+20
 35
-1.000000000000000E+20
146
0.0
 13
0.0
 23
0.0
 33
0.0
 16
1.0
 26
0.0
 36
0.0
 17
0.0
 27
1.0
 37
0.0
 76
     0
330
1B
  0
LAYOUT
  5
26
102
{ACAD_REACTORS
330
1A
102
}
330
1A
100
AcDbPlotSettings
  1

  2
none_device
  4

  6

 40
0.0
 41
0.0
 42
0.0
 43
0.0
 44
0.0
 45
0.0
 46
0.0
 47
0.0
 48
0.0
 49
0.0
140
0.0
141
0.0
142
1.0
143
1.0
 70
   688
 72
     0
 73
     0
 74
     5
  7

 75
    16
147
1.0
148
0.0
149
0.0
100
AcDbLayout
  1
Layout2
 70
     1
 71
     2
 10
0.0
 20
0.0
 11
0.0
 21
0.0
 12
0.0
 22
0.0
 32
0.0
 14
0.0
 24
0.0
 34
0.0
 15
0.0
 25
0.0
 35
0.0
146
0.0
 13
0.0
 23
0.0
 33
0.0
 16
1.0
 26
0.0
 36
0.0
 17
0.0
 27
1.0
 37
0.0
 76
     0
330
23
  0
LAYOUT
  5
22
102
{ACAD_REACTORS
330
1A
102
}
330
1A
100
AcDbPlotSettings
  1

  2
none_device
  4

  6

 40
0.0
 41
0.0
 42
0.0
 43
0.0
 44
0.0
 45
0.0
 46
0.0
 47
0.0
 48
0.0
 49
0.0
140
0.0
141
0.0
142
1.0
143
1.0
 70
  1712
 72
     0
 73
     0
 74
     0
  7

 75
     0
147
1.0
148
0.0
149
0.0
100
AcDbLayout
  1
Model
 70
     1
 71
     0
 10
0.0
 20
0.0
 11
12.0
 21
9.0
 12
0.0
 22
0.0
 32
0.0
 14
1.000000000000000E+20
 24
1.000000000000000E+20
 34
1.000000000000000E+20
 15
-1.000000000000000E+20
 25
-1.000000000000000E+20
 35
-1.000000000000000E+20
146
0.0
 13
0.0
 23
0.0
 33
0.0
 16
1.0
 26
0.0
 36
0.0
 17
0.0
 27
1.0
 37
0.0
 76
     0
330
1F
331
29
  0
MATERIAL
  5
3D
102
{ACAD_XDICTIONARY
360
2FD
102
}
102
{ACAD_REACTORS
330
3B
102
}
330
3B
100
AcDbMaterial
  1
ByBlock
  0
MATERIAL
  5
3C
102
{ACAD_XDICTIONARY
360
2FB
102
}
102
{ACAD_REACTORS
330
3B
102
}
330
3B
100
AcDbMaterial
  1
ByLayer
  0
MATERIAL
  5
3E
102
{ACAD_XDICTIONARY
360
2FF
102
}
102
{ACAD_REACTORS
330
3B
102
}
330
3B
100
AcDbMaterial
  1
Global
  0
MLINESTYLE
  5
18
102
{ACAD_REACTORS
330
17
102
}
330
17
100
AcDbMlineStyle
  2
STANDARD
 70
     0
  3

 62
   256
 51
90.0
 52
90.0
 71
     2
 49
0.5
 62
   256
  6
BYLAYER
 49
-0.5
 62
   256
  6
BYLAYER
  0
ACDBPLACEHOLDER
  5
F
102
{ACAD_REACTORS
330
E
102
}
330
E
  0
SCALE
  5
230
102
{ACAD_REACTORS
330
22F
102
}
330
22F
100
AcDbScale
 70
     0
300
1:1
140
1.0
141
1.0
290
     1
  0
SCALE
  5
231
102
{ACAD_REACTORS
330
22F
102
}
330
22F
100
AcDbScale
 70
     0
300
1:2
140
1.0
141
2.0
290
     0
  0
SCALE
  5
232
102
{ACAD_REACTORS
330
22F
102
}
330
22F
100
AcDbScale
 70
     0
300
1:4
140
1.0
141
4.0
290
     0
  0
SCALE
  5
233
102
{ACAD_REACTORS
330
22F
102
}
330
22F
100
AcDbScale
 70
     0
300
1:5
140
1.0
141
5.0
290
     0
  0
SCALE
  5
234
102
{ACAD_REACTORS
330
22F
102
}
330
22F
100
AcDbScale
 70
     0
300
1:8
140
1.0
141
8.0
290
     0
  0
SCALE
  5
235
102
{ACAD_REACTORS
330
22F
102
}
330
22F
100
AcDbScale
 70
     0
300
1:10
140
1.0
141
10.0
290
     0
  0
SCALE
  5
236
102
{ACAD_REACTORS
330
22F
102
}
330
22F
100
AcDbScale
 70
     0
300
1:16
140
1.0
141
16.0
290
     0
  0
SCALE
  5
237
102
{ACAD_REACTORS
330
22F
102
}
330
22F
100
AcDbScale
 70
     0
300
1:20
140
1.0
141
20.0
290
     0
  0
SCALE
  5
238
102
{ACAD_REACTORS
330
22F
102
}
330
22F
100
AcDbScale
 70
     0
300
1:30
140
1.0
141
30.0
290
     0
  0
SCALE
  5
239
102
{ACAD_REACTORS
330
22F
102
}
330
22F
100
AcDbScale
 70
     0
300
1:40
140
1.0
141
40.0
290
     0
  0
SCALE
  5
23A
102
{ACAD_REACTORS
330
22F
102
}
330
22F
100
AcDbScale
 70
     0
300
1:50
140
1.0
141
50.0
290
     0
  0
SCALE
  5
23B
102
{ACAD_REACTORS
330
22F
102
}
330
22F
100
AcDbScale
 70
     0
300
1:100
140
1.0
141
100.0
290
     0
  0
SCALE
  5
23C
102
{ACAD_REACTORS
330
22F
102
}
330
22F
100
AcDbScale
 70
     0
300
2:1
140
2.0
141
1.0
290
     0
  0
SCALE
  5
23D
102
{ACAD_REACTORS
330
22F
102
}
330
22F
100
AcDbScale
 70
     0
300
4:1
140
4.0
141
1.0
290
     0
  0
SCALE
  5
23E
102
{ACAD_REACTORS
330
22F
102
}
330
22F
100
AcDbScale
 70
     0
300
8:1
140
8.0
141
1.0
290
     0
  0
SCALE
  5
23F
102
{ACAD_REACTORS
330
22F
102
}
330
22F
100
AcDbScale
 70
     0
300
10:1
140
10.0
141
1.0
290
     0
  0
SCALE
  5
240
102
{ACAD_REACTORS
330
22F
102
}
330
22F
100
AcDbScale
 70
     0
300
100:1
140
100.0
141
1.0
290
     0
  0
SCALE
  5
241
102
{ACAD_REACTORS
330
22F
102
}
330
22F
100
AcDbScale
 70
     0
300
1/128" = 1'-0"
140
0.0078125
141
12.0
290
     0
  0
SCALE
  5
242
102
{ACAD_REACTORS
330
22F
102
}
330
22F
100
AcDbScale
 70
     0
300
1/64" = 1'-0"
140
0.015625
141
12.0
290
     0
  0
SCALE
  5
243
102
{ACAD_REACTORS
330
22F
102
}
330
22F
100
AcDbScale
 70
     0
300
1/32" = 1'-0"
140
0.03125
141
12.0
290
     0
  0
SCALE
  5
244
102
{ACAD_REACTORS
330
22F
102
}
330
22F
100
AcDbScale
 70
     0
300
1/16" = 1'-0"
140
0.0625
141
12.0
290
     0
  0
SCALE
  5
245
102
{ACAD_REACTORS
330
22F
102
}
330
22F
100
AcDbScale
 70
     0
300
3/32" = 1'-0"
140
0.09375
141
12.0
290
     0
  0
SCALE
  5
246
102
{ACAD_REACTORS
330
22F
102
}
330
22F
100
AcDbScale
 70
     0
300
1/8" = 1'-0"
140
0.125
141
12.0
290
     0
  0
SCALE
  5
247
102
{ACAD_REACTORS
330
22F
102
}
330
22F
100
AcDbScale
 70
     0
300
3/16" = 1'-0"
140
0.1875
141
12.0
290
     0
  0
SCALE
  5
248
102
{ACAD_REACTORS
330
22F
102
}
330
22F
100
AcDbScale
 70
     0
300
1/4" = 1'-0"
140
0.25
141
12.0
290
     0
  0
SCALE
  5
249
102
{ACAD_REACTORS
330
22F
102
}
330
22F
100
AcDbScale
 70
     0
300
3/8" = 1'-0"
140
0.375
141
12.0
290
     0
  0
SCALE
  5
24A
102
{ACAD_REACTORS
330
22F
102
}
330
22F
100
AcDbScale
 70
     0
300
1/2" = 1'-0"
140
0.5
141
12.0
290
     0
  0
SCALE
  5
24B
102
{ACAD_REACTORS
330
22F
102
}
330
22F
100
AcDbScale
 70
     0
300
3/4" = 1'-0"
140
0.75
141
12.0
290
     0
  0
SCALE
  5
24C
102
{ACAD_REACTORS
330
22F
102
}
330
22F
100
AcDbScale
 70
     0
300
1" = 1'-0"
140
1.0
141
12.0
290
     0
  0
SCALE
  5
24D
102
{ACAD_REACTORS
330
22F
102
}
330
22F
100
AcDbScale
 70
     0
300
1-1/2" = 1'-0"
140
1.5
141
12.0
290
     0
  0
SCALE
  5
24E
102
{ACAD_REACTORS
330
22F
102
}
330
22F
100
AcDbScale
 70
     0
300
3" = 1'-0"
140
3.0
141
12.0
290
     0
  0
SCALE
  5
24F
102
{ACAD_REACTORS
330
22F
102
}
330
22F
100
AcDbScale
 70
     0
300
6" = 1'-0"
140
6.0
141
12.0
290
     0
  0
SCALE
  5
250
102
{ACAD_REACTORS
330
22F
102
}
330
22F
100
AcDbScale
 70
     0
300
1'-0" = 1'-0"
140
12.0
141
12.0
290
     0
  0
VISUALSTYLE
  5
2F
102
{ACAD_XDICTIONARY
360
2E3
102
}
102
{ACAD_REACTORS
330
2A
102
}
330
2A
100
AcDbVisualStyle
  2
2dWireframe
 70
     4
 71
     0
 72
     2
 73
     0
 90
        0
 40
-0.6
 41
-30.0
 62
     5
 63
     7
 74
     1
 91
        4
 64
     7
 65
   257
 75
     1
175
     1
 42
1.0
 92
        0
 66
   257
 43
1.0
 76
     1
 77
     6
 78
     2
 67
     7
 79
     5
170
     0
171
     0
290
     0
174
     0
 93
        1
 44
0.0
173
     0
291
     0
 45
0.0
1001
ACAD
1000
AcDbSavedByObjectVersion
1070
     0
  0
VISUALSTYLE
  5
31
102
{ACAD_XDICTIONARY
360
2E7
102
}
102
{ACAD_REACTORS
330
2A
102
}
330
2A
100
AcDbVisualStyle
  2
3D Hidden
 70
     6
 71
     1
 72
     2
 73
     2
 90
        0
 40
-0.6
 41
-30.0
 62
     5
 63
     7
 74
     2
 91
        2
 64
     7
 65
   257
 75
     2
175
     1
 42
40.0
 92
        0
 66
   257
 43
1.0
 76
     1
 77
     6
 78
     2
 67
     7
 79
     3
170
     0
171
     0
290
     0
174
     0
 93
        1
 44
0.0
173
     0
291
     0
 45
0.0
1001
ACAD
1000
AcDbSavedByObjectVersion
1070
     0
  0
VISUALSTYLE
  5
30
102
{ACAD_XDICTIONARY
360
2E5
102
}
102
{ACAD_REACTORS
330
2A
102
}
330
2A
100
AcDbVisualStyle
  2
3dWireframe
 70
     5
 71
     0
 72
     2
 73
     0
 90
        0
 40
-0.6
 41
-30.0
 62
     5
 63
     7
 74
     1
 91
        4
 64
     7
 65
   257
 75
     1
175
     1
 42
1.0
 92
        0
 66
   257
 43
1.0
 76
     1
 77
     6
 78
     2
 67
     7
 79
     5
170
     0
171
     0
290
     0
174
     0
 93
        1
 44
0.0
173
     0
291
     0
 45
0.0
1001
ACAD
1000
AcDbSavedByObjectVersion
1070
     0
  0
VISUALSTYLE
  5
32
102
{ACAD_XDICTIONARY
360
2E9
102
}
102
{ACAD_REACTORS
330
2A
102
}
330
2A
100
AcDbVisualStyle
  2
Basic
 70
     7
 71
     1
 72
     0
 73
     1
 90
        0
 40
-0.6
 41
-30.0
 62
     5
 63
     7
 74
     0
 91
        4
 64
     7
 65
   257
 75
     1
175
     1
 42
1.0
 92
        8
 66
     7
 43
1.0
 76
     1
 77
     6
 78
     2
 67
     7
 79
     5
170
     0
171
     0
290
     0
174
     0
 93
        1
 44
0.0
173
     0
291
     1
 45
0.0
1001
ACAD
1000
AcDbSavedByObjectVersion
1070
     0
  0
VISUALSTYLE
  5
36
102
{ACAD_XDICTIONARY
360
2F1
102
}
102
{ACAD_REACTORS
330
2A
102
}
330
2A
100
AcDbVisualStyle
  2
Brighten
 70
    12
 71
     2
 72
     2
 73
     0
 90
        0
 40
-0.6
 41
-30.0
 62
     5
 63
     7
 74
     1
 91
        4
 64
     7
 65
   257
 75
     1
175
     1
 42
1.0
 92
        8
 66
     7
 43
1.0
 76
     1
 77
     6
 78
     2
 67
     7
 79
     5
170
     0
171
     0
290
     0
174
     0
 93
        1
 44
50.0
173
     0
291
     1
 45
0.0
1001
ACAD
1000
AcDbSavedByObjectVersion
1070
     0
  0
VISUALSTYLE
  5
3A
102
{ACAD_XDICTIONARY
360
2F9
102
}
102
{ACAD_REACTORS
330
2A
102
}
330
2A
100
AcDbVisualStyle
  2
ColorChange
 70
    16
 71
     2
 72
     2
 73
     3
 90
        0
 40
-0.6
 41
-30.0
 62
     5
 63
     8
 74
     1
 91
        4
 64
     7
 65
   257
 75
     1
175
     1
 42
1.0
 92
        8
 66
     8
 43
1.0
 76
     1
 77
     6
 78
     2
 67
     7
 79
     5
170
     0
171
     0
290
     0
174
     0
 93
        1
 44
0.0
173
     0
291
     1
 45
0.0
1001
ACAD
1000
AcDbSavedByObjectVersion
1070
     0
  0
VISUALSTYLE
  5
34
102
{ACAD_XDICTIONARY
360
2ED
102
}
102
{ACAD_REACTORS
330
2A
102
}
330
2A
100
AcDbVisualStyle
  2
Conceptual
 70
     9
 71
     3
 72
     2
 73
     0
 90
        0
 40
-0.6
 41
-30.0
 62
     5
 63
     7
 74
     2
 91
        2
 64
     7
 65
   257
 75
     1
175
     1
 42
40.0
 92
        8
 66
     7
 43
1.0
 76
     1
 77
     6
 78
     2
 67
     7
 79
     3
170
     0
171
     0
290
     0
174
     0
 93
        1
 44
0.0
173
     0
291
     0
 45
0.0
1001
ACAD
1000
AcDbSavedByObjectVersion
1070
     0
  0
VISUALSTYLE
  5
35
102
{ACAD_XDICTIONARY
360
2EF
102
}
102
{ACAD_REACTORS
330
2A
102
}
330
2A
100
AcDbVisualStyle
  2
Dim
 70
    11
 71
     2
 72
     2
 73
     0
 90
        0
 40
-0.6
 41
-30.0
 62
     5
 63
     7
 74
     1
 91
        4
 64
     7
 65
   257
 75
     1
175
     1
 42
1.0
 92
        8
 66
     7
 43
1.0
 76
     1
 77
     6
 78
     2
 67
     7
 79
     5
170
     0
171
     0
290
     0
174
     0
 93
        1
 44
-50.0
173
     0
291
     1
 45
0.0
1001
ACAD
1000
AcDbSavedByObjectVersion
1070
     0
  0
VISUALSTYLE
  5
39
102
{ACAD_XDICTIONARY
360
2F7
102
}
102
{ACAD_REACTORS
330
2A
102
}
330
2A
100
AcDbVisualStyle
  2
Facepattern
 70
    15
 71
     2
 72
     2
 73
     0
 90
        0
 40
-0.6
 41
-30.0
 62
     5
 63
     7
 74
     1
 91
        4
 64
     7
 65
   257
 75
     1
175
     1
 42
1.0
 92
        8
 66
     7
 43
1.0
 76
     1
 77
     6
 78
     2
 67
     7
 79
     5
170
     0
171
     0
290
     0
174
     0
 93
        1
 44
0.0
173
     0
291
     1
 45
0.0
1001
ACAD
1000
AcDbSavedByObjectVersion
1070
     0
  0
VISUALSTYLE
  5
2B
102
{ACAD_XDICTIONARY
360
2DB
102
}
102
{ACAD_REACTORS
330
2A
102
}
330
2A
100
AcDbVisualStyle
  2
Flat
 70
     0
 71
     2
 72
     1
 73
     1
 90
        2
 40
-0.6
 41
30.0
 62
     5
 63
     7
 74
     0
 91
        4
 64
     7
 65
   257
 75
     1
175
     1
 42
1.0
 92
        8
 66
     7
 43
1.0
 76
     1
 77
     6
 78
     2
 67
     7
 79
     5
170
     0
171
     0
290
     0
174
     0
 93
       13
 44
0.0
173
     0
291
     1
 45
0.0
1001
ACAD
1000
AcDbSavedByObjectVersion
1070
     0
  0
VISUALSTYLE
  5
2C
102
{ACAD_XDICTIONARY
360
2DD
102
}
102
{ACAD_REACTORS
330
2A
102
}
330
2A
100
AcDbVisualStyle
  2
FlatWithEdges
 70
     1
 71
     2
 72
     1
 73
     1
 90
        2
 40
-0.6
 41
30.0
 62
     5
 63
     7
 74
     1
 91
        4
 64
     7
 65
   257
 75
     1
175
     1
 42
1.0
 92
        0
 66
   257
 43
1.0
 76
     1
 77
     6
 78
     2
 67
     7
 79
     5
170
     0
171
     0
290
     0
174
     0
 93
       13
 44
0.0
173
     0
291
     1
 45
0.0
1001
ACAD
1000
AcDbSavedByObjectVersion
1070
     0
  0
VISUALSTYLE
  5
2D
102
{ACAD_XDICTIONARY
360
2DF
102
}
102
{ACAD_REACTORS
330
2A
102
}
330
2A
100
AcDbVisualStyle
  2
Gouraud
 70
     2
 71
     2
 72
     2
 73
     1
 90
        2
 40
-0.6
 41
30.0
 62
     5
 63
     7
 74
     0
 91
        4
 64
     7
 65
   257
 75
     1
175
     1
 42
1.0
 92
        0
 66
     7
 43
1.0
 76
     1
 77
     6
 78
     2
 67
     7
 79
     5
170
     0
171
     0
290
     0
174
     0
 93
       13
 44
0.0
173
     0
291
     1
 45
0.0
1001
ACAD
1000
AcDbSavedByObjectVersion
1070
     0
  0
VISUALSTYLE
  5
2E
102
{ACAD_XDICTIONARY
360
2E1
102
}
102
{ACAD_REACTORS
330
2A
102
}
330
2A
100
AcDbVisualStyle
  2
GouraudWithEdges
 70
     3
 71
     2
 72
     2
 73
     1
 90
        2
 40
-0.6
 41
30.0
 62
     5
 63
     7
 74
     1
 91
        4
 64
     7
 65
   257
 75
     1
175
     1
 42
1.0
 92
        0
 66
   257
 43
1.0
 76
     1
 77
     6
 78
     2
 67
     7
 79
     5
170
     0
171
     0
290
     0
174
     0
 93
       13
 44
0.0
173
     0
291
     1
 45
0.0
1001
ACAD
1000
AcDbSavedByObjectVersion
1070
     0
  0
VISUALSTYLE
  5
38
102
{ACAD_XDICTIONARY
360
2F5
102
}
102
{ACAD_REACTORS
330
2A
102
}
330
2A
100
AcDbVisualStyle
  2
Linepattern
 70
    14
 71
     2
 72
     2
 73
     0
 90
        0
 40
-0.6
 41
-30.0
 62
     5
 63
     7
 74
     1
 91
        4
 64
     7
 65
   257
 75
     7
175
     7
 42
1.0
 92
        8
 66
     7
 43
1.0
 76
     1
 77
     6
 78
     2
 67
     7
 79
     5
170
     0
171
     0
290
     0
174
     0
 93
        1
 44
0.0
173
     0
291
     1
 45
0.0
1001
ACAD
1000
AcDbSavedByObjectVersion
1070
     0
  0
VISUALSTYLE
  5
33
102
{ACAD_XDICTIONARY
360
2EB
102
}
102
{ACAD_REACTORS
330
2A
102
}
330
2A
100
AcDbVisualStyle
  2
Realistic
 70
     8
 71
     2
 72
     2
 73
     0
 90
        0
 40
-0.6
 41
-30.0
 62
     5
 63
     7
 74
     1
 91
        0
 64
     7
 65
   257
 75
     1
175
     1
 42
1.0
 92
        8
 66
     8
 43
1.0
 76
     1
 77
     6
 78
     2
 67
     7
 79
     5
170
     0
171
     0
290
     0
174
     0
 93
       13
 44
0.0
173
     0
291
     0
 45
0.0
1001
ACAD
1000
AcDbSavedByObjectVersion
1070
     0
  0
VISUALSTYLE
  5
37
102
{ACAD_XDICTIONARY
360
2F3
102
}
102
{ACAD_REACTORS
330
2A
102
}
330
2A
100
AcDbVisualStyle
  2
Thicken
 70
    13
 71
     2
 72
     2
 73
     0
 90
        0
 40
-0.6
 41
-30.0
 62
     5
 63
     7
 74
     1
 91
        4
 64
     7
 65
   257
 75
     1
175
     1
 42
1.0
 92
       12
 66
     7
 43
1.0
 76
     1
 77
     6
 78
     2
 67
     7
 79
     5
170
     0
171
     0
290
     0
174
     0
 93
        1
 44
0.0
173
     0
291
     1
 45
0.0
1001
ACAD
1000
AcDbSavedByObjectVersion
1070
     0
  0
DICTIONARYVAR
  5
2D8
102
{ACAD_REACTORS
330
2D5
102
}
330
2D5
100
DictionaryVariables
280
     0
  1
1:1
  0
DICTIONARYVAR
  5
2D9
102
{ACAD_REACTORS
330
2D5
102
}
330
2D5
100
DictionaryVariables
280
     0
  1
2
  0
DICTIONARYVAR
  5
2DA
102
{ACAD_REACTORS
330
2D5
102
}
330
2D5
100
DictionaryVariables
280
     0
  1
1
  0
DICTIONARY
  5
2FD
330
3D
100
AcDbDictionary
280
     1
281
     1
  3
ACAD_XREC_ROUNDTRIP
360
2FE
  0
DICTIONARY
  5
2FB
330
3C
100
AcDbDictionary
280
     1
281
     1
  3
ACAD_XREC_ROUNDTRIP
360
2FC
  0
DICTIONARY
  5
2FF
330
3E
100
AcDbDictionary
280
     1
281
     1
  3
ACAD_XREC_ROUNDTRIP
360
300
  0
DICTIONARY
  5
2E3
330
2F
100
AcDbDictionary
280
     1
281
     1
  3
ACAD_XREC_ROUNDTRIP
360
2E4
  0
DICTIONARY
  5
2E7
330
31
100
AcDbDictionary
280
     1
281
     1
  3
ACAD_XREC_ROUNDTRIP
360
2E8
  0
DICTIONARY
  5
2E5
330
30
100
AcDbDictionary
280
     1
281
     1
  3
ACAD_XREC_ROUNDTRIP
360
2E6
  0
DICTIONARY
  5
2E9
330
32
100
AcDbDictionary
280
     1
281
     1
  3
ACAD_XREC_ROUNDTRIP
360
2EA
  0
DICTIONARY
  5
2F1
330
36
100
AcDbDictionary
280
     1
281
     1
  3
ACAD_XREC_ROUNDTRIP
360
2F2
  0
DICTIONARY
  5
2F9
330
3A
100
AcDbDictionary
280
     1
281
     1
  3
ACAD_XREC_ROUNDTRIP
360
2FA
  0
DICTIONARY
  5
2ED
330
34
100
AcDbDictionary
280
     1
281
     1
  3
ACAD_XREC_ROUNDTRIP
360
2EE
  0
DICTIONARY
  5
2EF
330
35
100
AcDbDictionary
280
     1
281
     1
  3
ACAD_XREC_ROUNDTRIP
360
2F0
  0
DICTIONARY
  5
2F7
330
39
100
AcDbDictionary
280
     1
281
     1
  3
ACAD_XREC_ROUNDTRIP
360
2F8
  0
DICTIONARY
  5
2DB
330
2B
100
AcDbDictionary
280
     1
281
     1
  3
ACAD_XREC_ROUNDTRIP
360
2DC
  0
DICTIONARY
  5
2DD
330
2C
100
AcDbDictionary
280
     1
281
     1
  3
ACAD_XREC_ROUNDTRIP
360
2DE
  0
DICTIONARY
  5
2DF
330
2D
100
AcDbDictionary
280
     1
281
     1
  3
ACAD_XREC_ROUNDTRIP
360
2E0
  0
DICTIONARY
  5
2E1
330
2E
100
AcDbDictionary
280
     1
281
     1
  3
ACAD_XREC_ROUNDTRIP
360
2E2
  0
DICTIONARY
  5
2F5
330
38
100
AcDbDictionary
280
     1
281
     1
  3
ACAD_XREC_ROUNDTRIP
360
2F6
  0
DICTIONARY
  5
2EB
330
33
100
AcDbDictionary
280
     1
281
     1
  3
ACAD_XREC_ROUNDTRIP
360
2EC
  0
DICTIONARY
  5
2F3
330
37
100
AcDbDictionary
280
     1
281
     1
  3
ACAD_XREC_ROUNDTRIP
360
2F4
  0
XRECORD
  5
2FE
102
{ACAD_REACTORS
330
2FD
102
}
330
2FD
100
AcDbXrecord
280
     1
102
MATERIAL
148
0.0
149
0.0
149
0.0
 93
        0
 94
      127
282
     0
 72
     1
 77
     1
171
     1
175
     1
179
     1
273
     0
  0
XRECORD
  5
2FC
102
{ACAD_REACTORS
330
2FB
102
}
330
2FB
100
AcDbXrecord
280
     1
102
MATERIAL
148
0.0
149
0.0
149
0.0
 93
        0
 94
      127
282
     0
 72
     1
 77
     1
171
     1
175
     1
179
     1
273
     0
  0
XRECORD
  5
300
102
{ACAD_REACTORS
330
2FF
102
}
330
2FF
100
AcDbXrecord
280
     1
102
MATERIAL
148
0.0
149
0.0
149
0.0
 93
        0
 94
      127
282
     0
 72
     1
 77
     1
171
     1
175
     1
179
     1
273
     0
  0
XRECORD
  5
2E4
102
{ACAD_REACTORS
330
2E3
102
}
330
2E3
100
AcDbXrecord
280
     1
102
RTVSPropertyOp0
 70
     1
102
RTVSPropertyOp1
 70
     1
102
RTVSPropertyOp2
 70
     1
102
RTVSPropertyOp3
 70
     1
102
RTVSPropertyOp4
 70
     1
102
RTVSPropertyOp5
 70
     1
102
RTVSPropertyOp6
 70
     1
102
RTVSPropertyOp7
 70
     1
102
RTVSPropertyOp8
 70
     1
102
RTVSPropertyOp9
 70
     1
102
RTVSPropertyOp10
 70
     1
102
RTVSPropertyOp11
 70
     1
102
RTVSPropertyOp12
 70
     1
102
RTVSPropertyOp13
 70
     1
102
RTVSPropertyOp14
 70
     1
102
RTVSPropertyOp15
 70
     1
102
RTVSPropertyOp16
 70
     1
102
RTVSPropertyOp17
 70
     1
102
RTVSPropertyOp18
 70
     1
102
RTVSPropertyOp19
 70
     1
102
RTVSPropertyOp20
 70
     1
102
RTVSPropertyOp21
 70
     1
102
RTVSPropertyOp22
 70
     1
102
RTVSPropertyOp23
 70
     1
102
RTVSPropertyOp24
 70
     1
102
RTVSPropertyOp25
 70
     1
102
RTVSPropertyOp26
 70
     1
102
RTVSPropertyOp27
 70
     1
  0
XRECORD
  5
2E8
102
{ACAD_REACTORS
330
2E7
102
}
330
2E7
100
AcDbXrecord
280
     1
102
RTVSPropertyOp0
 70
     1
102
RTVSPropertyOp1
 70
     1
102
RTVSPropertyOp2
 70
     1
102
RTVSPropertyOp3
 70
     1
102
RTVSPropertyOp4
 70
     1
102
RTVSPropertyOp5
 70
     1
102
RTVSPropertyOp6
 70
     1
102
RTVSPropertyOp7
 70
     1
102
RTVSPropertyOp8
 70
     1
102
RTVSPropertyOp9
 70
     1
102
RTVSPropertyOp10
 70
     1
102
RTVSPropertyOp11
 70
     1
102
RTVSPropertyOp12
 70
     1
102
RTVSPropertyOp13
 70
     1
102
RTVSPropertyOp14
 70
     1
102
RTVSPropertyOp15
 70
     1
102
RTVSPropertyOp16
 70
     1
102
RTVSPropertyOp17
 70
     1
102
RTVSPropertyOp18
 70
     1
102
RTVSPropertyOp19
 70
     1
102
RTVSPropertyOp20
 70
     1
102
RTVSPropertyOp21
 70
     1
102
RTVSPropertyOp22
 70
     1
102
RTVSPropertyOp23
 70
     1
102
RTVSPropertyOp24
 70
     1
102
RTVSPropertyOp25
 70
     1
102
RTVSPropertyOp26
 70
     1
102
RTVSPropertyOp27
 70
     1
  0
XRECORD
  5
2E6
102
{ACAD_REACTORS
330
2E5
102
}
330
2E5
100
AcDbXrecord
280
     1
102
RTVSPropertyOp0
 70
     1
102
RTVSPropertyOp1
 70
     1
102
RTVSPropertyOp2
 70
     1
102
RTVSPropertyOp3
 70
     1
102
RTVSPropertyOp4
 70
     1
102
RTVSPropertyOp5
 70
     1
102
RTVSPropertyOp6
 70
     1
102
RTVSPropertyOp7
 70
     1
102
RTVSPropertyOp8
 70
     1
102
RTVSPropertyOp9
 70
     1
102
RTVSPropertyOp10
 70
     1
102
RTVSPropertyOp11
 70
     1
102
RTVSPropertyOp12
 70
     1
102
RTVSPropertyOp13
 70
     1
102
RTVSPropertyOp14
 70
     1
102
RTVSPropertyOp15
 70
     1
102
RTVSPropertyOp16
 70
     1
102
RTVSPropertyOp17
 70
     1
102
RTVSPropertyOp18
 70
     1
102
RTVSPropertyOp19
 70
     1
102
RTVSPropertyOp20
 70
     1
102
RTVSPropertyOp21
 70
     1
102
RTVSPropertyOp22
 70
     1
102
RTVSPropertyOp23
 70
     1
102
RTVSPropertyOp24
 70
     1
102
RTVSPropertyOp25
 70
     1
102
RTVSPropertyOp26
 70
     1
102
RTVSPropertyOp27
 70
     1
  0
XRECORD
  5
2EA
102
{ACAD_REACTORS
330
2E9
102
}
330
2E9
100
AcDbXrecord
280
     1
102
RTVSPropertyOp0
 70
     1
102
RTVSPropertyOp1
 70
     1
102
RTVSPropertyOp2
 70
     1
102
RTVSPropertyOp3
 70
     1
102
RTVSPropertyOp4
 70
     1
102
RTVSPropertyOp5
 70
     1
102
RTVSPropertyOp6
 70
     1
102
RTVSPropertyOp7
 70
     1
102
RTVSPropertyOp8
 70
     1
102
RTVSPropertyOp9
 70
     1
102
RTVSPropertyOp10
 70
     1
102
RTVSPropertyOp11
 70
     1
102
RTVSPropertyOp12
 70
     1
102
RTVSPropertyOp13
 70
     1
102
RTVSPropertyOp14
 70
     1
102
RTVSPropertyOp15
 70
     1
102
RTVSPropertyOp16
 70
     1
102
RTVSPropertyOp17
 70
     1
102
RTVSPropertyOp18
 70
     1
102
RTVSPropertyOp19
 70
     1
102
RTVSPropertyOp20
 70
     1
102
RTVSPropertyOp21
 70
     1
102
RTVSPropertyOp22
 70
     1
102
RTVSPropertyOp23
 70
     1
102
RTVSPropertyOp24
 70
     1
102
RTVSPropertyOp25
 70
     1
102
RTVSPropertyOp26
 70
     1
102
RTVSPropertyOp27
 70
     1
  0
XRECORD
  5
2F2
102
{ACAD_REACTORS
330
2F1
102
}
330
2F1
100
AcDbXrecord
280
     1
102
RTVSPropertyOp0
 70
     1
102
RTVSPropertyOp1
 70
     1
102
RTVSPropertyOp2
 70
     1
102
RTVSPropertyOp3
 70
     1
102
RTVSPropertyOp4
 70
     1
102
RTVSPropertyOp5
 70
     1
102
RTVSPropertyOp6
 70
     1
102
RTVSPropertyOp7
 70
     1
102
RTVSPropertyOp8
 70
     1
102
RTVSPropertyOp9
 70
     1
102
RTVSPropertyOp10
 70
     1
102
RTVSPropertyOp11
 70
     1
102
RTVSPropertyOp12
 70
     1
102
RTVSPropertyOp13
 70
     1
102
RTVSPropertyOp14
 70
     1
102
RTVSPropertyOp15
 70
     1
102
RTVSPropertyOp16
 70
     1
102
RTVSPropertyOp17
 70
     1
102
RTVSPropertyOp18
 70
     1
102
RTVSPropertyOp19
 70
     1
102
RTVSPropertyOp20
 70
     1
102
RTVSPropertyOp21
 70
     1
102
RTVSPropertyOp22
 70
     1
102
RTVSPropertyOp23
 70
     1
102
RTVSPropertyOp24
 70
     1
102
RTVSPropertyOp25
 70
     1
102
RTVSPropertyOp26
 70
     1
102
RTVSPropertyOp27
 70
     1
  0
XRECORD
  5
2FA
102
{ACAD_REACTORS
330
2F9
102
}
330
2F9
100
AcDbXrecord
280
     1
102
RTVSPropertyOp0
 70
     1
102
RTVSPropertyOp1
 70
     1
102
RTVSPropertyOp2
 70
     1
102
RTVSPropertyOp3
 70
     1
102
RTVSPropertyOp4
 70
     1
102
RTVSPropertyOp5
 70
     1
102
RTVSPropertyOp6
 70
     1
102
RTVSPropertyOp7
 70
     1
102
RTVSPropertyOp8
 70
     1
102
RTVSPropertyOp9
 70
     1
102
RTVSPropertyOp10
 70
     1
102
RTVSPropertyOp11
 70
     1
102
RTVSPropertyOp12
 70
     1
102
RTVSPropertyOp13
 70
     1
102
RTVSPropertyOp14
 70
     1
102
RTVSPropertyOp15
 70
     1
102
RTVSPropertyOp16
 70
     1
102
RTVSPropertyOp17
 70
     1
102
RTVSPropertyOp18
 70
     1
102
RTVSPropertyOp19
 70
     1
102
RTVSPropertyOp20
 70
     1
102
RTVSPropertyOp21
 70
     1
102
RTVSPropertyOp22
 70
     1
102
RTVSPropertyOp23
 70
     1
102
RTVSPropertyOp24
 70
     1
102
RTVSPropertyOp25
 70
     1
102
RTVSPropertyOp26
 70
     1
102
RTVSPropertyOp27
 70
     1
  0
XRECORD
  5
2EE
102
{ACAD_REACTORS
330
2ED
102
}
330
2ED
100
AcDbXrecord
280
     1
102
RTVSPropertyOp0
 70
     1
102
RTVSPropertyOp1
 70
     1
102
RTVSPropertyOp2
 70
     1
102
RTVSPropertyOp3
 70
     1
102
RTVSPropertyOp4
 70
     1
102
RTVSPropertyOp5
 70
     1
102
RTVSPropertyOp6
 70
     1
102
RTVSPropertyOp7
 70
     1
102
RTVSPropertyOp8
 70
     1
102
RTVSPropertyOp9
 70
     1
102
RTVSPropertyOp10
 70
     1
102
RTVSPropertyOp11
 70
     1
102
RTVSPropertyOp12
 70
     1
102
RTVSPropertyOp13
 70
     1
102
RTVSPropertyOp14
 70
     1
102
RTVSPropertyOp15
 70
     1
102
RTVSPropertyOp16
 70
     1
102
RTVSPropertyOp17
 70
     1
102
RTVSPropertyOp18
 70
     1
102
RTVSPropertyOp19
 70
     1
102
RTVSPropertyOp20
 70
     1
102
RTVSPropertyOp21
 70
     1
102
RTVSPropertyOp22
 70
     1
102
RTVSPropertyOp23
 70
     1
102
RTVSPropertyOp24
 70
     1
102
RTVSPropertyOp25
 70
     1
102
RTVSPropertyOp26
 70
     1
102
RTVSPropertyOp27
 70
     1
  0
XRECORD
  5
2F0
102
{ACAD_REACTORS
330
2EF
102
}
330
2EF
100
AcDbXrecord
280
     1
102
RTVSPropertyOp0
 70
     1
102
RTVSPropertyOp1
 70
     1
102
RTVSPropertyOp2
 70
     1
102
RTVSPropertyOp3
 70
     1
102
RTVSPropertyOp4
 70
     1
102
RTVSPropertyOp5
 70
     1
102
RTVSPropertyOp6
 70
     1
102
RTVSPropertyOp7
 70
     1
102
RTVSPropertyOp8
 70
     1
102
RTVSPropertyOp9
 70
     1
102
RTVSPropertyOp10
 70
     1
102
RTVSPropertyOp11
 70
     1
102
RTVSPropertyOp12
 70
     1
102
RTVSPropertyOp13
 70
     1
102
RTVSPropertyOp14
 70
     1
102
RTVSPropertyOp15
 70
     1
102
RTVSPropertyOp16
 70
     1
102
RTVSPropertyOp17
 70
     1
102
RTVSPropertyOp18
 70
     1
102
RTVSPropertyOp19
 70
     1
102
RTVSPropertyOp20
 70
     1
102
RTVSPropertyOp21
 70
     1
102
RTVSPropertyOp22
 70
     1
102
RTVSPropertyOp23
 70
     1
102
RTVSPropertyOp24
 70
     1
102
RTVSPropertyOp25
 70
     1
102
RTVSPropertyOp26
 70
     1
102
RTVSPropertyOp27
 70
     1
  0
XRECORD
  5
2F8
102
{ACAD_REACTORS
330
2F7
102
}
330
2F7
100
AcDbXrecord
280
     1
102
RTVSPropertyOp0
 70
     1
102
RTVSPropertyOp1
 70
     1
102
RTVSPropertyOp2
 70
     1
102
RTVSPropertyOp3
 70
     1
102
RTVSPropertyOp4
 70
     1
102
RTVSPropertyOp5
 70
     1
102
RTVSPropertyOp6
 70
     1
102
RTVSPropertyOp7
 70
     1
102
RTVSPropertyOp8
 70
     1
102
RTVSPropertyOp9
 70
     1
102
RTVSPropertyOp10
 70
     1
102
RTVSPropertyOp11
 70
     1
102
RTVSPropertyOp12
 70
     1
102
RTVSPropertyOp13
 70
     1
102
RTVSPropertyOp14
 70
     1
102
RTVSPropertyOp15
 70
     1
102
RTVSPropertyOp16
 70
     1
102
RTVSPropertyOp17
 70
     1
102
RTVSPropertyOp18
 70
     1
102
RTVSPropertyOp19
 70
     1
102
RTVSPropertyOp20
 70
     1
102
RTVSPropertyOp21
 70
     1
102
RTVSPropertyOp22
 70
     1
102
RTVSPropertyOp23
 70
     1
102
RTVSPropertyOp24
 70
     1
102
RTVSPropertyOp25
 70
     1
102
RTVSPropertyOp26
 70
     1
102
RTVSPropertyOp27
 70
     1
  0
XRECORD
  5
2DC
102
{ACAD_REACTORS
330
2DB
102
}
330
2DB
100
AcDbXrecord
280
     1
102
RTVSPropertyOp0
 70
     1
102
RTVSPropertyOp1
 70
     1
102
RTVSPropertyOp2
 70
     1
102
RTVSPropertyOp3
 70
     1
102
RTVSPropertyOp4
 70
     1
102
RTVSPropertyOp5
 70
     1
102
RTVSPropertyOp6
 70
     1
102
RTVSPropertyOp7
 70
     1
102
RTVSPropertyOp8
 70
     1
102
RTVSPropertyOp9
 70
     1
102
RTVSPropertyOp10
 70
     1
102
RTVSPropertyOp11
 70
     1
102
RTVSPropertyOp12
 70
     1
102
RTVSPropertyOp13
 70
     1
102
RTVSPropertyOp14
 70
     1
102
RTVSPropertyOp15
 70
     1
102
RTVSPropertyOp16
 70
     1
102
RTVSPropertyOp17
 70
     1
102
RTVSPropertyOp18
 70
     1
102
RTVSPropertyOp19
 70
     1
102
RTVSPropertyOp20
 70
     1
102
RTVSPropertyOp21
 70
     1
102
RTVSPropertyOp22
 70
     1
102
RTVSPropertyOp23
 70
     1
102
RTVSPropertyOp24
 70
     1
102
RTVSPropertyOp25
 70
     1
102
RTVSPropertyOp26
 70
     1
102
RTVSPropertyOp27
 70
     1
  0
XRECORD
  5
2DE
102
{ACAD_REACTORS
330
2DD
102
}
330
2DD
100
AcDbXrecord
280
     1
102
RTVSPropertyOp0
 70
     1
102
RTVSPropertyOp1
 70
     1
102
RTVSPropertyOp2
 70
     1
102
RTVSPropertyOp3
 70
     1
102
RTVSPropertyOp4
 70
     1
102
RTVSPropertyOp5
 70
     1
102
RTVSPropertyOp6
 70
     1
102
RTVSPropertyOp7
 70
     1
102
RTVSPropertyOp8
 70
     1
102
RTVSPropertyOp9
 70
     1
102
RTVSPropertyOp10
 70
     1
102
RTVSPropertyOp11
 70
     1
102
RTVSPropertyOp12
 70
     1
102
RTVSPropertyOp13
 70
     1
102
RTVSPropertyOp14
 70
     1
102
RTVSPropertyOp15
 70
     1
102
RTVSPropertyOp16
 70
     1
102
RTVSPropertyOp17
 70
     1
102
RTVSPropertyOp18
 70
     1
102
RTVSPropertyOp19
 70
     1
102
RTVSPropertyOp20
 70
     1
102
RTVSPropertyOp21
 70
     1
102
RTVSPropertyOp22
 70
     1
102
RTVSPropertyOp23
 70
     1
102
RTVSPropertyOp24
 70
     1
102
RTVSPropertyOp25
 70
     1
102
RTVSPropertyOp26
 70
     1
102
RTVSPropertyOp27
 70
     1
  0
XRECORD
  5
2E0
102
{ACAD_REACTORS
330
2DF
102
}
330
2DF
100
AcDbXrecord
280
     1
102
RTVSPropertyOp0
 70
     1
102
RTVSPropertyOp1
 70
     1
102
RTVSPropertyOp2
 70
     1
102
RTVSPropertyOp3
 70
     1
102
RTVSPropertyOp4
 70
     1
102
RTVSPropertyOp5
 70
     1
102
RTVSPropertyOp6
 70
     1
102
RTVSPropertyOp7
 70
     1
102
RTVSPropertyOp8
 70
     1
102
RTVSPropertyOp9
 70
     1
102
RTVSPropertyOp10
 70
     1
102
RTVSPropertyOp11
 70
     1
102
RTVSPropertyOp12
 70
     1
102
RTVSPropertyOp13
 70
     1
102
RTVSPropertyOp14
 70
     1
102
RTVSPropertyOp15
 70
     1
102
RTVSPropertyOp16
 70
     1
102
RTVSPropertyOp17
 70
     1
102
RTVSPropertyOp18
 70
     1
102
RTVSPropertyOp19
 70
     1
102
RTVSPropertyOp20
 70
     1
102
RTVSPropertyOp21
 70
     1
102
RTVSPropertyOp22
 70
     1
102
RTVSPropertyOp23
 70
     1
102
RTVSPropertyOp24
 70
     1
102
RTVSPropertyOp25
 70
     1
102
RTVSPropertyOp26
 70
     1
102
RTVSPropertyOp27
 70
     1
  0
XRECORD
  5
2E2
102
{ACAD_REACTORS
330
2E1
102
}
330
2E1
100
AcDbXrecord
280
     1
102
RTVSPropertyOp0
 70
     1
102
RTVSPropertyOp1
 70
     1
102
RTVSPropertyOp2
 70
     1
102
RTVSPropertyOp3
 70
     1
102
RTVSPropertyOp4
 70
     1
102
RTVSPropertyOp5
 70
     1
102
RTVSPropertyOp6
 70
     1
102
RTVSPropertyOp7
 70
     1
102
RTVSPropertyOp8
 70
     1
102
RTVSPropertyOp9
 70
     1
102
RTVSPropertyOp10
 70
     1
102
RTVSPropertyOp11
 70
     1
102
RTVSPropertyOp12
 70
     1
102
RTVSPropertyOp13
 70
     1
102
RTVSPropertyOp14
 70
     1
102
RTVSPropertyOp15
 70
     1
102
RTVSPropertyOp16
 70
     1
102
RTVSPropertyOp17
 70
     1
102
RTVSPropertyOp18
 70
     1
102
RTVSPropertyOp19
 70
     1
102
RTVSPropertyOp20
 70
     1
102
RTVSPropertyOp21
 70
     1
102
RTVSPropertyOp22
 70
     1
102
RTVSPropertyOp23
 70
     1
102
RTVSPropertyOp24
 70
     1
102
RTVSPropertyOp25
 70
     1
102
RTVSPropertyOp26
 70
     1
102
RTVSPropertyOp27
 70
     1
  0
XRECORD
  5
2F6
102
{ACAD_REACTORS
330
2F5
102
}
330
2F5
100
AcDbXrecord
280
     1
102
RTVSPropertyOp0
 70
     1
102
RTVSPropertyOp1
 70
     1
102
RTVSPropertyOp2
 70
     1
102
RTVSPropertyOp3
 70
     1
102
RTVSPropertyOp4
 70
     1
102
RTVSPropertyOp5
 70
     1
102
RTVSPropertyOp6
 70
     1
102
RTVSPropertyOp7
 70
     1
102
RTVSPropertyOp8
 70
     1
102
RTVSPropertyOp9
 70
     1
102
RTVSPropertyOp10
 70
     1
102
RTVSPropertyOp11
 70
     1
102
RTVSPropertyOp12
 70
     1
102
RTVSPropertyOp13
 70
     1
102
RTVSPropertyOp14
 70
     1
102
RTVSPropertyOp15
 70
     1
102
RTVSPropertyOp16
 70
     1
102
RTVSPropertyOp17
 70
     1
102
RTVSPropertyOp18
 70
     1
102
RTVSPropertyOp19
 70
     1
102
RTVSPropertyOp20
 70
     1
102
RTVSPropertyOp21
 70
     1
102
RTVSPropertyOp22
 70
     1
102
RTVSPropertyOp23
 70
     1
102
RTVSPropertyOp24
 70
     1
102
RTVSPropertyOp25
 70
     1
102
RTVSPropertyOp26
 70
     1
102
RTVSPropertyOp27
 70
     1
  0
XRECORD
  5
2EC
102
{ACAD_REACTORS
330
2EB
102
}
330
2EB
100
AcDbXrecord
280
     1
102
RTVSPropertyOp0
 70
     1
102
RTVSPropertyOp1
 70
     1
102
RTVSPropertyOp2
 70
     1
102
RTVSPropertyOp3
 70
     1
102
RTVSPropertyOp4
 70
     1
102
RTVSPropertyOp5
 70
     1
102
RTVSPropertyOp6
 70
     1
102
RTVSPropertyOp7
 70
     1
102
RTVSPropertyOp8
 70
     1
102
RTVSPropertyOp9
 70
     1
102
RTVSPropertyOp10
 70
     1
102
RTVSPropertyOp11
 70
     1
102
RTVSPropertyOp12
 70
     1
102
RTVSPropertyOp13
 70
     1
102
RTVSPropertyOp14
 70
     1
102
RTVSPropertyOp15
 70
     1
102
RTVSPropertyOp16
 70
     1
102
RTVSPropertyOp17
 70
     1
102
RTVSPropertyOp18
 70
     1
102
RTVSPropertyOp19
 70
     1
102
RTVSPropertyOp20
 70
     1
102
RTVSPropertyOp21
 70
     1
102
RTVSPropertyOp22
 70
     1
102
RTVSPropertyOp23
 70
     1
102
RTVSPropertyOp24
 70
     1
102
RTVSPropertyOp25
 70
     1
102
RTVSPropertyOp26
 70
     1
102
RTVSPropertyOp27
 70
     1
  0
XRECORD
  5
2F4
102
{ACAD_REACTORS
330
2F3
102
}
330
2F3
100
AcDbXrecord
280
     1
102
RTVSPropertyOp0
 70
     1
102
RTVSPropertyOp1
 70
     1
102
RTVSPropertyOp2
 70
     1
102
RTVSPropertyOp3
 70
     1
102
RTVSPropertyOp4
 70
     1
102
RTVSPropertyOp5
 70
     1
102
RTVSPropertyOp6
 70
     1
102
RTVSPropertyOp7
 70
     1
102
RTVSPropertyOp8
 70
     1
102
RTVSPropertyOp9
 70
     1
102
RTVSPropertyOp10
 70
     1
102
RTVSPropertyOp11
 70
     1
102
RTVSPropertyOp12
 70
     1
102
RTVSPropertyOp13
 70
     1
102
RTVSPropertyOp14
 70
     1
102
RTVSPropertyOp15
 70
     1
102
RTVSPropertyOp16
 70
     1
102
RTVSPropertyOp17
 70
     1
102
RTVSPropertyOp18
 70
     1
102
RTVSPropertyOp19
 70
     1
102
RTVSPropertyOp20
 70
     1
102
RTVSPropertyOp21
 70
     1
102
RTVSPropertyOp22
 70
     1
102
RTVSPropertyOp23
 70
     1
102
RTVSPropertyOp24
 70
     1
102
RTVSPropertyOp25
 70
     1
102
RTVSPropertyOp26
 70
     1
102
RTVSPropertyOp27
 70
     1
  0
ENDSEC
  0
EOF
