999
dxfrw 0.6.3
  0
SECTION
  2
HEADER
  9
$ACADVER
  1
AC1021
  9
$DWGCODEPAGE
  3
ANSI_1252
  9
$INSBASE
 10
0
 20
0
 30
0
  9
$EXTMIN
 10
77.7286622563
 20
13.028174377
 30
0
  9
$EXTMAX
 10
256.6666666666667
 20
73.55355915849999
 30
0
  9
$LIMMIN
 10
0
 20
0
  9
$LIMMAX
 10
12
 20
9
  9
$ORTHOMODE
 70
    0
  9
$REGENMODE
 70
    1
  9
$FILLMODE
 70
    1
  9
$QTEXTMODE
 70
    0
  9
$MIRRTEXT
 70
    0
  9
$LTSCALE
 40
1
  9
$ATTMODE
 70
    0
  9
$TEXTSIZE
 40
2.5
  9
$TRACEWID
 40
15.68
  9
$TEXTSTYLE
  7
Standard
  9
$CLAYER
  8
0
  9
$CELTYPE
  6
BYLAYER
  9
$CECOLOR
 62
  256
  9
$CELTSCALE
 40
1
  9
$DISPSILH
 70
    0
  9
$DIMSCALE
 40
1
  9
$DIMASZ
 40
0.18
  9
$DIMEXO
 40
0.0625
  9
$DIMDLI
 40
3.75
  9
$DIMRND
 40
0
  9
$DIMDLE
 40
0
  9
$DIMEXE
 40
0.18
  9
$DIMTP
 40
0
  9
$DIMTM
 40
0
  9
$DIMTXT
 40
0.18
  9
$DIMCEN
 40
2.5
  9
$DIMTSZ
 40
0
  9
$DIMTOL
 70
    0
  9
$DIMLIM
 70
    0
  9
$DIMTIH
 70
    1
  9
$DIMTOH
 70
    0
  9
$DIMSE1
 70
    0
  9
$DIMSE2
 70
    0
  9
$DIMTAD
 70
    1
  9
$DIMZIN
 70
    8
  9
$DIMBLK
  1

  9
$DIMASO
 70
    1
  9
$DIMSHO
 70
    1
  9
$DIMPOST
  1

  9
$DIMAPOST
  1

  9
$DIMALT
 70
    0
  9
$DIMALTD
 70
    3
  9
$DIMALTF
 40
0.03937
  9
$DIMLFAC
 40
1
  9
$DIMTOFL
 70
    1
  9
$DIMTVP
 40
0
  9
$DIMTIX
 70
    0
  9
$DIMSOXD
 70
    0
  9
$DIMSAH
 70
    0
  9
$DIMBLK1
  1

  9
$DIMBLK2
  1

  9
$DIMSTYLE
  2
Standard
  9
$DIMCLRD
 70
    0
  9
$DIMCLRE
 70
    0
  9
$DIMCLRT
 70
    0
  9
$DIMTFAC
 40
1
  9
$DIMGAP
 40
0.09
  9
$DIMJUST
 70
    0
  9
$DIMSD1
 70
    0
  9
$DIMSD2
 70
    0
  9
$DIMTOLJ
 70
    0
  9
$DIMTZIN
 70
    8
  9
$DIMALTZ
 70
    0
  9
$DIMALTTZ
 70
    0
  9
$DIMUPT
 70
    0
  9
$DIMDEC
 70
    4
  9
$DIMTDEC
 70
    2
  9
$DIMALTU
 70
    2
  9
$DIMALTTD
 70
    3
  9
$DIMTXSTY
  7
STANDARD
  9
$DIMAUNIT
 70
    0
  9
$DIMADEC
 70
    0
  9
$DIMALTRND
 40
0
  9
$DIMAZIN
 70
    0
  9
$DIMDSEP
 70
   44
  9
$DIMATFIT
 70
    3
  9
$DIMFRAC
 70
    0
  9
$DIMLDRBLK
  1
STANDARD
  9
$DIMLUNIT
 70
    2
  9
$DIMLWD
 70
   -2
  9
$DIMLWE
 70
   -2
  9
$DIMTMOVE
 70
    0
  9
$DIMFXL
 40
0.03937007874015748
  9
$DIMFXLON
 70
    0
  9
$DIMJOGANG
 40
0.7854
  9
$DIMTFILL
 70
    0
  9
$DIMTFILLCLR
 70
    0
  9
$DIMARCSYM
 70
    0
  9
$DIMLTYPE
  6

  9
$DIMLTEX1
  6

  9
$DIMLTEX2
  6

  9
$LUNITS
 70
    2
  9
$LUPREC
 70
    4
  9
$SKETCHINC
 40
1
  9
$FILLETRAD
 40
0
  9
$AUNITS
 70
    0
  9
$AUPREC
 70
    0
  9
$MENU
  1
.
  9
$ELEVATION
 40
0
  9
$PELEVATION
 40
0
  9
$THICKNESS
 40
0
  9
$LIMCHECK
 70
    0
  9
$CHAMFERA
 40
0
  9
$CHAMFERB
 40
0
  9
$CHAMFERC
 40
0
  9
$CHAMFERD
 40
0
  9
$SKPOLY
 70
    0
  9
$USRTIMER
 70
    1
  9
$ANGBASE
 50
0
  9
$ANGDIR
 70
    0
  9
$PDMODE
 70
   34
  9
$PDSIZE
 40
0
  9
$PLINEWID
 40
0
  9
$SPLFRAME
 70
    0
  9
$SPLINETYPE
 70
    2
  9
$SPLINESEGS
 70
    8
  9
$HANDSEED
  5
20000
  9
$SURFTAB1
 70
    6
  9
$SURFTAB2
 70
    6
  9
$SURFTYPE
 70
    6
  9
$SURFU
 70
    6
  9
$SURFV
 70
    6
  9
$UCSBASE
  2

  9
$UCSNAME
  2

  9
$UCSORG
 10
0
 20
0
 30
0
  9
$UCSXDIR
 10
1
 20
0
 30
0
  9
$UCSYDIR
 10
0
 20
1
 30
0
  9
$UCSORTHOREF
  2

  9
$UCSORTHOVIEW
 70
    0
  9
$UCSORGTOP
 10
0
 20
0
 30
0
  9
$UCSORGBOTTOM
 10
0
 20
0
 30
0
  9
$UCSORGLEFT
 10
0
 20
0
 30
0
  9
$UCSORGRIGHT
 10
0
 20
0
 30
0
  9
$UCSORGFRONT
 10
0
 20
0
 30
0
  9
$UCSORGBACK
 10
0
 20
0
 30
0
  9
$PUCSBASE
  2

  9
$PUCSNAME
  2

  9
$PUCSORG
 10
0
 20
0
 30
0
  9
$PUCSXDIR
 10
1
 20
0
 30
0
  9
$PUCSYDIR
 10
0
 20
1
 30
0
  9
$PUCSORTHOREF
  2

  9
$PUCSORTHOVIEW
 70
    0
  9
$PUCSORGTOP
 10
0
 20
0
 30
0
  9
$PUCSORGBOTTOM
 10
0
 20
0
 30
0
  9
$PUCSORGLEFT
 10
0
 20
0
 30
0
  9
$PUCSORGRIGHT
 10
0
 20
0
 30
0
  9
$PUCSORGFRONT
 10
0
 20
0
 30
0
  9
$PUCSORGBACK
 10
0
 20
0
 30
0
  9
$USERI1
 70
    0
  9
$USERI2
 70
    0
  9
$USERI3
 70
    0
  9
$USERI4
 70
    0
  9
$USERI5
 70
    0
  9
$USERR1
 40
0
  9
$USERR2
 40
0
  9
$USERR3
 40
0
  9
$USERR4
 40
0
  9
$USERR5
 40
0
  9
$WORLDVIEW
 70
    1
  9
$SHADEDGE
 70
    3
  9
$SHADEDIF
 70
   70
  9
$TILEMODE
 70
    1
  9
$MAXACTVP
 70
   64
  9
$PINSBASE
 10
0
 20
0
 30
0
  9
$PLIMCHECK
 70
    0
  9
$PEXTMIN
 10
0
 20
0
 30
0
  9
$PEXTMAX
 10
0
 20
0
 30
0
  9
$GRIDMODE
 70
    1
  9
$SNAPSTYLE
 70
    0
  9
$PLIMMIN
 10
0
 20
0
  9
$PLIMMAX
 10
12
 20
9
  9
$UNITMODE
 70
    0
  9
$VISRETAIN
 70
    1
  9
$PLINEGEN
 70
    0
  9
$PSLTSCALE
 70
    1
  9
$TREEDEPTH
 70
 3020
  9
$CMLSTYLE
  2
Standard
  9
$CMLJUST
 70
    0
  9
$CMLSCALE
 40
20
  9
$PROXYGRAPHICS
 70
    1
  9
$MEASUREMENT
 70
    1
  9
$CELWEIGHT
370
   -1
  9
$ENDCAPS
280
    0
  9
$JOINSTYLE
280
    0
  9
$LWDISPLAY
290
    0
  9
$INSUNITS
 70
    1
  9
$HYPERLINKBASE
  1

  9
$STYLESHEET
  1

  9
$XEDIT
290
    1
  9
$CEPSNTYPE
380
    0
  9
$PSTYLEMODE
290
    1
  9
$EXTNAMES
290
    1
  9
$PSVPSCALE
 40
0
  9
$OLESTARTUP
290
    0
  9
$SORTENTS
280
  127
  9
$INDEXCTL
280
    0
  9
$HIDETEXT
280
    1
  9
$XCLIPFRAME
290
    0
  9
$HALOGAP
280
    0
  9
$OBSCOLOR
 70
  257
  9
$OBSLTYPE
280
    0
  9
$INTERSECTIONDISPLAY
280
    0
  9
$INTERSECTIONCOLOR
 70
  257
  9
$DIMASSOC
280
    1
  9
$PROJECTNAME
  1

  9
$CAMERADISPLAY
290
    0
  9
$LENSLENGTH
 40
50
  9
$CAMERAHEIGHT
 40
0
  9
$STEPSPERSEC
 40
2
  9
$STEPSIZE
 40
50
  9
$3DDWFPREC
 40
2
  9
$PSOLWIDTH
 40
5
  9
$PSOLHEIGHT
 40
80
  9
$LOFTANG1
 40
1.570796326794897
  9
$LOFTANG2
 40
1.570796326794897
  9
$LOFTMAG1
 40
0
  9
$LOFTMAG2
 40
0
  9
$LOFTPARAM
 70
    7
  9
$LOFTNORMALS
280
    1
  9
$LATITUDE
 40
1
  9
$LONGITUDE
 40
1
  9
$NORTHDIRECTION
 40
0
  9
$TIMEZONE
 70
-8000
  9
$LIGHTGLYPHDISPLAY
280
    1
  9
$TILEMODELIGHTSYNCH
280
    1
  9
$SOLIDHIST
280
    1
  9
$SHOWHIST
280
    1
  9
$DWFFRAME
280
    2
  9
$DGNFRAME
280
    0
  9
$REALWORLDSCALE
290
    1
  9
$INTERFERECOLOR
 62
    1
  9
$CSHADOW
280
    0
  9
$SHADOWPLANELOCATION
 40
0
  0
ENDSEC
  0
SECTION
  2
CLASSES
  0
ENDSEC
  0
SECTION
  2
TABLES
  0
TABLE
  2
VPORT
  5
8
330
0
100
AcDbSymbolTable
 70
    1
  0
VPORT
  5
31
330
2
100
AcDbSymbolTableRecord
100
AcDbViewportTableRecord
  2
*ACTIVE
 70
    0
 10
0
 20
0
 11
1
 21
1
 12
157.0413862676284
 22
57.83494342888258
 13
0
 23
0
 14
10
 24
10
 15
10
 25
10
 16
0
 26
0
 36
1
 17
0
 27
0
 37
0
 40
128.8690273212893
 41
1.948237885462555
 42
50
 43
0
 44
0
 50
0
 51
0
 71
    0
 72
  100
 73
    1
 74
    3
 75
    0
 76
    1
 77
    0
 78
    0
281
    0
 65
    1
110
0
120
0
130
0
111
1
121
0
131
0
112
0
122
1
132
0
 79
    0
146
0
348
10020
 60
    7
 61
    5
292
1
282
    1
141
0
142
0
 63
  250
421
3358443
  0
ENDTAB
  0
TABLE
  2
LTYPE
  5
5
330
0
100
AcDbSymbolTable
 70
    4
  0
LTYPE
  5
14
330
5
100
AcDbSymbolTableRecord
100
AcDbLinetypeTableRecord
  2
ByBlock
 70
    0
  3

 72
   65
 73
    0
 40
0
  0
LTYPE
  5
15
330
5
100
AcDbSymbolTableRecord
100
AcDbLinetypeTableRecord
  2
ByLayer
 70
    0
  3

 72
   65
 73
    0
 40
0
  0
LTYPE
  5
16
330
5
100
AcDbSymbolTableRecord
100
AcDbLinetypeTableRecord
  2
Continuous
 70
    0
  3
Solid line
 72
   65
 73
    0
 40
0
  0
LTYPE
  5
32
330
5
100
AcDbSymbolTableRecord
100
AcDbLinetypeTableRecord
  2
DOT
 70
    0
  3
Dot . . . . . . . . . . . . . . . . . . . . . .
 72
   65
 73
    2
 40
6.35
 49
0
 74
    0
 49
-6.35
 74
    0
  0
LTYPE
  5
33
330
5
100
AcDbSymbolTableRecord
100
AcDbLinetypeTableRecord
  2
DOTTINY
 70
    0
  3
Dot (.15x) .....................................
 72
   65
 73
    2
 40
0.9525
 49
0
 74
    0
 49
-0.9525
 74
    0
  0
LTYPE
  5
34
330
5
100
AcDbSymbolTableRecord
100
AcDbLinetypeTableRecord
  2
DOT2
 70
    0
  3
Dot (.5x) .....................................
 72
   65
 73
    2
 40
3.175
 49
0
 74
    0
 49
-3.175
 74
    0
  0
LTYPE
  5
35
330
5
100
AcDbSymbolTableRecord
100
AcDbLinetypeTableRecord
  2
DOTX2
 70
    0
  3
Dot (2x) .  .  .  .  .  .  .  .  .  .  .  .  .
 72
   65
 73
    2
 40
12.7
 49
0
 74
    0
 49
-12.7
 74
    0
  0
LTYPE
  5
36
330
5
100
AcDbSymbolTableRecord
100
AcDbLinetypeTableRecord
  2
DASHED
 70
    0
  3
Dashed _ _ _ _ _ _ _ _ _ _ _ _ _ _ _ _ _
 72
   65
 73
    2
 40
19.05
 49
12.7
 74
    0
 49
-6.35
 74
    0
  0
LTYPE
  5
37
330
5
100
AcDbSymbolTableRecord
100
AcDbLinetypeTableRecord
  2
DASHEDTINY
 70
    0
  3
Dashed (.15x) _ _ _ _ _ _ _ _ _ _ _ _ _ _ _ _ _
 72
   65
 73
    2
 40
2.8575
 49
1.905
 74
    0
 49
-0.9525
 74
    0
  0
LTYPE
  5
38
330
5
100
AcDbSymbolTableRecord
100
AcDbLinetypeTableRecord
  2
DASHED2
 70
    0
  3
Dashed (.5x) _ _ _ _ _ _ _ _ _ _ _ _ _ _ _ _ _
 72
   65
 73
    2
 40
9.524999999999999
 49
6.35
 74
    0
 49
-3.175
 74
    0
  0
LTYPE
  5
39
330
5
100
AcDbSymbolTableRecord
100
AcDbLinetypeTableRecord
  2
DASHEDX2
 70
    0
  3
Dashed (2x) ____  ____  ____  ____  ____  ___
 72
   65
 73
    2
 40
38.09999999999999
 49
25.4
 74
    0
 49
-12.7
 74
    0
  0
LTYPE
  5
3A
330
5
100
AcDbSymbolTableRecord
100
AcDbLinetypeTableRecord
  2
DASHDOT
 70
    0
  3
Dash dot __ . __ . __ . __ . __ . __ . __ . __
 72
   65
 73
    4
 40
25.4
 49
12.7
 74
    0
 49
-6.35
 74
    0
 49
0
 74
    0
 49
-6.35
 74
    0
  0
LTYPE
  5
3B
330
5
100
AcDbSymbolTableRecord
100
AcDbLinetypeTableRecord
  2
DASHDOTTINY
 70
    0
  3
Dash dot (.15x) _._._._._._._._._._._._._._._.
 72
   65
 73
    4
 40
3.81
 49
1.905
 74
    0
 49
-0.9525
 74
    0
 49
0
 74
    0
 49
-0.9525
 74
    0
  0
LTYPE
  5
3C
330
5
100
AcDbSymbolTableRecord
100
AcDbLinetypeTableRecord
  2
DASHDOT2
 70
    0
  3
Dash dot (.5x) _._._._._._._._._._._._._._._.
 72
   65
 73
    4
 40
12.7
 49
6.35
 74
    0
 49
-3.175
 74
    0
 49
0
 74
    0
 49
-3.175
 74
    0
  0
LTYPE
  5
3D
330
5
100
AcDbSymbolTableRecord
100
AcDbLinetypeTableRecord
  2
DASHDOTX2
 70
    0
  3
Dash dot (2x) ____  .  ____  .  ____  .  ___
 72
   65
 73
    4
 40
50.8
 49
25.4
 74
    0
 49
-12.7
 74
    0
 49
0
 74
    0
 49
-12.7
 74
    0
  0
LTYPE
  5
3E
330
5
100
AcDbSymbolTableRecord
100
AcDbLinetypeTableRecord
  2
DIVIDE
 70
    0
  3
Divide ____ . . ____ . . ____ . . ____ . . ____
 72
   65
 73
    6
 40
31.75
 49
12.7
 74
    0
 49
-6.35
 74
    0
 49
0
 74
    0
 49
-6.35
 74
    0
 49
0
 74
    0
 49
-6.35
 74
    0
  0
LTYPE
  5
3F
330
5
100
AcDbSymbolTableRecord
100
AcDbLinetypeTableRecord
  2
DIVIDETINY
 70
    0
  3
Divide (.15x) __..__..__..__..__..__..__..__.._
 72
   65
 73
    6
 40
4.7625
 49
1.905
 74
    0
 49
-0.9525
 74
    0
 49
0
 74
    0
 49
-0.9525
 74
    0
 49
0
 74
    0
 49
-0.9525
 74
    0
  0
LTYPE
  5
40
330
5
100
AcDbSymbolTableRecord
100
AcDbLinetypeTableRecord
  2
DIVIDE2
 70
    0
  3
Divide (.5x) __..__..__..__..__..__..__..__.._
 72
   65
 73
    6
 40
15.875
 49
6.35
 74
    0
 49
-3.175
 74
    0
 49
0
 74
    0
 49
-3.175
 74
    0
 49
0
 74
    0
 49
-3.175
 74
    0
  0
LTYPE
  5
41
330
5
100
AcDbSymbolTableRecord
100
AcDbLinetypeTableRecord
  2
DIVIDEX2
 70
    0
  3
Divide (2x) ________  .  .  ________  .  .  _
 72
   65
 73
    6
 40
63.5
 49
25.4
 74
    0
 49
-12.7
 74
    0
 49
0
 74
    0
 49
-12.7
 74
    0
 49
0
 74
    0
 49
-12.7
 74
    0
  0
LTYPE
  5
42
330
5
100
AcDbSymbolTableRecord
100
AcDbLinetypeTableRecord
  2
BORDER
 70
    0
  3
Border __ __ . __ __ . __ __ . __ __ . __ __ .
 72
   65
 73
    6
 40
44.45
 49
12.7
 74
    0
 49
-6.35
 74
    0
 49
12.7
 74
    0
 49
-6.35
 74
    0
 49
0
 74
    0
 49
-6.35
 74
    0
  0
LTYPE
  5
43
330
5
100
AcDbSymbolTableRecord
100
AcDbLinetypeTableRecord
  2
BORDERTINY
 70
    0
  3
Border (.15x) __.__.__.__.__.__.__.__.__.__.__.
 72
   65
 73
    6
 40
6.6675
 49
1.905
 74
    0
 49
-0.9525
 74
    0
 49
1.905
 74
    0
 49
-0.9525
 74
    0
 49
0
 74
    0
 49
-0.9525
 74
    0
  0
LTYPE
  5
44
330
5
100
AcDbSymbolTableRecord
100
AcDbLinetypeTableRecord
  2
BORDER2
 70
    0
  3
Border (.5x) __.__.__.__.__.__.__.__.__.__.__.
 72
   65
 73
    6
 40
22.225
 49
6.35
 74
    0
 49
-3.175
 74
    0
 49
6.35
 74
    0
 49
-3.175
 74
    0
 49
0
 74
    0
 49
-3.175
 74
    0
  0
LTYPE
  5
45
330
5
100
AcDbSymbolTableRecord
100
AcDbLinetypeTableRecord
  2
BORDERX2
 70
    0
  3
Border (2x) ____  ____  .  ____  ____  .  ___
 72
   65
 73
    6
 40
88.89999999999999
 49
25.4
 74
    0
 49
-12.7
 74
    0
 49
25.4
 74
    0
 49
-12.7
 74
    0
 49
0
 74
    0
 49
-12.7
 74
    0
  0
LTYPE
  5
46
330
5
100
AcDbSymbolTableRecord
100
AcDbLinetypeTableRecord
  2
CENTER
 70
    0
  3
Center ____ _ ____ _ ____ _ ____ _ ____ _ ____
 72
   65
 73
    4
 40
50.8
 49
31.75
 74
    0
 49
-6.35
 74
    0
 49
6.35
 74
    0
 49
-6.35
 74
    0
  0
LTYPE
  5
47
330
5
100
AcDbSymbolTableRecord
100
AcDbLinetypeTableRecord
  2
CENTERTINY
 70
    0
  3
Center (.15x) ___ _ ___ _ ___ _ ___ _ ___ _ ___
 72
   65
 73
    4
 40
7.619999999999999
 49
4.7625
 74
    0
 49
-0.9525
 74
    0
 49
0.9525
 74
    0
 49
-0.9525
 74
    0
  0
LTYPE
  5
48
330
5
100
AcDbSymbolTableRecord
100
AcDbLinetypeTableRecord
  2
CENTER2
 70
    0
  3
Center (.5x) ___ _ ___ _ ___ _ ___ _ ___ _ ___
 72
   65
 73
    4
 40
28.575
 49
19.05
 74
    0
 49
-3.175
 74
    0
 49
3.175
 74
    0
 49
-3.175
 74
    0
  0
LTYPE
  5
49
330
5
100
AcDbSymbolTableRecord
100
AcDbLinetypeTableRecord
  2
CENTERX2
 70
    0
  3
Center (2x) ________  __  ________  __  _____
 72
   65
 73
    4
 40
101.6
 49
63.5
 74
    0
 49
-12.7
 74
    0
 49
12.7
 74
    0
 49
-12.7
 74
    0
  0
ENDTAB
  0
TABLE
  2
LAYER
  5
2
330
0
100
AcDbSymbolTable
 70
    1
  0
LAYER
  5
10
330
2
100
AcDbSymbolTableRecord
100
AcDbLayerTableRecord
  2
0
 70
    0
 62
    7
  6
CONTINUOUS
370
   -3
390
F
  0
LAYER
  5
4A
330
2
100
AcDbSymbolTableRecord
100
AcDbLayerTableRecord
  2
CENTER
 70
    0
 62
  204
  6
CONTINUOUS
370
    0
390
F
  0
LAYER
  5
4B
330
2
100
AcDbSymbolTableRecord
100
AcDbLayerTableRecord
  2
CONTINUOUS
 70
    0
 62
    7
  6
CONTINUOUS
370
    0
390
F
  0
LAYER
  5
4C
330
2
100
AcDbSymbolTableRecord
100
AcDbLayerTableRecord
  2
DIMENSIONS
 70
    0
 62
    7
  6
CONTINUOUS
370
    0
390
F
  0
LAYER
  5
4D
330
2
100
AcDbSymbolTableRecord
100
AcDbLayerTableRecord
  2
Defpoints
 70
    0
 62
    7
  6
CONTINUOUS
290
0
370
   -3
390
F
1001
LibreCad
1070
    1
  0
LAYER
  5
4E
330
2
100
AcDbSymbolTableRecord
100
AcDbLayerTableRecord
  2
HIDDEN
 70
    0
 62
  253
  6
DASHED
370
    0
390
F
  0
LAYER
  5
4F
330
2
100
AcDbSymbolTableRecord
100
AcDbLayerTableRecord
  2
TANGENT EDGES
 70
    0
 62
    7
  6
CONTINUOUS
370
    0
390
F
  0
LAYER
  5
50
330
2
100
AcDbSymbolTableRecord
100
AcDbLayerTableRecord
  2
VISIBLE
 70
    0
 62
    7
  6
CONTINUOUS
370
    0
390
F
  0
ENDTAB
  0
TABLE
  2
STYLE
  5
3
330
0
100
AcDbSymbolTable
 70
    3
  0
STYLE
  5
51
330
2
100
AcDbSymbolTableRecord
100
AcDbTextStyleTableRecord
  2
standard
 70
    0
 40
0
 41
1
 50
0
 71
    0
 42
1
  3
standard
  4

  0
ENDTAB
  0
TABLE
  2
VIEW
  5
6
330
0
100
AcDbSymbolTable
 70
    0
  0
ENDTAB
  0
TABLE
  2
UCS
  5
7
330
0
100
AcDbSymbolTable
 70
    0
  0
ENDTAB
  0
TABLE
  2
APPID
  5
9
330
0
100
AcDbSymbolTable
 70
    1
  0
APPID
  5
12
330
9
100
AcDbSymbolTableRecord
100
AcDbRegAppTableRecord
  2
ACAD
 70
    0
  0
APPID
  5
52
330
9
100
AcDbSymbolTableRecord
100
AcDbRegAppTableRecord
  2
LibreCad
 70
    0
  0
ENDTAB
  0
TABLE
  2
DIMSTYLE
  5
A
330
0
100
AcDbSymbolTable
 70
    1
100
AcDbDimStyleTable
 71
    1
  0
DIMSTYLE
105
53
330
A
100
AcDbSymbolTableRecord
100
AcDbDimStyleTableRecord
  2
Standard
 70
    0
 40
1
 41
0.18
 42
0.0625
 43
0.38
 44
0.18
 45
0
 46
0
 47
0
 48
0
 49
0.03937007874015748
140
0.18
141
0.09
142
0
143
25.4
144
1
145
0
146
1
147
0.09
148
0
 71
    0
 72
    0
 73
    1
 74
    1
 75
    0
 76
    0
 77
    0
 78
    1
 79
    0
170
    0
171
    2
172
    0
173
    0
174
    0
175
    0
176
    0
177
    0
178
    0
179
    0
271
    4
272
    4
273
    2
274
    2
275
    0
276
    0
277
    2
278
    0
279
    0
280
    0
281
    0
282
    0
283
    1
284
    0
285
    0
286
    0
288
    0
289
    3
340
standard
341

371
   -2
372
   -2
  0
ENDTAB
  0
TABLE
  2
BLOCK_RECORD
  5
1
330
0
100
AcDbSymbolTable
 70
    2
  0
BLOCK_RECORD
  5
1F
330
1
100
AcDbSymbolTableRecord
100
AcDbBlockTableRecord
  2
*Model_Space
 70
    0
280
    1
281
    0
  0
BLOCK_RECORD
  5
1E
330
1
100
AcDbSymbolTableRecord
100
AcDbBlockTableRecord
  2
*Paper_Space
 70
    0
280
    1
281
    0
  0
BLOCK_RECORD
  5
54
330
1
100
AcDbSymbolTableRecord
100
AcDbBlockTableRecord
  2
*D2
 70
    0
280
    1
281
    0
  0
BLOCK_RECORD
  5
57
330
1
100
AcDbSymbolTableRecord
100
AcDbBlockTableRecord
  2
*D1
 70
    0
280
    1
281
    0
  0
BLOCK_RECORD
  5
5A
330
1
100
AcDbSymbolTableRecord
100
AcDbBlockTableRecord
  2
D1
 70
    0
280
    1
281
    0
  0
BLOCK_RECORD
  5
5D
330
1
100
AcDbSymbolTableRecord
100
AcDbBlockTableRecord
  2
D2
 70
    0
280
    1
281
    0
  0
BLOCK_RECORD
  5
60
330
1
100
AcDbSymbolTableRecord
100
AcDbBlockTableRecord
  2
D3
 70
    0
280
    1
281
    0
  0
BLOCK_RECORD
  5
63
330
1
100
AcDbSymbolTableRecord
100
AcDbBlockTableRecord
  2
BLOCK15
 70
    0
280
    1
281
    0
  0
BLOCK_RECORD
  5
66
330
1
100
AcDbSymbolTableRecord
100
AcDbBlockTableRecord
  2
BLOCK16
 70
    0
280
    1
281
    0
  0
BLOCK_RECORD
  5
69
330
1
100
AcDbSymbolTableRecord
100
AcDbBlockTableRecord
  2
BLOCK17
 70
    0
280
    1
281
    0
  0
BLOCK_RECORD
  5
6C
330
1
100
AcDbSymbolTableRecord
100
AcDbBlockTableRecord
  2
L-Q1
 70
    0
280
    1
281
    0
  0
BLOCK_RECORD
  5
6F
330
1
100
AcDbSymbolTableRecord
100
AcDbBlockTableRecord
  2
D4
 70
    0
280
    1
281
    0
  0
BLOCK_RECORD
  5
72
330
1
100
AcDbSymbolTableRecord
100
AcDbBlockTableRecord
  2
BLOCK12
 70
    0
280
    1
281
    0
  0
BLOCK_RECORD
  5
75
330
1
100
AcDbSymbolTableRecord
100
AcDbBlockTableRecord
  2
BLOCK13
 70
    0
280
    1
281
    0
  0
BLOCK_RECORD
  5
78
330
1
100
AcDbSymbolTableRecord
100
AcDbBlockTableRecord
  2
BLOCK14
 70
    0
280
    1
281
    0
  0
BLOCK_RECORD
  5
7B
330
1
100
AcDbSymbolTableRecord
100
AcDbBlockTableRecord
  2
L-Q2
 70
    0
280
    1
281
    0
  0
BLOCK_RECORD
  5
7E
330
1
100
AcDbSymbolTableRecord
100
AcDbBlockTableRecord
  2
BLOCK18
 70
    0
280
    1
281
    0
  0
BLOCK_RECORD
  5
81
330
1
100
AcDbSymbolTableRecord
100
AcDbBlockTableRecord
  2
BLOCK19
 70
    0
280
    1
281
    0
  0
BLOCK_RECORD
  5
84
330
1
100
AcDbSymbolTableRecord
100
AcDbBlockTableRecord
  2
BLOCK20
 70
    0
280
    1
281
    0
  0
BLOCK_RECORD
  5
87
330
1
100
AcDbSymbolTableRecord
100
AcDbBlockTableRecord
  2
L-Q3
 70
    0
280
    1
281
    0
  0
BLOCK_RECORD
  5
8A
330
1
100
AcDbSymbolTableRecord
100
AcDbBlockTableRecord
  2
D5
 70
    0
280
    1
281
    0
  0
BLOCK_RECORD
  5
8D
330
1
100
AcDbSymbolTableRecord
100
AcDbBlockTableRecord
  2
D6
 70
    0
280
    1
281
    0
  0
BLOCK_RECORD
  5
90
330
1
100
AcDbSymbolTableRecord
100
AcDbBlockTableRecord
  2
BLOCK21
 70
    0
280
    1
281
    0
  0
BLOCK_RECORD
  5
93
330
1
100
AcDbSymbolTableRecord
100
AcDbBlockTableRecord
  2
BLOCK22
 70
    0
280
    1
281
    0
  0
BLOCK_RECORD
  5
96
330
1
100
AcDbSymbolTableRecord
100
AcDbBlockTableRecord
  2
BLOCK23
 70
    0
280
    1
281
    0
  0
BLOCK_RECORD
  5
99
330
1
100
AcDbSymbolTableRecord
100
AcDbBlockTableRecord
  2
L-Q4
 70
    0
280
    1
281
    0
  0
BLOCK_RECORD
  5
9C
330
1
100
AcDbSymbolTableRecord
100
AcDbBlockTableRecord
  2
L-Q5
 70
    0
280
    1
281
    0
  0
BLOCK_RECORD
  5
9F
330
1
100
AcDbSymbolTableRecord
100
AcDbBlockTableRecord
  2
BLOCK3
 70
    0
280
    1
281
    0
  0
BLOCK_RECORD
  5
A2
330
1
100
AcDbSymbolTableRecord
100
AcDbBlockTableRecord
  2
BLOCK4
 70
    0
280
    1
281
    0
  0
BLOCK_RECORD
  5
A5
330
1
100
AcDbSymbolTableRecord
100
AcDbBlockTableRecord
  2
BLOCK5
 70
    0
280
    1
281
    0
  0
BLOCK_RECORD
  5
A8
330
1
100
AcDbSymbolTableRecord
100
AcDbBlockTableRecord
  2
L-Q6
 70
    0
280
    1
281
    0
  0
BLOCK_RECORD
  5
AB
330
1
100
AcDbSymbolTableRecord
100
AcDbBlockTableRecord
  2
D7
 70
    0
280
    1
281
    0
  0
BLOCK_RECORD
  5
AE
330
1
100
AcDbSymbolTableRecord
100
AcDbBlockTableRecord
  2
D8
 70
    0
280
    1
281
    0
  0
BLOCK_RECORD
  5
B1
330
1
100
AcDbSymbolTableRecord
100
AcDbBlockTableRecord
  2
BLOCK9
 70
    0
280
    1
281
    0
  0
BLOCK_RECORD
  5
B4
330
1
100
AcDbSymbolTableRecord
100
AcDbBlockTableRecord
  2
BLOCK10
 70
    0
280
    1
281
    0
  0
BLOCK_RECORD
  5
B7
330
1
100
AcDbSymbolTableRecord
100
AcDbBlockTableRecord
  2
BLOCK11
 70
    0
280
    1
281
    0
  0
BLOCK_RECORD
  5
BA
330
1
100
AcDbSymbolTableRecord
100
AcDbBlockTableRecord
  2
L-Q7
 70
    0
280
    1
281
    0
  0
BLOCK_RECORD
  5
BD
330
1
100
AcDbSymbolTableRecord
100
AcDbBlockTableRecord
  2
BLOCK6
 70
    0
280
    1
281
    0
  0
BLOCK_RECORD
  5
C0
330
1
100
AcDbSymbolTableRecord
100
AcDbBlockTableRecord
  2
BLOCK7
 70
    0
280
    1
281
    0
  0
BLOCK_RECORD
  5
C3
330
1
100
AcDbSymbolTableRecord
100
AcDbBlockTableRecord
  2
BLOCK8
 70
    0
280
    1
281
    0
  0
BLOCK_RECORD
  5
C6
330
1
100
AcDbSymbolTableRecord
100
AcDbBlockTableRecord
  2
L-Q8
 70
    0
280
    1
281
    0
  0
BLOCK_RECORD
  5
C9
330
1
100
AcDbSymbolTableRecord
100
AcDbBlockTableRecord
  2
L-Q9
 70
    0
280
    1
281
    0
  0
BLOCK_RECORD
  5
CC
330
1
100
AcDbSymbolTableRecord
100
AcDbBlockTableRecord
  2
A$C00294823
 70
    0
280
    1
281
    0
  0
BLOCK_RECORD
  5
CF
330
1
100
AcDbSymbolTableRecord
100
AcDbBlockTableRecord
  2
A$C496F36BF
 70
    0
280
    1
281
    0
  0
BLOCK_RECORD
  5
D2
330
1
100
AcDbSymbolTableRecord
100
AcDbBlockTableRecord
  2
A$C6BED7900
 70
    0
280
    1
281
    0
  0
BLOCK_RECORD
  5
D5
330
1
100
AcDbSymbolTableRecord
100
AcDbBlockTableRecord
  2
A$C566E6E2D
 70
    0
280
    1
281
    0
  0
ENDTAB
  0
ENDSEC
  0
SECTION
  2
BLOCKS
  0
BLOCK
  5
20
330
1F
100
AcDbEntity
  8
0
100
AcDbBlockBegin
  2
*Model_Space
 70
    0
 10
0
 20
0
 30
0
  3
*Model_Space
  1

  0
ENDBLK
  5
21
330
1F
100
AcDbEntity
  8
0
100
AcDbBlockEnd
  0
BLOCK
  5
1C
330
1B
100
AcDbEntity
  8
0
100
AcDbBlockBegin
  2
*Paper_Space
 70
    0
 10
0
 20
0
 30
0
  3
*Paper_Space
  1

  0
ENDBLK
  5
1D
330
1F
100
AcDbEntity
  8
0
100
AcDbBlockEnd
  0
BLOCK
  5
55
330
54
100
AcDbEntity
  8
0
100
AcDbBlockBegin
  2
*D2
 70
    1
 10
0
 20
0
  3
*D2
  1

  0
LINE
  5
D8
100
AcDbEntity
  8
0
  6
ByBlock
 62
    0
370
   -2
100
AcDbLine
 10
146
 20
13.208174377
 11
157.48
 21
13.208174377
  0
SOLID
  5
D9
100
AcDbEntity
  8
0
  6
ByBlock
 62
    0
370
   -2
100
AcDbTrace
 10
146
 20
13.208174377
 30
0
 11
146.18
 21
13.23814687235964
 31
0
 12
146.18
 22
13.17820188164036
 32
0
 13
146.18
 23
13.17820188164036
 33
0
  0
SOLID
  5
DA
100
AcDbEntity
  8
0
  6
ByBlock
 62
    0
370
   -2
100
AcDbTrace
 10
170
 20
13.208174377
 30
0
 11
169.82
 21
13.17820188164036
 31
0
 12
169.82
 22
13.23814687235964
 32
0
 13
169.82
 23
13.23814687235964
 33
0
  0
LINE
  5
DB
100
AcDbEntity
  8
0
  6
ByBlock
 62
    0
370
   -2
100
AcDbLine
 10
158.52
 20
13.208174377
 11
170
 21
13.208174377
  0
MTEXT
  5
DC
100
AcDbEntity
  8
0
  6
CONTINUOUS
 62
    0
370
   -2
100
AcDbMText
 10
158
 20
13.208174377
 30
0
 40
0.18
 41
0.8600000000000001
 71
    5
 72
    1
  1
24.0000
  7
standard
210
0
220
0
230
1
 50
0
 73
    2
 44
1
  0
LINE
  5
DD
100
AcDbEntity
  8
0
  6
ByBlock
 62
    0
370
   -2
100
AcDbLine
 10
146
 20
20.5371000297
 11
146
 21
13.028174377
  0
LINE
  5
DE
100
AcDbEntity
  8
0
  6
ByBlock
 62
    0
370
   -2
100
AcDbLine
 10
170
 20
19.9375
 11
170
 21
13.028174377
  0
ENDBLK
  5
56
330
54
100
AcDbEntity
  8
0
100
AcDbBlockEnd
  0
BLOCK
  5
58
330
57
100
AcDbEntity
  8
0
100
AcDbBlockBegin
  2
*D1
 70
    1
 10
0
 20
0
  3
*D1
  1

  0
LINE
  5
DF
100
AcDbEntity
  8
0
  6
ByBlock
 62
    0
370
   -2
100
AcDbLine
 10
146
 20
16.2941287654
 11
151.51
 21
16.2941287654
  0
SOLID
  5
E0
100
AcDbEntity
  8
0
  6
ByBlock
 62
    0
370
   -2
100
AcDbTrace
 10
146
 20
16.2941287654
 30
0
 11
146.18
 21
16.32410126075964
 31
0
 12
146.18
 22
16.26415627004036
 32
0
 13
146.18
 23
16.26415627004036
 33
0
  0
SOLID
  5
E1
100
AcDbEntity
  8
0
  6
ByBlock
 62
    0
370
   -2
100
AcDbTrace
 10
158
 20
16.2941287654
 30
0
 11
157.82
 21
16.26415627004036
 31
0
 12
157.82
 22
16.32410126075964
 32
0
 13
157.82
 23
16.32410126075964
 33
0
  0
LINE
  5
E2
100
AcDbEntity
  8
0
  6
ByBlock
 62
    0
370
   -2
100
AcDbLine
 10
152.49
 20
16.2941287654
 11
158
 21
16.2941287654
  0
MTEXT
  5
E3
100
AcDbEntity
  8
0
  6
CONTINUOUS
 62
    0
370
   -2
100
AcDbMText
 10
152
 20
16.2941287654
 30
0
 40
0.18
 41
0.8
 71
    5
 72
    1
  1
12.0000
  7
standard
210
0
220
0
230
1
 50
0
 73
    2
 44
1
  0
LINE
  5
E4
100
AcDbEntity
  8
0
  6
ByBlock
 62
    0
370
   -2
100
AcDbLine
 10
146
 20
21.5371000297
 11
146
 21
16.1141287654
  0
LINE
  5
E5
100
AcDbEntity
  8
0
  6
ByBlock
 62
    0
370
   -2
100
AcDbLine
 10
158
 20
21.2974029554
 11
158
 21
16.1141287654
  0
ENDBLK
  5
59
330
57
100
AcDbEntity
  8
0
100
AcDbBlockEnd
  0
BLOCK
  5
5B
330
5A
100
AcDbEntity
  8
0
100
AcDbBlockBegin
  2
D1
 70
    0
 10
0
 20
0
  3
D1
  1

  0
MTEXT
  5
E6
100
AcDbEntity
  8
DIMENSIONS
  6
ByLayer
 62
  256
370
   -1
100
AcDbMText
 10
6.06865409791
 20
4.43970627672
 30
0
 40
0.103404906449
 41
0.2412781150476731
 71
    5
 72
    1
  1
.250
  7
standard
210
0
220
0
230
1
 50
0
 73
    1
 44
1
  0
MTEXT
  5
E7
100
AcDbEntity
  8
DIMENSIONS
  6
ByLayer
 62
  256
370
   -1
100
AcDbMText
 10
6.06865409791
 20
4.43970627672
 30
0
 40
0.103404906449
 41
0
 71
    5
 72
    1
  1

  7
standard
210
0
220
0
230
1
 50
0
 73
    1
 44
1
  0
MTEXT
  5
E8
100
AcDbEntity
  8
DIMENSIONS
  6
ByLayer
 62
  256
370
   -1
100
AcDbMText
 10
6.06865409791
 20
4.43970627672
 30
0
 40
0.103404906449
 41
0
 71
    5
 72
    1
  1

  7
standard
210
0
220
0
230
1
 50
0
 73
    1
 44
1
  0
LINE
  5
E9
100
AcDbEntity
  8
DIMENSIONS
  6
ByLayer
 62
  256
370
   -1
100
AcDbLine
 10
6.27698750814
 20
4.43970627527
 11
6.27698750814
 21
4.43970627527
  0
LINE
  5
EA
100
AcDbEntity
  8
DIMENSIONS
  6
ByLayer
 62
  256
370
   -1
100
AcDbLine
 10
6.61660761095
 20
4.58556588048
 11
6.61660761095
 21
4.37720627672
  0
LINE
  5
EB
100
AcDbEntity
  8
DIMENSIONS
  6
ByLayer
 62
  256
370
   -1
100
AcDbLine
 10
6.53327427761
 20
4.58556588048
 11
6.53327427761
 21
4.37720627672
  0
LWPOLYLINE
  5
EC
100
AcDbEntity
  8
DIMENSIONS
  6
ByLayer
 62
  256
370
   -1
100
AcDbPolyline
 90
    4
 70
    0
 43
0
 10
6.61660761095
 20
4.43970627672
 10
6.67660761095
 20
4.45220627672
 10
6.67660761095
 20
4.42720627672
 10
6.61660761095
 20
4.43970627672
  0
LINE
  5
ED
100
AcDbEntity
  8
DIMENSIONS
  6
ByLayer
 62
  256
370
   -1
100
AcDbLine
 10
6.67660761095
 20
4.43970627672
 11
6.86660761095
 21
4.43970627672
  0
LWPOLYLINE
  5
EE
100
AcDbEntity
  8
DIMENSIONS
  6
ByLayer
 62
  256
370
   -1
100
AcDbPolyline
 90
    4
 70
    0
 43
0
 10
6.53327427761
 20
4.43970627672
 10
6.47327427761
 20
4.42720627672
 10
6.47327427761
 20
4.45220627672
 10
6.53327427761
 20
4.43970627672
  0
LINE
  5
EF
100
AcDbEntity
  8
DIMENSIONS
  6
ByLayer
 62
  256
370
   -1
100
AcDbLine
 10
6.47327427761
 20
4.43970627672
 11
6.27698750814
 21
4.43970627527
  0
ENDBLK
  5
5C
330
5A
100
AcDbEntity
  8
0
100
AcDbBlockEnd
  0
BLOCK
  5
5E
330
5D
100
AcDbEntity
  8
0
100
AcDbBlockBegin
  2
D2
 70
    0
 10
0
 20
0
  3
D2
  1

  0
MTEXT
  5
F0
100
AcDbEntity
  8
DIMENSIONS
  6
ByLayer
 62
  256
370
   -1
100
AcDbMText
 10
5.94748849944
 20
4.91473254714
 30
0
 40
0.103404906449
 41
0.2987252852971175
 71
    5
 72
    1
  1
1.600
  7
standard
210
0
220
0
230
1
 50
0
 73
    1
 44
1
  0
MTEXT
  5
F1
100
AcDbEntity
  8
DIMENSIONS
  6
ByLayer
 62
  256
370
   -1
100
AcDbMText
 10
5.94748849944
 20
4.91473254714
 30
0
 40
0.103404906449
 41
0
 71
    5
 72
    1
  1

  7
standard
210
0
220
0
230
1
 50
0
 73
    1
 44
1
  0
MTEXT
  5
F2
100
AcDbEntity
  8
DIMENSIONS
  6
ByLayer
 62
  256
370
   -1
100
AcDbMText
 10
5.94748849944
 20
4.91473254714
 30
0
 40
0.103404906449
 41
0
 71
    5
 72
    1
  1

  7
standard
210
0
220
0
230
1
 50
0
 73
    1
 44
1
  0
LINE
  5
F3
100
AcDbEntity
  8
DIMENSIONS
  6
ByLayer
 62
  256
370
   -1
100
AcDbLine
 10
6.47077427761
 20
4.64806588048
 11
5.88498849944
 21
4.64806588048
  0
LINE
  5
F4
100
AcDbEntity
  8
DIMENSIONS
  6
ByLayer
 62
  256
370
   -1
100
AcDbLine
 10
6.47077427761
 20
5.18139921379
 11
5.88498849944
 21
5.18139921379
  0
LWPOLYLINE
  5
F5
100
AcDbEntity
  8
DIMENSIONS
  6
ByLayer
 62
  256
370
   -1
100
AcDbPolyline
 90
    4
 70
    0
 43
0
 10
5.94748849944
 20
4.64806588048
 10
5.93498849944
 20
4.70806588048
 10
5.95998849944
 20
4.70806588048
 10
5.94748849944
 20
4.64806588048
  0
LINE
  5
F6
100
AcDbEntity
  8
DIMENSIONS
  6
ByLayer
 62
  256
370
   -1
100
AcDbLine
 10
5.94748849944
 20
4.70806588048
 11
5.94748848622
 21
4.76889920746
  0
LWPOLYLINE
  5
F7
100
AcDbEntity
  8
DIMENSIONS
  6
ByLayer
 62
  256
370
   -1
100
AcDbPolyline
 90
    4
 70
    0
 43
0
 10
5.94748849944
 20
5.18139921379
 10
5.95998849944
 20
5.12139921379
 10
5.93498849944
 20
5.12139921379
 10
5.94748849944
 20
5.18139921379
  0
LINE
  5
F8
100
AcDbEntity
  8
DIMENSIONS
  6
ByLayer
 62
  256
370
   -1
100
AcDbLine
 10
5.94748849944
 20
5.12139921379
 11
5.94748848622
 21
5.06056587163
  0
ENDBLK
  5
5F
330
5D
100
AcDbEntity
  8
0
100
AcDbBlockEnd
  0
BLOCK
  5
61
330
60
100
AcDbEntity
  8
0
100
AcDbBlockBegin
  2
D3
 70
    0
 10
0
 20
0
  3
D3
  1

  0
MTEXT
  5
F9
100
AcDbEntity
  8
DIMENSIONS
  6
ByLayer
 62
  256
370
   -1
100
AcDbMText
 10
5.79911660022
 20
7.19135614831
 30
0
 40
0.103404906449
 41
0.3217041533968953
 71
    5
 72
    1
  1
9.000
  7
standard
210
0
220
0
230
1
 50
0
 73
    1
 44
1
  0
MTEXT
  5
FA
100
AcDbEntity
  8
DIMENSIONS
  6
ByLayer
 62
  256
370
   -1
100
AcDbMText
 10
5.79911660022
 20
7.19135614831
 30
0
 40
0.103404906449
 41
0
 71
    5
 72
    1
  1

  7
standard
210
0
220
0
230
1
 50
0
 73
    1
 44
1
  0
MTEXT
  5
FB
100
AcDbEntity
  8
DIMENSIONS
  6
ByLayer
 62
  256
370
   -1
100
AcDbMText
 10
5.79911660022
 20
7.19135614831
 30
0
 40
0.103404906449
 41
0
 71
    5
 72
    1
  1

  7
standard
210
0
220
0
230
1
 50
0
 73
    1
 44
1
  0
LINE
  5
FC
100
AcDbEntity
  8
DIMENSIONS
  6
ByLayer
 62
  256
370
   -1
100
AcDbLine
 10
6.47077427761
 20
8.39222647547
 11
5.73661660022
 21
8.39222647547
  0
LINE
  5
FD
100
AcDbEntity
  8
DIMENSIONS
  6
ByLayer
 62
  256
370
   -1
100
AcDbLine
 10
6.47077427761
 20
5.39222647556
 11
5.73661660022
 21
5.39222647556
  0
LWPOLYLINE
  5
FE
100
AcDbEntity
  8
DIMENSIONS
  6
ByLayer
 62
  256
370
   -1
100
AcDbPolyline
 90
    4
 70
    0
 43
0
 10
5.79911660022
 20
8.39222647547
 10
5.81161660022
 20
8.33222647547
 10
5.78661660022
 20
8.33222647547
 10
5.79911660022
 20
8.39222647547
  0
LINE
  5
FF
100
AcDbEntity
  8
DIMENSIONS
  6
ByLayer
 62
  256
370
   -1
100
AcDbLine
 10
5.79911660022
 20
8.33222647547
 11
5.79911653694
 21
7.33718959525
  0
LWPOLYLINE
  5
100
100
AcDbEntity
  8
DIMENSIONS
  6
ByLayer
 62
  256
370
   -1
100
AcDbPolyline
 90
    4
 70
    0
 43
0
 10
5.79911660022
 20
5.39222647556
 10
5.78661660022
 20
5.45222647556
 10
5.81161660022
 20
5.45222647556
 10
5.79911660022
 20
5.39222647556
  0
LINE
  5
101
100
AcDbEntity
  8
DIMENSIONS
  6
ByLayer
 62
  256
370
   -1
100
AcDbLine
 10
5.79911660022
 20
5.45222647556
 11
5.79911653694
 21
7.04552286851
  0
ENDBLK
  5
62
330
60
100
AcDbEntity
  8
0
100
AcDbBlockEnd
  0
BLOCK
  5
64
330
63
100
AcDbEntity
  8
0
100
AcDbBlockBegin
  2
BLOCK15
 70
    0
 10
0
 20
0
  3
BLOCK15
  1

  0
LINE
  5
102
100
AcDbEntity
  8
CONTINUOUS
  6
ByLayer
 62
  256
370
   -1
100
AcDbLine
 10
0.626251604621
 20
10.6420731707
 11
16.3762516046
 21
10.6420731707
  0
LINE
  5
103
100
AcDbEntity
  8
CONTINUOUS
  6
ByLayer
 62
  256
370
   -1
100
AcDbLine
 10
0.626251604621
 20
10.6420731707
 11
0.626251604621
 21
0.392073170732
  0
LINE
  5
104
100
AcDbEntity
  8
CONTINUOUS
  6
ByLayer
 62
  256
370
   -1
100
AcDbLine
 10
16.3762516046
 20
0.392073170732
 11
0.626251604621
 21
0.392073170732
  0
LINE
  5
105
100
AcDbEntity
  8
CONTINUOUS
  6
ByLayer
 62
  256
370
   -1
100
AcDbLine
 10
16.3762516046
 20
0.392073170732
 11
16.3762516046
 21
10.6420731707
  0
LINE
  5
106
100
AcDbEntity
  8
CONTINUOUS
  6
ByLayer
 62
  256
370
   -1
100
AcDbLine
 10
16.3762516046
 20
8.0752921748
 11
16.5012516046
 21
8.0752921748
  0
LINE
  5
107
100
AcDbEntity
  8
CONTINUOUS
  6
ByLayer
 62
  256
370
   -1
100
AcDbLine
 10
16.3762516046
 20
5.5127921748
 11
16.5012516046
 21
5.5127921748
  0
LINE
  5
108
100
AcDbEntity
  8
CONTINUOUS
  6
ByLayer
 62
  256
370
   -1
100
AcDbLine
 10
16.3762516046
 20
5.5127921748
 11
16.4434330337
 21
5.53680182526
  0
LINE
  5
109
100
AcDbEntity
  8
CONTINUOUS
  6
ByLayer
 62
  256
370
   -1
100
AcDbLine
 10
16.3762516046
 20
5.5127921748
 11
16.4434330337
 21
5.49021364932
  0
LINE
  5
10A
100
AcDbEntity
  8
CONTINUOUS
  6
ByLayer
 62
  256
370
   -1
100
AcDbLine
 10
16.4434330337
 20
5.53680182526
 11
16.4434330337
 21
5.49021364932
  0
LINE
  5
10B
100
AcDbEntity
  8
CONTINUOUS
  6
ByLayer
 62
  256
370
   -1
100
AcDbLine
 10
16.3762516046
 20
5.5127921748
 11
16.4434330337
 21
5.52183033312
  0
LINE
  5
10C
100
AcDbEntity
  8
CONTINUOUS
  6
ByLayer
 62
  256
370
   -1
100
AcDbLine
 10
16.3762516046
 20
5.5127921748
 11
16.4434330337
 21
5.50248405478
  0
LINE
  5
10D
100
AcDbEntity
  8
CONTINUOUS
  6
ByLayer
 62
  256
370
   -1
100
AcDbLine
 10
16.3762516046
 20
2.9502921748
 11
16.5012516046
 21
2.9502921748
  0
LINE
  5
10E
100
AcDbEntity
  8
CONTINUOUS
  6
ByLayer
 62
  256
370
   -1
100
AcDbLine
 10
0.626251604621
 20
2.95457317073
 11
0.501251604621
 21
2.95457317073
  0
LINE
  5
10F
100
AcDbEntity
  8
CONTINUOUS
  6
ByLayer
 62
  256
370
   -1
100
AcDbLine
 10
0.626251604621
 20
5.51707317073
 11
0.559070175518
 21
5.50676505072
  0
LINE
  5
110
100
AcDbEntity
  8
CONTINUOUS
  6
ByLayer
 62
  256
370
   -1
100
AcDbLine
 10
0.626251604621
 20
5.51707317073
 11
0.559070175518
 21
5.52611132905
  0
LINE
  5
111
100
AcDbEntity
  8
CONTINUOUS
  6
ByLayer
 62
  256
370
   -1
100
AcDbLine
 10
0.559070175518
 20
5.5410828212
 11
0.559070175518
 21
5.49449464526
  0
LINE
  5
112
100
AcDbEntity
  8
CONTINUOUS
  6
ByLayer
 62
  256
370
   -1
100
AcDbLine
 10
0.626251604621
 20
5.51707317073
 11
0.559070175518
 21
5.49449464526
  0
LINE
  5
113
100
AcDbEntity
  8
CONTINUOUS
  6
ByLayer
 62
  256
370
   -1
100
AcDbLine
 10
0.626251604621
 20
5.51707317073
 11
0.559070175518
 21
5.5410828212
  0
LINE
  5
114
100
AcDbEntity
  8
CONTINUOUS
  6
ByLayer
 62
  256
370
   -1
100
AcDbLine
 10
0.626251604621
 20
5.51707317073
 11
0.501251604621
 21
5.51707317073
  0
LINE
  5
115
100
AcDbEntity
  8
CONTINUOUS
  6
ByLayer
 62
  256
370
   -1
100
AcDbLine
 10
0.626251604621
 20
8.079573170730001
 11
0.501251604621
 21
8.079573170730001
  0
LINE
  5
116
100
AcDbEntity
  8
CONTINUOUS
  6
ByLayer
 62
  256
370
   -1
100
AcDbLine
 10
9.54980206352
 20
2.44962614087
 11
16.3762516046
 21
2.44962614087
  0
LINE
  5
117
100
AcDbEntity
  8
CONTINUOUS
  6
ByLayer
 62
  256
370
   -1
100
AcDbLine
 10
11.5513364013
 20
2.44962614087
 11
11.5513364013
 21
0.392073170732
  0
LINE
  5
118
100
AcDbEntity
  8
CONTINUOUS
  6
ByLayer
 62
  256
370
   -1
100
AcDbLine
 10
13.2432004658
 20
2.44962614087
 11
13.2432004658
 21
0.392073170732
  0
LINE
  5
119
100
AcDbEntity
  8
CONTINUOUS
  6
ByLayer
 62
  256
370
   -1
100
AcDbLine
 10
13.2432004658
 20
0.604959010098
 11
16.3762516046
 21
0.604959010098
  0
LINE
  5
11A
100
AcDbEntity
  8
CONTINUOUS
  6
ByLayer
 62
  256
370
   -1
100
AcDbLine
 10
13.2432004658
 20
1.11193624566
 11
16.3762516046
 21
1.11193624566
  0
LINE
  5
11B
100
AcDbEntity
  8
CONTINUOUS
  6
ByLayer
 62
  256
370
   -1
100
AcDbLine
 10
13.2432004658
 20
2.07462614087
 11
16.3762516046
 21
2.07462614087
  0
LINE
  5
11C
100
AcDbEntity
  8
CONTINUOUS
  6
ByLayer
 62
  256
370
   -1
100
AcDbLine
 10
13.6596632587
 20
1.11193624566
 11
13.6596632587
 21
0.604959010098
  0
LINE
  5
11D
100
AcDbEntity
  8
CONTINUOUS
  6
ByLayer
 62
  256
370
   -1
100
AcDbLine
 10
14.2861627554
 20
0.604959010098
 11
14.2861627554
 21
0.392073170732
  0
LINE
  5
11E
100
AcDbEntity
  8
CONTINUOUS
  6
ByLayer
 62
  256
370
   -1
100
AcDbLine
 10
15.8043163091
 20
1.11193624566
 11
15.8043163091
 21
0.604959010098
  0
LINE
  5
11F
100
AcDbEntity
  8
CONTINUOUS
  6
ByLayer
 62
  256
370
   -1
100
AcDbLine
 10
15.5189756774
 20
0.604959010098
 11
15.5189756774
 21
0.392073170732
  0
LINE
  5
120
100
AcDbEntity
  8
CONTINUOUS
  6
ByLayer
 62
  256
370
   -1
100
AcDbLine
 10
11.5513364013
 20
1.88712614087
 11
13.2432004658
 21
1.88712614087
  0
LINE
  5
121
100
AcDbEntity
  8
CONTINUOUS
  6
ByLayer
 62
  256
370
   -1
100
AcDbLine
 10
11.5513364013
 20
2.07462614087
 11
13.2432004658
 21
2.07462614087
  0
LINE
  5
122
100
AcDbEntity
  8
CONTINUOUS
  6
ByLayer
 62
  256
370
   -1
100
AcDbLine
 10
11.5513364013
 20
2.26212614087
 11
13.2432004658
 21
2.26212614087
  0
LINE
  5
123
100
AcDbEntity
  8
CONTINUOUS
  6
ByLayer
 62
  256
370
   -1
100
AcDbLine
 10
11.5513364013
 20
1.11668767505
 11
13.2432004658
 21
1.11668767505
  0
LINE
  5
124
100
AcDbEntity
  8
CONTINUOUS
  6
ByLayer
 62
  256
370
   -1
100
AcDbLine
 10
12.6404313067
 20
2.44962614087
 11
12.6404313067
 21
1.69962614087
  0
LINE
  5
125
100
AcDbEntity
  8
CONTINUOUS
  6
ByLayer
 62
  256
370
   -1
100
AcDbLine
 10
12.0248227272
 20
2.44962614087
 11
12.0248227272
 21
1.69962614087
  0
LINE
  5
126
100
AcDbEntity
  8
CONTINUOUS
  6
ByLayer
 62
  256
370
   -1
100
AcDbLine
 10
9.54980206352
 20
0.392073170732
 11
9.54980206352
 21
2.44962614087
  0
LINE
  5
127
100
AcDbEntity
  8
CONTINUOUS
  6
ByLayer
 62
  256
370
   -1
100
AcDbLine
 10
11.9625579365
 20
1.42415459873
 11
11.9625579365
 21
1.11668767505
  0
LINE
  5
128
100
AcDbEntity
  8
CONTINUOUS
  6
ByLayer
 62
  256
370
   -1
100
AcDbLine
 10
12.3737128259
 20
1.42415459873
 11
12.3737128259
 21
1.11668767505
  0
LINE
  5
129
100
AcDbEntity
  8
CONTINUOUS
  6
ByLayer
 62
  256
370
   -1
100
AcDbLine
 10
12.8181441331
 20
1.42415459873
 11
12.8181441331
 21
1.11668767505
  0
LINE
  5
12A
100
AcDbEntity
  8
CONTINUOUS
  6
ByLayer
 62
  256
370
   -1
100
AcDbLine
 10
11.5513364013
 20
1.42415459873
 11
13.2432004658
 21
1.42415459873
  0
LINE
  5
12B
100
AcDbEntity
  8
CONTINUOUS
  6
ByLayer
 62
  256
370
   -1
100
AcDbLine
 10
13.2432004658
 20
1.69962614087
 11
11.5513364013
 21
1.69962614087
  0
LINE
  5
12C
100
AcDbEntity
  8
CONTINUOUS
  6
ByLayer
 62
  256
370
   -1
100
AcDbLine
 10
9.54980206352
 20
1.26508544565
 11
11.5513364013
 21
1.26508544565
  0
LINE
  5
12D
100
AcDbEntity
  8
CONTINUOUS
  6
ByLayer
 62
  256
370
   -1
100
AcDbLine
 10
14.4072516046
 20
0.392073170732
 11
14.4072516046
 21
0.307273964934
  0
LINE
  5
12E
100
AcDbEntity
  8
CONTINUOUS
  6
ByLayer
 62
  256
370
   -1
100
AcDbLine
 10
12.4385016046
 20
0.392073170732
 11
12.4385016046
 21
0.307273964934
  0
LINE
  5
12F
100
AcDbEntity
  8
CONTINUOUS
  6
ByLayer
 62
  256
370
   -1
100
AcDbLine
 10
10.4697516046
 20
0.392073170732
 11
10.4697516046
 21
0.307273964934
  0
LINE
  5
130
100
AcDbEntity
  8
CONTINUOUS
  6
ByLayer
 62
  256
370
   -1
100
AcDbLine
 10
8.501001604620001
 20
0.392073170732
 11
8.501001604620001
 21
0.307273964934
  0
LINE
  5
131
100
AcDbEntity
  8
CONTINUOUS
  6
ByLayer
 62
  256
370
   -1
100
AcDbLine
 10
6.53225160462
 20
0.392073170732
 11
6.53225160462
 21
0.307273964934
  0
LINE
  5
132
100
AcDbEntity
  8
CONTINUOUS
  6
ByLayer
 62
  256
370
   -1
100
AcDbLine
 10
4.56350160462
 20
0.392073170732
 11
4.56350160462
 21
0.307273964934
  0
LINE
  5
133
100
AcDbEntity
  8
CONTINUOUS
  6
ByLayer
 62
  256
370
   -1
100
AcDbLine
 10
2.59475160462
 20
0.392073170732
 11
2.59475160462
 21
0.307273964934
  0
LINE
  5
134
100
AcDbEntity
  8
CONTINUOUS
  6
ByLayer
 62
  256
370
   -1
100
AcDbLine
 10
2.59475160462
 20
10.6420731707
 11
2.59475160462
 21
10.7268723765
  0
LINE
  5
135
100
AcDbEntity
  8
CONTINUOUS
  6
ByLayer
 62
  256
370
   -1
100
AcDbLine
 10
4.56350160462
 20
10.6420731707
 11
4.56350160462
 21
10.7268723765
  0
LINE
  5
136
100
AcDbEntity
  8
CONTINUOUS
  6
ByLayer
 62
  256
370
   -1
100
AcDbLine
 10
6.53225160462
 20
10.6420731707
 11
6.53225160462
 21
10.7268723765
  0
LINE
  5
137
100
AcDbEntity
  8
CONTINUOUS
  6
ByLayer
 62
  256
370
   -1
100
AcDbLine
 10
8.501001604620001
 20
10.6420731707
 11
8.501001604620001
 21
10.7268723765
  0
LINE
  5
138
100
AcDbEntity
  8
CONTINUOUS
  6
ByLayer
 62
  256
370
   -1
100
AcDbLine
 10
10.4697516046
 20
10.6420731707
 11
10.4697516046
 21
10.7268723765
  0
LINE
  5
139
100
AcDbEntity
  8
CONTINUOUS
  6
ByLayer
 62
  256
370
   -1
100
AcDbLine
 10
12.4385016046
 20
10.6420731707
 11
12.4385016046
 21
10.7268723765
  0
LINE
  5
13A
100
AcDbEntity
  8
CONTINUOUS
  6
ByLayer
 62
  256
370
   -1
100
AcDbLine
 10
14.4072516046
 20
10.6420731707
 11
14.4072516046
 21
10.7268723765
  0
LINE
  5
13B
100
AcDbEntity
  8
CONTINUOUS
  6
ByLayer
 62
  256
370
   -1
100
AcDbLine
 10
8.501001604620001
 20
10.6420731707
 11
8.48775048715
 21
10.6840054626
  0
LINE
  5
13C
100
AcDbEntity
  8
CONTINUOUS
  6
ByLayer
 62
  256
370
   -1
100
AcDbLine
 10
8.501001604620001
 20
10.6420731707
 11
8.513556578459999
 21
10.6840054626
  0
LINE
  5
13D
100
AcDbEntity
  8
CONTINUOUS
  6
ByLayer
 62
  256
370
   -1
100
AcDbLine
 10
8.513556578459999
 20
10.6840054626
 11
8.48775048715
 21
10.6840054626
  0
LINE
  5
13E
100
AcDbEntity
  8
CONTINUOUS
  6
ByLayer
 62
  256
370
   -1
100
AcDbLine
 10
8.49396306469
 20
10.6840054626
 11
8.501001604620001
 21
10.6420731707
  0
LINE
  5
13F
100
AcDbEntity
  8
CONTINUOUS
  6
ByLayer
 62
  256
370
   -1
100
AcDbLine
 10
8.505910329180001
 20
10.6840054626
 11
8.501001604620001
 21
10.6420731707
  0
LINE
  5
140
100
AcDbEntity
  8
CONTINUOUS
  6
ByLayer
 62
  256
370
   -1
100
AcDbLine
 10
8.501001604620001
 20
0.392073170732
 11
8.513556578459999
 21
0.3575
  0
LINE
  5
141
100
AcDbEntity
  8
CONTINUOUS
  6
ByLayer
 62
  256
370
   -1
100
AcDbLine
 10
8.513556578459999
 20
0.3575
 11
8.48775048715
 21
0.3575
  0
LINE
  5
142
100
AcDbEntity
  8
CONTINUOUS
  6
ByLayer
 62
  256
370
   -1
100
AcDbLine
 10
8.48775048715
 20
0.3575
 11
8.501001604620001
 21
0.392073170732
  0
INSERT
  5
143
100
AcDbEntity
  8
0
  6
ByLayer
 62
  256
370
   -1
100
AcDbBlockReference
  2
BLOCK16
 10
-0.37302643846
 20
0.0594801148978
 30
0
 41
1
 42
1
 43
0
 50
0
 70
    1
 71
    1
 44
0
 45
0
  0
INSERT
  5
144
100
AcDbEntity
  8
0
  6
ByLayer
 62
  256
370
   -1
100
AcDbBlockReference
  2
BLOCK17
 10
11.7562826626
 20
1.56976492583
 30
0
 41
1
 42
1
 43
0
 50
0
 70
    1
 71
    1
 44
0
 45
0
  0
MTEXT
  5
145
100
AcDbEntity
  8
CONTINUOUS
  6
ByLayer
 62
  256
370
   -1
100
AcDbMText
 10
13.352296777
 20
0.342247266662
 30
0
 40
0.07149811858879999
 41
0.4210444761340444
 71
    1
 72
    1
  1
\C7;2\C7;
  7
standard
210
0
220
0
230
1
 50
0
 73
    1
 44
1
  0
MTEXT
  5
146
100
AcDbEntity
  8
CONTINUOUS
  6
ByLayer
 62
  256
370
   -1
100
AcDbMText
 10
11.5941272892
 20
1.40810952244
 30
0
 40
0.0536235889416
 41
0.5541104076948838
 71
    1
 72
    1
  1
\C7;ANGLES\C7;
  7
standard
210
0
220
0
230
1
 50
0
 73
    1
 44
1
  0
MTEXT
  5
147
100
AcDbEntity
  8
CONTINUOUS
  6
ByLayer
 62
  256
370
   -1
100
AcDbMText
 10
5.51882523857
 20
0.343463549961
 30
0
 40
0.07149811858879999
 41
0.4210444761340488
 71
    1
 72
    1
  1
\C7;6\C7;
  7
standard
210
0
220
0
230
1
 50
0
 73
    1
 44
1
  0
MTEXT
  5
148
100
AcDbEntity
  8
CONTINUOUS
  6
ByLayer
 62
  256
370
   -1
100
AcDbMText
 10
0.426009949526
 20
1.7856582291
 30
0
 40
0.07149811858879999
 41
0.4369329469315555
 71
    1
 72
    1
  1
\C7;A\C7;
  7
standard
210
0
220
0
230
1
 50
0
 73
    1
 44
1
  0
MTEXT
  5
149
100
AcDbEntity
  8
CONTINUOUS
  6
ByLayer
 62
  256
370
   -1
100
AcDbMText
 10
15.974082703
 20
1.11376163929
 30
0
 40
0.0804353834124
 41
0.625608537652
 71
    1
 72
    1
  1
\C7;REV\C7;
  7
standard
210
0
220
0
230
1
 50
0
 73
    1
 44
1
  0
MTEXT
  5
14A
100
AcDbEntity
  8
CONTINUOUS
  6
ByLayer
 62
  256
370
   -1
100
AcDbMText
 10
9.46429872495
 20
10.8654638765
 30
0
 40
0.07149811858879999
 41
0.4289887115328
 71
    1
 72
    1
  1
\C7;4\C7;
  7
standard
210
0
220
0
230
1
 50
0
 73
    1
 44
1
  0
MTEXT
  5
14B
100
AcDbEntity
  8
CONTINUOUS
  6
ByLayer
 62
  256
370
   -1
100
AcDbMText
 10
13.6651407077
 20
1.7171682523
 30
0
 40
0.08617075537420001
 41
1.182454254301528
 71
    4
 72
    1
  1
\C7;L-Q1\C7;\H0.95x;
  7
standard
210
0
220
0
230
1
 50
0
 73
    1
 44
1
  0
MTEXT
  5
14C
100
AcDbEntity
  8
CONTINUOUS
  6
ByLayer
 62
  256
370
   -1
100
AcDbMText
 10
3.55098702735
 20
10.8584654291
 30
0
 40
0.07149811858879999
 41
0.4210444761340444
 71
    1
 72
    1
  1
\C7;7\C7;
  7
standard
210
0
220
0
230
1
 50
0
 73
    1
 44
1
  0
MTEXT
  5
14D
100
AcDbEntity
  8
CONTINUOUS
  6
ByLayer
 62
  256
370
   -1
100
AcDbMText
 10
13.7021006186
 20
0.878810056551
 30
0
 40
0.155107359674
 41
2.649750727764167
 71
    4
 72
    1
  1
\C7;01-172-00-0 L-Q1\C7;
  7
standard
210
0
220
0
230
1
 50
0
 73
    1
 44
1
  0
MTEXT
  5
14E
100
AcDbEntity
  8
CONTINUOUS
  6
ByLayer
 62
  256
370
   -1
100
AcDbMText
 10
7.47869468193
 20
10.8670932197
 30
0
 40
0.07149811858879999
 41
0.4210444761340488
 71
    1
 72
    1
  1
\C7;5\C7;
  7
standard
210
0
220
0
230
1
 50
0
 73
    1
 44
1
  0
MTEXT
  5
14F
100
AcDbEntity
  8
CONTINUOUS
  6
ByLayer
 62
  256
370
   -1
100
AcDbMText
 10
3.55742667537
 20
0.343069146781
 30
0
 40
0.07149811858879999
 41
0.4210444761340444
 71
    1
 72
    1
  1
\C7;7\C7;
  7
standard
210
0
220
0
230
1
 50
0
 73
    1
 44
1
  0
MTEXT
  5
150
100
AcDbEntity
  8
CONTINUOUS
  6
ByLayer
 62
  256
370
   -1
100
AcDbMText
 10
12.9507724147
 20
1.40810952244
 30
0
 40
0.0536235889416
 41
0.4528214177290666
 71
    1
 72
    1
  1
\C7;.XXX\C7;
  7
standard
210
0
220
0
230
1
 50
0
 73
    1
 44
1
  0
MTEXT
  5
151
100
AcDbEntity
  8
CONTINUOUS
  6
ByLayer
 62
  256
370
   -1
100
AcDbMText
 10
12.4654202198
 20
1.24618552801
 30
0
 40
0.0732451420681
 41
0.6266528821381935
 71
    4
 72
    1
  1
\C7;+-.03\C7;
  7
standard
210
0
220
0
230
1
 50
0
 73
    1
 44
1
  0
MTEXT
  5
152
100
AcDbEntity
  8
CONTINUOUS
  6
ByLayer
 62
  256
370
   -1
100
AcDbMText
 10
11.3787703324
 20
0.341427315776
 30
0
 40
0.07149811858879999
 41
0.4210444761340488
 71
    1
 72
    1
  1
\C7;3\C7;
  7
standard
210
0
220
0
230
1
 50
0
 73
    1
 44
1
  0
MTEXT
  5
153
100
AcDbEntity
  8
CONTINUOUS
  6
ByLayer
 62
  256
370
   -1
100
AcDbMText
 10
12.8420705227
 20
2.40448810286
 30
0
 40
0.0536235889416
 41
0.4647377708272033
 71
    1
 72
    1
  1
\C7;DATE\C7;
  7
standard
210
0
220
0
230
1
 50
0
 73
    1
 44
1
  0
MTEXT
  5
154
100
AcDbEntity
  8
CONTINUOUS
  6
ByLayer
 62
  256
370
   -1
100
AcDbMText
 10
1.52677445274
 20
0.342770883823
 30
0
 40
0.07149811858879999
 41
0.4210444761340444
 71
    1
 72
    1
  1
\C7;8\C7;
  7
standard
210
0
220
0
230
1
 50
0
 73
    1
 44
1
  0
MTEXT
  5
155
100
AcDbEntity
  8
CONTINUOUS
  6
ByLayer
 62
  256
370
   -1
100
AcDbMText
 10
13.6876444178
 20
2.24976231733
 30
0
 40
0.137873208599
 41
1.953203730027009
 71
    4
 72
    1
  1
\C7;CEB PRESS 5\C7;
  7
standard
210
0
220
0
230
1
 50
0
 73
    1
 44
1
  0
MTEXT
  5
156
100
AcDbEntity
  8
CONTINUOUS
  6
ByLayer
 62
  256
370
   -1
100
AcDbMText
 10
0.426401731406
 20
4.42305363331
 30
0
 40
0.07149811858879999
 41
0.4289887115328
 71
    1
 72
    1
  1
\C7;B\C7;
  7
standard
210
0
220
0
230
1
 50
0
 73
    1
 44
1
  0
MTEXT
  5
157
100
AcDbEntity
  8
CONTINUOUS
  6
ByLayer
 62
  256
370
   -1
100
AcDbMText
 10
10.194692211
 20
1.18799467965
 30
0
 40
0.044686324118
 41
0.8875200389811256
 71
    1
 72
    1
  1
\C7;LICENSE INFORMATION\C7;
  7
standard
210
0
220
0
230
1
 50
0
 73
    1
 44
1
  0
MTEXT
  5
158
100
AcDbEntity
  8
CONTINUOUS
  6
ByLayer
 62
  256
370
   -1
100
AcDbMText
 10
7.48511555553
 20
0.340394556307
 30
0
 40
0.07149811858879999
 41
0.4210444761340488
 71
    1
 72
    1
  1
\C7;5\C7;
  7
standard
210
0
220
0
230
1
 50
0
 73
    1
 44
1
  0
MTEXT
  5
159
100
AcDbEntity
  8
CONTINUOUS
  6
ByLayer
 62
  256
370
   -1
100
AcDbMText
 10
9.704144788860001
 20
0.829376856762
 30
0
 40
0.044686324118
 41
1.163085713849056
 71
    1
 72
    1
  1
\C7;FURTHER INFORMATION GO TO:\C7;
  7
standard
210
0
220
0
230
1
 50
0
 73
    1
 44
1
  0
MTEXT
  5
15A
100
AcDbEntity
  8
CONTINUOUS
  6
ByLayer
 62
  256
370
   -1
100
AcDbMText
 10
12.685442046
 20
1.9640694266
 30
0
 40
0.0775536798368
 41
0.1852671240545778
 71
    4
 72
    1
  1
\C7;
  7
standard
210
0
220
0
230
1
 50
0
 73
    1
 44
1
  0
MTEXT
  5
15B
100
AcDbEntity
  8
CONTINUOUS
  6
ByLayer
 62
  256
370
   -1
100
AcDbMText
 10
14.3543842928
 20
0.583894128255
 30
0
 40
0.0804353834124
 41
0.8401028934184001
 71
    1
 72
    1
  1
\C7;WEIGHT:\C7;
  7
standard
210
0
220
0
230
1
 50
0
 73
    1
 44
1
  0
MTEXT
  5
15C
100
AcDbEntity
  8
CONTINUOUS
  6
ByLayer
 62
  256
370
   -1
100
AcDbMText
 10
11.6511163186
 20
1.22914982593
 30
0
 40
0.0732451420681
 41
0.569684438307449
 71
    4
 72
    1
  1
\C7;+-.5\C7;
  7
standard
210
0
220
0
230
1
 50
0
 73
    1
 44
1
  0
MTEXT
  5
15D
100
AcDbEntity
  8
CONTINUOUS
  6
ByLayer
 62
  256
370
   -1
100
AcDbMText
 10
15.4083167374
 20
0.331180143587
 30
0
 40
0.07149811858879999
 41
0.4051560053365333
 71
    1
 72
    1
  1
\C7;1\C7;
  7
standard
210
0
220
0
230
1
 50
0
 73
    1
 44
1
  0
MTEXT
  5
15E
100
AcDbEntity
  8
CONTINUOUS
  6
ByLayer
 62
  256
370
   -1
100
AcDbMText
 10
15.6390693244
 20
0.535415439155
 30
0
 40
0.0775536798368
 41
0.1852671240545778
 71
    4
 72
    1
  1
\C7;
  7
standard
210
0
220
0
230
1
 50
0
 73
    1
 44
1
  0
MTEXT
  5
15F
100
AcDbEntity
  8
CONTINUOUS
  6
ByLayer
 62
  256
370
   -1
100
AcDbMText
 10
9.704144788860001
 20
0.630636707625
 30
0
 40
0.044686324118
 41
1.473407390165751
 71
    1
 72
    1
  1
\C7;OPENSOURCEECOLOGY.ORG/WIKI/LICENSE \C7;
  7
standard
210
0
220
0
230
1
 50
0
 73
    1
 44
1
  0
MTEXT
  5
160
100
AcDbEntity
  8
CONTINUOUS
  6
ByLayer
 62
  256
370
   -1
100
AcDbMText
 10
13.3235206706
 20
0.587696530819
 30
0
 40
0.0804353834124
 41
0.7775420226007259
 71
    1
 72
    1
  1
\C7;SCALE:\C7;
  7
standard
210
0
220
0
230
1
 50
0
 73
    1
 44
1
  0
MTEXT
  5
161
100
AcDbEntity
  8
CONTINUOUS
  6
ByLayer
 62
  256
370
   -1
100
AcDbMText
 10
12.6790060209
 20
2.16159715427
 30
0
 40
0.0775536798368
 41
0.1852671240545778
 71
    4
 72
    1
  1
\C7;
  7
standard
210
0
220
0
230
1
 50
0
 73
    1
 44
1
  0
MTEXT
  5
162
100
AcDbEntity
  8
CONTINUOUS
  6
ByLayer
 62
  256
370
   -1
100
AcDbMText
 10
12.1247775615
 20
1.40810952244
 30
0
 40
0.0536235889416
 41
0.3455742398458667
 71
    1
 72
    1
  1
\C7;.X\C7;
  7
standard
210
0
220
0
230
1
 50
0
 73
    1
 44
1
  0
MTEXT
  5
163
100
AcDbEntity
  8
CONTINUOUS
  6
ByLayer
 62
  256
370
   -1
100
AcDbMText
 10
12.5359721151
 20
1.40810952244
 30
0
 40
0.0536235889416
 41
0.3991978287874667
 71
    1
 72
    1
  1
\C7;.XX\C7;
  7
standard
210
0
220
0
230
1
 50
0
 73
    1
 44
1
  0
MTEXT
  5
164
100
AcDbEntity
  8
CONTINUOUS
  6
ByLayer
 62
  256
370
   -1
100
AcDbMText
 10
13.7070501432
 20
1.11292980944
 30
0
 40
0.0804353834124
 41
0.969693233360605
 71
    1
 72
    1
  1
\C7;DWG.  NO.\C7;
  7
standard
210
0
220
0
230
1
 50
0
 73
    1
 44
1
  0
MTEXT
  5
165
100
AcDbEntity
  8
CONTINUOUS
  6
ByLayer
 62
  256
370
   -1
100
AcDbMText
 10
13.2990559431
 20
2.44278324028
 30
0
 40
0.0804353834124
 41
0.9026637471836051
 71
    1
 72
    1
  1
\C7;PROJECT:\C7;
  7
standard
210
0
220
0
230
1
 50
0
 73
    1
 44
1
  0
MTEXT
  5
166
100
AcDbEntity
  8
CONTINUOUS
  6
ByLayer
 62
  256
370
   -1
100
AcDbMText
 10
16.4913158734
 20
9.52080834587
 30
0
 40
0.07149811858879999
 41
0.4289887115328044
 71
    1
 72
    1
  1
\C7;D\C7;
  7
standard
210
0
220
0
230
1
 50
0
 73
    1
 44
1
  0
MTEXT
  5
167
100
AcDbEntity
  8
CONTINUOUS
  6
ByLayer
 62
  256
370
   -1
100
AcDbMText
 10
12.6703334419
 20
1.79787658338
 30
0
 40
0.0775536798368
 41
0.1852671240545778
 71
    4
 72
    1
  1
\C7;
  7
standard
210
0
220
0
230
1
 50
0
 73
    1
 44
1
  0
MTEXT
  5
168
100
AcDbEntity
  8
CONTINUOUS
  6
ByLayer
 62
  256
370
   -1
100
AcDbMText
 10
12.0667861578
 20
1.25640681409
 30
0
 40
0.0732451420681
 41
0.5534077400700889
 71
    4
 72
    1
  1
\C7;+-.1\C7;
  7
standard
210
0
220
0
230
1
 50
0
 73
    1
 44
1
  0
MTEXT
  5
169
100
AcDbEntity
  8
CONTINUOUS
  6
ByLayer
 62
  256
370
   -1
100
AcDbMText
 10
14.9028603862
 20
0.524457871445
 30
0
 40
0.0775536798368
 41
0.1852671240545778
 71
    4
 72
    1
  1
\C7;
  7
standard
210
0
220
0
230
1
 50
0
 73
    1
 44
1
  0
MTEXT
  5
16A
100
AcDbEntity
  8
CONTINUOUS
  6
ByLayer
 62
  256
370
   -1
100
AcDbMText
 10
11.432728105
 20
10.8593303954
 30
0
 40
0.07149811858879999
 41
0.4210444761340488
 71
    1
 72
    1
  1
\C7;3\C7;
  7
standard
210
0
220
0
230
1
 50
0
 73
    1
 44
1
  0
MTEXT
  5
16B
100
AcDbEntity
  8
CONTINUOUS
  6
ByLayer
 62
  256
370
   -1
100
AcDbMText
 10
16.4820809255
 20
1.80243379177
 30
0
 40
0.07149811858879999
 41
0.4369329469315555
 71
    1
 72
    1
  1
\C7;A\C7;
  7
standard
210
0
220
0
230
1
 50
0
 73
    1
 44
1
  0
MTEXT
  5
16C
100
AcDbEntity
  8
CONTINUOUS
  6
ByLayer
 62
  256
370
   -1
100
AcDbMText
 10
9.47012493161
 20
0.343531883398
 30
0
 40
0.07149811858879999
 41
0.4289887115328
 71
    1
 72
    1
  1
\C7;4\C7;
  7
standard
210
0
220
0
230
1
 50
0
 73
    1
 44
1
  0
MTEXT
  5
16D
100
AcDbEntity
  8
CONTINUOUS
  6
ByLayer
 62
  256
370
   -1
100
AcDbMText
 10
12.0671141617
 20
2.16915160652
 30
0
 40
0.0732451420681
 41
0.5696844383074444
 71
    4
 72
    1
  1
\C7;RHB\C7;
  7
standard
210
0
220
0
230
1
 50
0
 73
    1
 44
1
  0
MTEXT
  5
16E
100
AcDbEntity
  8
CONTINUOUS
  6
ByLayer
 62
  256
370
   -1
100
AcDbMText
 10
13.7722586084
 20
0.493252333694
 30
0
 40
0.0775536798368
 41
0.6635148163815112
 71
    4
 72
    1
  1
\C7;NONE\C7;
  7
standard
210
0
220
0
230
1
 50
0
 73
    1
 44
1
  0
MTEXT
  5
16F
100
AcDbEntity
  8
CONTINUOUS
  6
ByLayer
 62
  256
370
   -1
100
AcDbMText
 10
13.2990559431
 20
2.04849907575
 30
0
 40
0.0804353834124
 41
1.117158085897531
 71
    1
 72
    1
  1
\C7;DESCRIPTION:\C7;
  7
standard
210
0
220
0
230
1
 50
0
 73
    1
 44
1
  0
MTEXT
  5
170
100
AcDbEntity
  8
CONTINUOUS
  6
ByLayer
 62
  256
370
   -1
100
AcDbMText
 10
13.3602911836
 20
1.09582620642
 30
0
 40
0.0804353834124
 41
0.6434830502467259
 71
    1
 72
    1
  1
\C7;SIZE\C7;
  7
standard
210
0
220
0
230
1
 50
0
 73
    1
 44
1
  0
MTEXT
  5
171
100
AcDbEntity
  8
CONTINUOUS
  6
ByLayer
 62
  256
370
   -1
100
AcDbMText
 10
5.49868768611
 20
10.8665566623
 30
0
 40
0.07149811858879999
 41
0.4210444761340488
 71
    1
 72
    1
  1
\C7;6\C7;
  7
standard
210
0
220
0
230
1
 50
0
 73
    1
 44
1
  0
MTEXT
  5
172
100
AcDbEntity
  8
CONTINUOUS
  6
ByLayer
 62
  256
370
   -1
100
AcDbMText
 10
12.8387210876
 20
1.23131188821
 30
0
 40
0.0732451420681
 41
0.6836213259689379
 71
    4
 72
    1
  1
\C7;+-.005\C7;
  7
standard
210
0
220
0
230
1
 50
0
 73
    1
 44
1
  0
MTEXT
  5
173
100
AcDbEntity
  8
CONTINUOUS
  6
ByLayer
 62
  256
370
   -1
100
AcDbMText
 10
12.1967072781
 20
2.41539617384
 30
0
 40
0.0536235889416
 41
0.4706959473762666
 71
    1
 72
    1
  1
\C7;NAME\C7;
  7
standard
210
0
220
0
230
1
 50
0
 73
    1
 44
1
  0
MTEXT
  5
174
100
AcDbEntity
  8
CONTINUOUS
  6
ByLayer
 62
  256
370
   -1
100
AcDbMText
 10
15.4273970005
 20
10.8598767883
 30
0
 40
0.07149811858879999
 41
0.4051560053365333
 71
    1
 72
    1
  1
\C7;1\C7;
  7
standard
210
0
220
0
230
1
 50
0
 73
    1
 44
1
  0
MTEXT
  5
175
100
AcDbEntity
  8
CONTINUOUS
  6
ByLayer
 62
  256
370
   -1
100
AcDbMText
 10
11.5981115451
 20
2.02314188428
 30
0
 40
0.0536235889416
 41
0.5839013018085366
 71
    1
 72
    1
  1
\C7;CHECKED\C7;
  7
standard
210
0
220
0
230
1
 50
0
 73
    1
 44
1
  0
MTEXT
  5
176
100
AcDbEntity
  8
CONTINUOUS
  6
ByLayer
 62
  256
370
   -1
100
AcDbMText
 10
13.3681812646
 20
1.00046194544
 30
0
 40
0.205557090943
 41
1.233342545658
 71
    1
 72
    1
  1
\C7;B\C7;
  7
standard
210
0
220
0
230
1
 50
0
 73
    1
 44
1
  0
MTEXT
  5
177
100
AcDbEntity
  8
CONTINUOUS
  6
ByLayer
 62
  256
370
   -1
100
AcDbMText
 10
1.50908886894
 20
10.8613063881
 30
0
 40
0.07149811858879999
 41
0.4210444761340444
 71
    1
 72
    1
  1
\C7;8\C7;
  7
standard
210
0
220
0
230
1
 50
0
 73
    1
 44
1
  0
MTEXT
  5
178
100
AcDbEntity
  8
CONTINUOUS
  6
ByLayer
 62
  256
370
   -1
100
AcDbMText
 10
11.6118920972
 20
0.574023856188
 30
0
 40
0.07149811858879999
 41
1.62459613904552
 71
    1
 72
    1
  1
\C7;THIRD ANGLE PROJECTION\C7;
  7
standard
210
0
220
0
230
1
 50
0
 73
    1
 44
1
  0
MTEXT
  5
179
100
AcDbEntity
  8
CONTINUOUS
  6
ByLayer
 62
  256
370
   -1
100
AcDbMText
 10
16.5114787596
 20
4.40889620723
 30
0
 40
0.07149811858879999
 41
0.4289887115328
 71
    1
 72
    1
  1
\C7;B\C7;
  7
standard
210
0
220
0
230
1
 50
0
 73
    1
 44
1
  0
MTEXT
  5
17A
100
AcDbEntity
  8
CONTINUOUS
  6
ByLayer
 62
  256
370
   -1
100
AcDbMText
 10
11.5959805855
 20
2.21550209874
 30
0
 40
0.0536235889416
 41
0.5362358894160032
 71
    1
 72
    1
  1
\C7;DRAWN\C7;
  7
standard
210
0
220
0
230
1
 50
0
 73
    1
 44
1
  0
MTEXT
  5
17B
100
AcDbEntity
  8
CONTINUOUS
  6
ByLayer
 62
  256
370
   -1
100
AcDbMText
 10
16.4711826244
 20
6.93488774165
 30
0
 40
0.07149811858879999
 41
0.4210444761340444
 71
    1
 72
    1
  1
\C7;C\C7;
  7
standard
210
0
220
0
230
1
 50
0
 73
    1
 44
1
  0
MTEXT
  5
17C
100
AcDbEntity
  8
CONTINUOUS
  6
ByLayer
 62
  256
370
   -1
100
AcDbMText
 10
6.80009196124
 20
1.11928384135
 30
0
 40
0.0775536798368
 41
2.882411767267739
 71
    4
 72
    1
  3
\C7;PLEASE PROCEED AT YOUR OWN RISK!\C7;\PTHESE DRAWINGS ARE MEANT TO DOCUMENT\C7;\PPREVIOUS WORK AND PRESENT IDEAS ONLY\C7;\PTHEY ARE NOT MEANT TO BE A COMPLETE GUIDE.\C7;\PWORKING WITH ANY TOOLS, EQUIPMENT, \C7;\PHYDRAULICS, ELECTRONICS, ETC. MAY \
  1
C7;\PCAUSE SERIOUS INJURY OR DEATH.\C7;\P\C7;
  7
standard
210
0
220
0
230
1
 50
0
 73
    1
 44
1
  0
MTEXT
  5
17D
100
AcDbEntity
  8
CONTINUOUS
  6
ByLayer
 62
  256
370
   -1
100
AcDbMText
 10
12.0746666615
 20
1.98029600729
 30
0
 40
0.0775536798368
 41
0.1852671240545778
 71
    4
 72
    1
  1
\C7;
  7
standard
210
0
220
0
230
1
 50
0
 73
    1
 44
1
  0
MTEXT
  5
17E
100
AcDbEntity
  8
CONTINUOUS
  6
ByLayer
 62
  256
370
   -1
100
AcDbMText
 10
11.5952182844
 20
1.84062215402
 30
0
 40
0.0536235889416
 41
0.4885704770234667
 71
    1
 72
    1
  1
\C7;APPR.\C7;
  7
standard
210
0
220
0
230
1
 50
0
 73
    1
 44
1
  0
MTEXT
  5
17F
100
AcDbEntity
  8
CONTINUOUS
  6
ByLayer
 62
  256
370
   -1
100
AcDbMText
 10
0.428610479966
 20
9.487355494719999
 30
0
 40
0.07149811858879999
 41
0.4289887115328044
 71
    1
 72
    1
  1
\C7;D\C7;
  7
standard
210
0
220
0
230
1
 50
0
 73
    1
 44
1
  0
MTEXT
  5
180
100
AcDbEntity
  8
CONTINUOUS
  6
ByLayer
 62
  256
370
   -1
100
AcDbMText
 10
9.704144788860001
 20
0.9287469313309999
 30
0
 40
0.044686324118
 41
1.597536058797713
 71
    1
 72
    1
  1
\C7;LICENSE FOR DISTRIBUTIVE ECONOMICS. FOR \C7;
  7
standard
210
0
220
0
230
1
 50
0
 73
    1
 44
1
  0
MTEXT
  5
181
100
AcDbEntity
  8
CONTINUOUS
  6
ByLayer
 62
  256
370
   -1
100
AcDbMText
 10
15.852709192
 20
0.848986032441
 30
0
 40
0.155107359674
 41
0.3705342481101112
 71
    4
 72
    1
  1
\C7;
  7
standard
210
0
220
0
230
1
 50
0
 73
    1
 44
1
  0
MTEXT
  5
182
100
AcDbEntity
  8
CONTINUOUS
  6
ByLayer
 62
  256
370
   -1
100
AcDbMText
 10
12.0671129602
 20
1.79144010769
 30
0
 40
0.0775536798368
 41
0.1852671240545778
 71
    4
 72
    1
  1
\C7;
  7
standard
210
0
220
0
230
1
 50
0
 73
    1
 44
1
  0
MTEXT
  5
183
100
AcDbEntity
  8
CONTINUOUS
  6
ByLayer
 62
  256
370
   -1
100
AcDbMText
 10
13.4009949841
 20
10.8660102694
 30
0
 40
0.07149811858879999
 41
0.4210444761340444
 71
    1
 72
    1
  1
\C7;2\C7;
  7
standard
210
0
220
0
230
1
 50
0
 73
    1
 44
1
  0
MTEXT
  5
184
100
AcDbEntity
  8
CONTINUOUS
  6
ByLayer
 62
  256
370
   -1
100
AcDbMText
 10
9.704144788860001
 20
1.0281170059
 30
0
 40
0.044686324118
 41
1.748973046086493
 71
    1
 72
    1
  1
\C7;ALL INFORMATION IS RELEASED UNDER THE OSE \C7;
  7
standard
210
0
220
0
230
1
 50
0
 73
    1
 44
1
  0
MTEXT
  5
185
100
AcDbEntity
  8
CONTINUOUS
  6
ByLayer
 62
  256
370
   -1
100
AcDbMText
 10
0.427314415038
 20
6.9401519559
 30
0
 40
0.07149811858879999
 41
0.4210444761340444
 71
    1
 72
    1
  1
\C7;C\C7;
  7
standard
210
0
220
0
230
1
 50
0
 73
    1
 44
1
  0
ENDBLK
  5
65
330
63
100
AcDbEntity
  8
0
100
AcDbBlockEnd
  0
BLOCK
  5
67
330
66
100
AcDbEntity
  8
0
100
AcDbBlockBegin
  2
BLOCK16
 70
    0
 10
0
 20
0
  3
BLOCK16
  1

  0
CIRCLE
  5
186
100
AcDbEntity
  8
0
  6
ByLayer
 62
  256
370
   -1
100
AcDbCircle
 10
12.5727822224
 20
0.77973765604
 40
0.0787401574803
  0
CIRCLE
  5
187
100
AcDbEntity
  8
0
  6
ByLayer
 62
  256
370
   -1
100
AcDbCircle
 10
12.5727822224
 20
0.77973765604
 40
0.157480314961
  0
LINE
  5
188
100
AcDbEntity
  8
0
  6
ByLayer
 62
  256
370
   -1
100
AcDbLine
 10
12.8090026948
 20
0.85847781352
 11
12.8090026948
 21
0.700997498559
  0
LINE
  5
189
100
AcDbEntity
  8
0
  6
ByLayer
 62
  256
370
   -1
100
AcDbLine
 10
12.8090026948
 20
0.700997498559
 11
13.1239633247
 21
0.622257341079
  0
LINE
  5
18A
100
AcDbEntity
  8
0
  6
ByLayer
 62
  256
370
   -1
100
AcDbLine
 10
13.1239633247
 20
0.622257341079
 11
13.1239633247
 21
0.937217971
  0
LINE
  5
18B
100
AcDbEntity
  8
0
  6
ByLayer
 62
  256
370
   -1
100
AcDbLine
 10
13.1239633247
 20
0.937217971
 11
12.8090026948
 21
0.85847781352
  0
LINE
  5
18C
100
AcDbEntity
  8
0
  6
ByLayer
 62
  256
370
   -1
100
AcDbLine
 10
12.3365617499
 20
0.77973765604
 11
13.2027034822
 21
0.77973765604
  0
LINE
  5
18D
100
AcDbEntity
  8
0
  6
ByLayer
 62
  256
370
   -1
100
AcDbLine
 10
12.5727822224
 20
1.01595812848
 11
12.5727822224
 21
0.543517183599
  0
ENDBLK
  5
68
330
66
100
AcDbEntity
  8
0
100
AcDbBlockEnd
  0
BLOCK
  5
6A
330
69
100
AcDbEntity
  8
0
100
AcDbBlockBegin
  2
BLOCK17
 70
    0
 10
0
 20
0
  3
BLOCK17
  1

  0
MTEXT
  5
18E
100
AcDbEntity
  8
0
  6
ByLayer
 62
  256
370
   -1
100
AcDbMText
 10
0
 20
0.112491480021
 30
0
 40
0.0536235889416
 41
1.379317825635672
 71
    1
 72
    1
  1
\C7;UNLESS OTHERWISE SPECIFIED\C7;
  7
standard
210
0
220
0
230
1
 50
0
 73
    1
 44
1
  0
MTEXT
  5
18F
100
AcDbEntity
  8
0
  6
ByLayer
 62
  256
370
   -1
100
AcDbMText
 10
0
 20
0.00312140263981
 30
0
 40
0.0536235889416
 41
1.304840630140655
 71
    1
 72
    1
  1
\C7; DIMENSIONS ARE IN INCHES\C7;
  7
standard
210
0
220
0
230
1
 50
0
 73
    1
 44
1
  0
ENDBLK
  5
6B
330
69
100
AcDbEntity
  8
0
100
AcDbBlockEnd
  0
BLOCK
  5
6D
330
6C
100
AcDbEntity
  8
0
100
AcDbBlockBegin
  2
L-Q1
 70
    0
 10
0
 20
0
  3
L-Q1
  1

  0
LINE
  5
190
100
AcDbEntity
  8
VISIBLE
  6
ByLayer
 62
  256
370
   -1
100
AcDbLine
 10
6.61660761095
 20
4.64806588048
 11
6.53327427761
 21
4.64806588048
  0
LINE
  5
191
100
AcDbEntity
  8
VISIBLE
  6
ByLayer
 62
  256
370
   -1
100
AcDbLine
 10
6.53327427761
 20
4.64804274285
 11
6.53327427761
 21
4.64806588048
  0
LINE
  5
192
100
AcDbEntity
  8
VISIBLE
  6
ByLayer
 62
  256
370
   -1
100
AcDbLine
 10
6.61660761095
 20
4.64804274285
 11
6.61660761095
 21
4.64806588048
  0
LINE
  5
193
100
AcDbEntity
  8
VISIBLE
  6
ByLayer
 62
  256
370
   -1
100
AcDbLine
 10
6.61660761095
 20
4.64804274285
 11
6.53327427761
 21
4.64804274285
  0
LINE
  5
194
100
AcDbEntity
  8
VISIBLE
  6
ByLayer
 62
  256
370
   -1
100
AcDbLine
 10
6.61660761095
 20
5.18139921379
 11
6.61660761095
 21
4.64806588048
  0
LINE
  5
195
100
AcDbEntity
  8
VISIBLE
  6
ByLayer
 62
  256
370
   -1
100
AcDbLine
 10
6.53327427761
 20
4.64806588048
 11
6.53327427761
 21
5.18139921379
  0
LINE
  5
196
100
AcDbEntity
  8
VISIBLE
  6
ByLayer
 62
  256
370
   -1
100
AcDbLine
 10
6.53327427761
 20
5.18139921379
 11
6.61660761095
 21
5.18139921379
  0
LINE
  5
197
100
AcDbEntity
  8
HIDDEN
  6
ByLayer
 62
  256
370
   -1
100
AcDbLine
 10
6.53327427761
 20
5.18137607617
 11
6.61660761095
 21
5.18137607617
  0
DIMENSION
  5
198
100
AcDbEntity
  8
DIMENSIONS
  6
ByLayer
 62
  256
370
   -1
100
AcDbDimension
 10
0
 20
0
 30
0
 11
15.0746767407
 21
8.82838220745
 31
0
 70
   32
  1
<>
 71
    5
 72
    0
  3
Standard
 53
0
210
0
220
0
230
1
100
AcDbAlignedDimension
 13
6.61660761095
 23
4.64806588048
 33
0
 14
6.53327427761
 24
4.64806588048
 34
0
100
AcDbRotatedDimension
  0
DIMENSION
  5
199
100
AcDbEntity
  8
DIMENSIONS
  6
ByLayer
 62
  256
370
   -1
100
AcDbDimension
 10
0
 20
0
 30
0
 11
14.9535111423
 21
9.303408477870001
 31
0
 70
   32
  1
<>
 71
    5
 72
    0
  3
Standard
 53
0
210
0
220
0
230
1
100
AcDbAlignedDimension
 13
6.53327427761
 23
4.64806588048
 33
0
 14
6.53327427761
 24
5.18139921379
 34
0
 50
90
100
AcDbRotatedDimension
  0
LINE
  5
19A
100
AcDbEntity
  8
VISIBLE
  6
ByLayer
 62
  256
370
   -1
100
AcDbLine
 10
6.61660761095
 20
5.3922223622
 11
6.53327427761
 21
5.3922223622
  0
LINE
  5
19B
100
AcDbEntity
  8
VISIBLE
  6
ByLayer
 62
  256
370
   -1
100
AcDbLine
 10
6.53327427761
 20
8.39222647547
 11
6.61660761095
 21
8.39222647547
  0
LINE
  5
19C
100
AcDbEntity
  8
VISIBLE
  6
ByLayer
 62
  256
370
   -1
100
AcDbLine
 10
6.61660761095
 20
5.39222647556
 11
6.61660761095
 21
5.3922223622
  0
LINE
  5
19D
100
AcDbEntity
  8
VISIBLE
  6
ByLayer
 62
  256
370
   -1
100
AcDbLine
 10
6.53327427761
 20
5.3922223622
 11
6.53327427761
 21
5.39222647556
  0
LINE
  5
19E
100
AcDbEntity
  8
VISIBLE
  6
ByLayer
 62
  256
370
   -1
100
AcDbLine
 10
6.53327427761
 20
8.39222647547
 11
6.53327427761
 21
5.39222647556
  0
LINE
  5
19F
100
AcDbEntity
  8
VISIBLE
  6
ByLayer
 62
  256
370
   -1
100
AcDbLine
 10
6.53327427761
 20
5.39222647556
 11
6.61660761095
 21
5.39222647556
  0
LINE
  5
1A0
100
AcDbEntity
  8
VISIBLE
  6
ByLayer
 62
  256
370
   -1
100
AcDbLine
 10
6.61660761095
 20
8.39222647547
 11
6.61660761095
 21
5.39222647556
  0
LINE
  5
1A1
100
AcDbEntity
  8
HIDDEN
  6
ByLayer
 62
  256
370
   -1
100
AcDbLine
 10
6.61660761095
 20
8.392222362109999
 11
6.53327427761
 21
8.392222362109999
  0
DIMENSION
  5
1A2
100
AcDbEntity
  8
DIMENSIONS
  6
ByLayer
 62
  256
370
   -1
100
AcDbDimension
 10
0
 20
0
 30
0
 11
14.8051392431
 21
15.8374219013
 31
0
 70
   32
  1
<>
 71
    5
 72
    0
  3
Standard
 53
0
210
0
220
0
230
1
100
AcDbAlignedDimension
 13
6.53327427761
 23
8.39222647547
 33
0
 14
6.53327427761
 24
5.39222647556
 34
0
 50
270
100
AcDbRotatedDimension
  0
LINE
  5
1A3
100
AcDbEntity
  8
VISIBLE
  6
ByLayer
 62
  256
370
   -1
100
AcDbLine
 10
9.827430710890001
 20
4.64804274285
 11
6.82743071098
 21
4.64806588048
  0
LINE
  5
1A4
100
AcDbEntity
  8
VISIBLE
  6
ByLayer
 62
  256
370
   -1
100
AcDbLine
 10
6.82743482434
 20
5.18139921379
 11
6.82743071098
 21
4.64806588048
  0
LINE
  5
1A5
100
AcDbEntity
  8
VISIBLE
  6
ByLayer
 62
  256
370
   -1
100
AcDbLine
 10
9.82743482425
 20
5.18137607617
 11
9.827430710890001
 21
4.64804274285
  0
LINE
  5
1A6
100
AcDbEntity
  8
VISIBLE
  6
ByLayer
 62
  256
370
   -1
100
AcDbLine
 10
9.82743482425
 20
5.18137607617
 11
6.82743482434
 21
5.18139921379
  0
LINE
  5
1A7
100
AcDbEntity
  8
VISIBLE
  6
ByLayer
 62
  256
370
   -1
100
AcDbLine
 10
7.29623392412
 20
6.04511774732
 11
7.23730835902
 21
6.07913843819
  0
LINE
  5
1A8
100
AcDbEntity
  8
VISIBLE
  6
ByLayer
 62
  256
370
   -1
100
AcDbLine
 10
9.41755426762
 20
7.26984372688
 11
7.29623392412
 21
6.04511774732
  0
LINE
  5
1A9
100
AcDbEntity
  8
VISIBLE
  6
ByLayer
 62
  256
370
   -1
100
AcDbLine
 10
9.3586316111
 20
7.73933094017
 11
9.417557176200001
 21
7.7053102493
  0
LINE
  5
1AA
100
AcDbEntity
  8
VISIBLE
  6
ByLayer
 62
  256
370
   -1
100
AcDbLine
 10
7.2962368327
 20
6.48058426973
 11
7.29623392412
 21
6.04511774732
  0
LINE
  5
1AB
100
AcDbEntity
  8
VISIBLE
  6
ByLayer
 62
  256
370
   -1
100
AcDbLine
 10
9.417557176200001
 20
7.7053102493
 11
9.41755426762
 21
7.26984372688
  0
LINE
  5
1AC
100
AcDbEntity
  8
VISIBLE
  6
ByLayer
 62
  256
370
   -1
100
AcDbLine
 10
7.23730835902
 20
6.07913843819
 11
7.23731126761
 21
6.51460496061
  0
LINE
  5
1AD
100
AcDbEntity
  8
VISIBLE
  6
ByLayer
 62
  256
370
   -1
100
AcDbLine
 10
9.3586316111
 20
7.73933094017
 11
7.23731126761
 21
6.51460496061
  0
LINE
  5
1AE
100
AcDbEntity
  8
VISIBLE
  6
ByLayer
 62
  256
370
   -1
100
AcDbLine
 10
7.23731126761
 20
6.51460496061
 11
7.2962368327
 21
6.48058426973
  0
LINE
  5
1AF
100
AcDbEntity
  8
VISIBLE
  6
ByLayer
 62
  256
370
   -1
100
AcDbLine
 10
9.417557176200001
 20
7.7053102493
 11
7.2962368327
 21
6.48058426973
  0
LINE
  5
1B0
100
AcDbEntity
  8
HIDDEN
  6
ByLayer
 62
  256
370
   -1
100
AcDbLine
 10
9.358628702520001
 20
7.30386441775
 11
7.23730835902
 21
6.07913843819
  0
LINE
  5
1B1
100
AcDbEntity
  8
HIDDEN
  6
ByLayer
 62
  256
370
   -1
100
AcDbLine
 10
9.41755426762
 20
7.26984372688
 11
9.358628702520001
 21
7.30386441775
  0
LINE
  5
1B2
100
AcDbEntity
  8
HIDDEN
  6
ByLayer
 62
  256
370
   -1
100
AcDbLine
 10
9.358628702520001
 20
7.30386441775
 11
9.3586316111
 21
7.73933094017
  0
INSERT
  5
1B3
100
AcDbEntity
  8
CONTINUOUS
  6
ByLayer
 62
  256
370
   -1
100
AcDbBlockReference
  2
BLOCK15
 10
0
 20
0
 30
0
 41
1
 42
1
 43
0
 50
0
 70
    1
 71
    1
 44
0
 45
0
  0
ENDBLK
  5
6E
330
6C
100
AcDbEntity
  8
0
100
AcDbBlockEnd
  0
BLOCK
  5
70
330
6F
100
AcDbEntity
  8
0
100
AcDbBlockBegin
  2
D4
 70
    0
 10
0
 20
0
  3
D4
  1

  0
MTEXT
  5
1B4
100
AcDbEntity
  8
DIMENSIONS
  6
ByLayer
 62
  256
370
   -1
100
AcDbMText
 10
4.05496672383
 20
7.19031806067
 30
0
 40
0.103404906449
 41
0.2182992469478953
 71
    5
 72
    1
  1
.813
  7
standard
210
0
220
0
230
1
 50
0
 73
    1
 44
1
  0
MTEXT
  5
1B5
100
AcDbEntity
  8
DIMENSIONS
  6
ByLayer
 62
  256
370
   -1
100
AcDbMText
 10
4.05496672383
 20
7.19031806067
 30
0
 40
0.103404906449
 41
0
 71
    5
 72
    1
  1

  7
standard
210
0
220
0
230
1
 50
0
 73
    1
 44
1
  0
MTEXT
  5
1B6
100
AcDbEntity
  8
DIMENSIONS
  6
ByLayer
 62
  256
370
   -1
100
AcDbMText
 10
4.05496672383
 20
7.19031806067
 30
0
 40
0.103404906449
 41
0
 71
    5
 72
    1
  1

  7
standard
210
0
220
0
230
1
 50
0
 73
    1
 44
1
  0
LINE
  5
1B7
100
AcDbEntity
  8
DIMENSIONS
  6
ByLayer
 62
  256
370
   -1
100
AcDbLine
 10
7.13584425317
 20
7.59656806067
 11
3.99246672383
 21
7.59656806067
  0
LINE
  5
1B8
100
AcDbEntity
  8
DIMENSIONS
  6
ByLayer
 62
  256
370
   -1
100
AcDbLine
 10
7.13584425318
 20
6.78406806067
 11
3.99246672383
 21
6.78406806067
  0
LWPOLYLINE
  5
1B9
100
AcDbEntity
  8
DIMENSIONS
  6
ByLayer
 62
  256
370
   -1
100
AcDbPolyline
 90
    4
 70
    0
 43
0
 10
4.05496672383
 20
7.59656806067
 10
4.06746672383
 20
7.53656806067
 10
4.04246672383
 20
7.53656806067
 10
4.05496672383
 20
7.59656806067
  0
LINE
  5
1BA
100
AcDbEntity
  8
DIMENSIONS
  6
ByLayer
 62
  256
370
   -1
100
AcDbLine
 10
4.05496672383
 20
7.53656806067
 11
4.05496673884
 21
7.33615141403
  0
LWPOLYLINE
  5
1BB
100
AcDbEntity
  8
DIMENSIONS
  6
ByLayer
 62
  256
370
   -1
100
AcDbPolyline
 90
    4
 70
    0
 43
0
 10
4.05496672383
 20
6.78406806067
 10
4.04246672383
 20
6.84406806067
 10
4.06746672383
 20
6.84406806067
 10
4.05496672383
 20
6.78406806067
  0
LINE
  5
1BC
100
AcDbEntity
  8
DIMENSIONS
  6
ByLayer
 62
  256
370
   -1
100
AcDbLine
 10
4.05496672383
 20
6.84406806067
 11
4.05496673884
 21
7.04448473735
  0
ENDBLK
  5
71
330
6F
100
AcDbEntity
  8
0
100
AcDbBlockEnd
  0
BLOCK
  5
73
330
72
100
AcDbEntity
  8
0
100
AcDbBlockBegin
  2
BLOCK12
 70
    0
 10
0
 20
0
  3
BLOCK12
  1

  0
LINE
  5
1BD
100
AcDbEntity
  8
CONTINUOUS
  6
ByLayer
 62
  256
370
   -1
100
AcDbLine
 10
0.626251604621
 20
10.6420731707
 11
16.3762516046
 21
10.6420731707
  0
LINE
  5
1BE
100
AcDbEntity
  8
CONTINUOUS
  6
ByLayer
 62
  256
370
   -1
100
AcDbLine
 10
0.626251604621
 20
10.6420731707
 11
0.626251604621
 21
0.392073170732
  0
LINE
  5
1BF
100
AcDbEntity
  8
CONTINUOUS
  6
ByLayer
 62
  256
370
   -1
100
AcDbLine
 10
16.3762516046
 20
0.392073170732
 11
0.626251604621
 21
0.392073170732
  0
LINE
  5
1C0
100
AcDbEntity
  8
CONTINUOUS
  6
ByLayer
 62
  256
370
   -1
100
AcDbLine
 10
16.3762516046
 20
0.392073170732
 11
16.3762516046
 21
10.6420731707
  0
LINE
  5
1C1
100
AcDbEntity
  8
CONTINUOUS
  6
ByLayer
 62
  256
370
   -1
100
AcDbLine
 10
16.3762516046
 20
8.0752921748
 11
16.5012516046
 21
8.0752921748
  0
LINE
  5
1C2
100
AcDbEntity
  8
CONTINUOUS
  6
ByLayer
 62
  256
370
   -1
100
AcDbLine
 10
16.3762516046
 20
5.5127921748
 11
16.5012516046
 21
5.5127921748
  0
LINE
  5
1C3
100
AcDbEntity
  8
CONTINUOUS
  6
ByLayer
 62
  256
370
   -1
100
AcDbLine
 10
16.3762516046
 20
5.5127921748
 11
16.4434330337
 21
5.53680182526
  0
LINE
  5
1C4
100
AcDbEntity
  8
CONTINUOUS
  6
ByLayer
 62
  256
370
   -1
100
AcDbLine
 10
16.3762516046
 20
5.5127921748
 11
16.4434330337
 21
5.49021364932
  0
LINE
  5
1C5
100
AcDbEntity
  8
CONTINUOUS
  6
ByLayer
 62
  256
370
   -1
100
AcDbLine
 10
16.4434330337
 20
5.53680182526
 11
16.4434330337
 21
5.49021364932
  0
LINE
  5
1C6
100
AcDbEntity
  8
CONTINUOUS
  6
ByLayer
 62
  256
370
   -1
100
AcDbLine
 10
16.3762516046
 20
5.5127921748
 11
16.4434330337
 21
5.52183033312
  0
LINE
  5
1C7
100
AcDbEntity
  8
CONTINUOUS
  6
ByLayer
 62
  256
370
   -1
100
AcDbLine
 10
16.3762516046
 20
5.5127921748
 11
16.4434330337
 21
5.50248405478
  0
LINE
  5
1C8
100
AcDbEntity
  8
CONTINUOUS
  6
ByLayer
 62
  256
370
   -1
100
AcDbLine
 10
16.3762516046
 20
2.9502921748
 11
16.5012516046
 21
2.9502921748
  0
LINE
  5
1C9
100
AcDbEntity
  8
CONTINUOUS
  6
ByLayer
 62
  256
370
   -1
100
AcDbLine
 10
0.626251604621
 20
2.95457317073
 11
0.501251604621
 21
2.95457317073
  0
LINE
  5
1CA
100
AcDbEntity
  8
CONTINUOUS
  6
ByLayer
 62
  256
370
   -1
100
AcDbLine
 10
0.626251604621
 20
5.51707317073
 11
0.559070175518
 21
5.50676505072
  0
LINE
  5
1CB
100
AcDbEntity
  8
CONTINUOUS
  6
ByLayer
 62
  256
370
   -1
100
AcDbLine
 10
0.626251604621
 20
5.51707317073
 11
0.559070175518
 21
5.52611132905
  0
LINE
  5
1CC
100
AcDbEntity
  8
CONTINUOUS
  6
ByLayer
 62
  256
370
   -1
100
AcDbLine
 10
0.559070175518
 20
5.5410828212
 11
0.559070175518
 21
5.49449464526
  0
LINE
  5
1CD
100
AcDbEntity
  8
CONTINUOUS
  6
ByLayer
 62
  256
370
   -1
100
AcDbLine
 10
0.626251604621
 20
5.51707317073
 11
0.559070175518
 21
5.49449464526
  0
LINE
  5
1CE
100
AcDbEntity
  8
CONTINUOUS
  6
ByLayer
 62
  256
370
   -1
100
AcDbLine
 10
0.626251604621
 20
5.51707317073
 11
0.559070175518
 21
5.5410828212
  0
LINE
  5
1CF
100
AcDbEntity
  8
CONTINUOUS
  6
ByLayer
 62
  256
370
   -1
100
AcDbLine
 10
0.626251604621
 20
5.51707317073
 11
0.501251604621
 21
5.51707317073
  0
LINE
  5
1D0
100
AcDbEntity
  8
CONTINUOUS
  6
ByLayer
 62
  256
370
   -1
100
AcDbLine
 10
0.626251604621
 20
8.079573170730001
 11
0.501251604621
 21
8.079573170730001
  0
LINE
  5
1D1
100
AcDbEntity
  8
CONTINUOUS
  6
ByLayer
 62
  256
370
   -1
100
AcDbLine
 10
9.54980206352
 20
2.44962614087
 11
16.3762516046
 21
2.44962614087
  0
LINE
  5
1D2
100
AcDbEntity
  8
CONTINUOUS
  6
ByLayer
 62
  256
370
   -1
100
AcDbLine
 10
11.5513364013
 20
2.44962614087
 11
11.5513364013
 21
0.392073170732
  0
LINE
  5
1D3
100
AcDbEntity
  8
CONTINUOUS
  6
ByLayer
 62
  256
370
   -1
100
AcDbLine
 10
13.2432004658
 20
2.44962614087
 11
13.2432004658
 21
0.392073170732
  0
LINE
  5
1D4
100
AcDbEntity
  8
CONTINUOUS
  6
ByLayer
 62
  256
370
   -1
100
AcDbLine
 10
13.2432004658
 20
0.604959010098
 11
16.3762516046
 21
0.604959010098
  0
LINE
  5
1D5
100
AcDbEntity
  8
CONTINUOUS
  6
ByLayer
 62
  256
370
   -1
100
AcDbLine
 10
13.2432004658
 20
1.11193624566
 11
16.3762516046
 21
1.11193624566
  0
LINE
  5
1D6
100
AcDbEntity
  8
CONTINUOUS
  6
ByLayer
 62
  256
370
   -1
100
AcDbLine
 10
13.2432004658
 20
2.07462614087
 11
16.3762516046
 21
2.07462614087
  0
LINE
  5
1D7
100
AcDbEntity
  8
CONTINUOUS
  6
ByLayer
 62
  256
370
   -1
100
AcDbLine
 10
13.6596632587
 20
1.11193624566
 11
13.6596632587
 21
0.604959010098
  0
LINE
  5
1D8
100
AcDbEntity
  8
CONTINUOUS
  6
ByLayer
 62
  256
370
   -1
100
AcDbLine
 10
14.2861627554
 20
0.604959010098
 11
14.2861627554
 21
0.392073170732
  0
LINE
  5
1D9
100
AcDbEntity
  8
CONTINUOUS
  6
ByLayer
 62
  256
370
   -1
100
AcDbLine
 10
15.8043163091
 20
1.11193624566
 11
15.8043163091
 21
0.604959010098
  0
LINE
  5
1DA
100
AcDbEntity
  8
CONTINUOUS
  6
ByLayer
 62
  256
370
   -1
100
AcDbLine
 10
15.5189756774
 20
0.604959010098
 11
15.5189756774
 21
0.392073170732
  0
LINE
  5
1DB
100
AcDbEntity
  8
CONTINUOUS
  6
ByLayer
 62
  256
370
   -1
100
AcDbLine
 10
11.5513364013
 20
1.88712614087
 11
13.2432004658
 21
1.88712614087
  0
LINE
  5
1DC
100
AcDbEntity
  8
CONTINUOUS
  6
ByLayer
 62
  256
370
   -1
100
AcDbLine
 10
11.5513364013
 20
2.07462614087
 11
13.2432004658
 21
2.07462614087
  0
LINE
  5
1DD
100
AcDbEntity
  8
CONTINUOUS
  6
ByLayer
 62
  256
370
   -1
100
AcDbLine
 10
11.5513364013
 20
2.26212614087
 11
13.2432004658
 21
2.26212614087
  0
LINE
  5
1DE
100
AcDbEntity
  8
CONTINUOUS
  6
ByLayer
 62
  256
370
   -1
100
AcDbLine
 10
11.5513364013
 20
1.11668767505
 11
13.2432004658
 21
1.11668767505
  0
LINE
  5
1DF
100
AcDbEntity
  8
CONTINUOUS
  6
ByLayer
 62
  256
370
   -1
100
AcDbLine
 10
12.6404313067
 20
2.44962614087
 11
12.6404313067
 21
1.69962614087
  0
LINE
  5
1E0
100
AcDbEntity
  8
CONTINUOUS
  6
ByLayer
 62
  256
370
   -1
100
AcDbLine
 10
12.0248227272
 20
2.44962614087
 11
12.0248227272
 21
1.69962614087
  0
LINE
  5
1E1
100
AcDbEntity
  8
CONTINUOUS
  6
ByLayer
 62
  256
370
   -1
100
AcDbLine
 10
9.54980206352
 20
0.392073170732
 11
9.54980206352
 21
2.44962614087
  0
LINE
  5
1E2
100
AcDbEntity
  8
CONTINUOUS
  6
ByLayer
 62
  256
370
   -1
100
AcDbLine
 10
11.9625579365
 20
1.42415459873
 11
11.9625579365
 21
1.11668767505
  0
LINE
  5
1E3
100
AcDbEntity
  8
CONTINUOUS
  6
ByLayer
 62
  256
370
   -1
100
AcDbLine
 10
12.3737128259
 20
1.42415459873
 11
12.3737128259
 21
1.11668767505
  0
LINE
  5
1E4
100
AcDbEntity
  8
CONTINUOUS
  6
ByLayer
 62
  256
370
   -1
100
AcDbLine
 10
12.8181441331
 20
1.42415459873
 11
12.8181441331
 21
1.11668767505
  0
LINE
  5
1E5
100
AcDbEntity
  8
CONTINUOUS
  6
ByLayer
 62
  256
370
   -1
100
AcDbLine
 10
11.5513364013
 20
1.42415459873
 11
13.2432004658
 21
1.42415459873
  0
LINE
  5
1E6
100
AcDbEntity
  8
CONTINUOUS
  6
ByLayer
 62
  256
370
   -1
100
AcDbLine
 10
13.2432004658
 20
1.69962614087
 11
11.5513364013
 21
1.69962614087
  0
LINE
  5
1E7
100
AcDbEntity
  8
CONTINUOUS
  6
ByLayer
 62
  256
370
   -1
100
AcDbLine
 10
9.54980206352
 20
1.26508544565
 11
11.5513364013
 21
1.26508544565
  0
LINE
  5
1E8
100
AcDbEntity
  8
CONTINUOUS
  6
ByLayer
 62
  256
370
   -1
100
AcDbLine
 10
14.4072516046
 20
0.392073170732
 11
14.4072516046
 21
0.307273964934
  0
LINE
  5
1E9
100
AcDbEntity
  8
CONTINUOUS
  6
ByLayer
 62
  256
370
   -1
100
AcDbLine
 10
12.4385016046
 20
0.392073170732
 11
12.4385016046
 21
0.307273964934
  0
LINE
  5
1EA
100
AcDbEntity
  8
CONTINUOUS
  6
ByLayer
 62
  256
370
   -1
100
AcDbLine
 10
10.4697516046
 20
0.392073170732
 11
10.4697516046
 21
0.307273964934
  0
LINE
  5
1EB
100
AcDbEntity
  8
CONTINUOUS
  6
ByLayer
 62
  256
370
   -1
100
AcDbLine
 10
8.501001604620001
 20
0.392073170732
 11
8.501001604620001
 21
0.307273964934
  0
LINE
  5
1EC
100
AcDbEntity
  8
CONTINUOUS
  6
ByLayer
 62
  256
370
   -1
100
AcDbLine
 10
6.53225160462
 20
0.392073170732
 11
6.53225160462
 21
0.307273964934
  0
LINE
  5
1ED
100
AcDbEntity
  8
CONTINUOUS
  6
ByLayer
 62
  256
370
   -1
100
AcDbLine
 10
4.56350160462
 20
0.392073170732
 11
4.56350160462
 21
0.307273964934
  0
LINE
  5
1EE
100
AcDbEntity
  8
CONTINUOUS
  6
ByLayer
 62
  256
370
   -1
100
AcDbLine
 10
2.59475160462
 20
0.392073170732
 11
2.59475160462
 21
0.307273964934
  0
LINE
  5
1EF
100
AcDbEntity
  8
CONTINUOUS
  6
ByLayer
 62
  256
370
   -1
100
AcDbLine
 10
2.59475160462
 20
10.6420731707
 11
2.59475160462
 21
10.7268723765
  0
LINE
  5
1F0
100
AcDbEntity
  8
CONTINUOUS
  6
ByLayer
 62
  256
370
   -1
100
AcDbLine
 10
4.56350160462
 20
10.6420731707
 11
4.56350160462
 21
10.7268723765
  0
LINE
  5
1F1
100
AcDbEntity
  8
CONTINUOUS
  6
ByLayer
 62
  256
370
   -1
100
AcDbLine
 10
6.53225160462
 20
10.6420731707
 11
6.53225160462
 21
10.7268723765
  0
LINE
  5
1F2
100
AcDbEntity
  8
CONTINUOUS
  6
ByLayer
 62
  256
370
   -1
100
AcDbLine
 10
8.501001604620001
 20
10.6420731707
 11
8.501001604620001
 21
10.7268723765
  0
LINE
  5
1F3
100
AcDbEntity
  8
CONTINUOUS
  6
ByLayer
 62
  256
370
   -1
100
AcDbLine
 10
10.4697516046
 20
10.6420731707
 11
10.4697516046
 21
10.7268723765
  0
LINE
  5
1F4
100
AcDbEntity
  8
CONTINUOUS
  6
ByLayer
 62
  256
370
   -1
100
AcDbLine
 10
12.4385016046
 20
10.6420731707
 11
12.4385016046
 21
10.7268723765
  0
LINE
  5
1F5
100
AcDbEntity
  8
CONTINUOUS
  6
ByLayer
 62
  256
370
   -1
100
AcDbLine
 10
14.4072516046
 20
10.6420731707
 11
14.4072516046
 21
10.7268723765
  0
LINE
  5
1F6
100
AcDbEntity
  8
CONTINUOUS
  6
ByLayer
 62
  256
370
   -1
100
AcDbLine
 10
8.501001604620001
 20
10.6420731707
 11
8.48775048715
 21
10.6840054626
  0
LINE
  5
1F7
100
AcDbEntity
  8
CONTINUOUS
  6
ByLayer
 62
  256
370
   -1
100
AcDbLine
 10
8.501001604620001
 20
10.6420731707
 11
8.513556578459999
 21
10.6840054626
  0
LINE
  5
1F8
100
AcDbEntity
  8
CONTINUOUS
  6
ByLayer
 62
  256
370
   -1
100
AcDbLine
 10
8.513556578459999
 20
10.6840054626
 11
8.48775048715
 21
10.6840054626
  0
LINE
  5
1F9
100
AcDbEntity
  8
CONTINUOUS
  6
ByLayer
 62
  256
370
   -1
100
AcDbLine
 10
8.49396306469
 20
10.6840054626
 11
8.501001604620001
 21
10.6420731707
  0
LINE
  5
1FA
100
AcDbEntity
  8
CONTINUOUS
  6
ByLayer
 62
  256
370
   -1
100
AcDbLine
 10
8.505910329180001
 20
10.6840054626
 11
8.501001604620001
 21
10.6420731707
  0
LINE
  5
1FB
100
AcDbEntity
  8
CONTINUOUS
  6
ByLayer
 62
  256
370
   -1
100
AcDbLine
 10
8.501001604620001
 20
0.392073170732
 11
8.513556578459999
 21
0.3575
  0
LINE
  5
1FC
100
AcDbEntity
  8
CONTINUOUS
  6
ByLayer
 62
  256
370
   -1
100
AcDbLine
 10
8.513556578459999
 20
0.3575
 11
8.48775048715
 21
0.3575
  0
LINE
  5
1FD
100
AcDbEntity
  8
CONTINUOUS
  6
ByLayer
 62
  256
370
   -1
100
AcDbLine
 10
8.48775048715
 20
0.3575
 11
8.501001604620001
 21
0.392073170732
  0
INSERT
  5
1FE
100
AcDbEntity
  8
0
  6
ByLayer
 62
  256
370
   -1
100
AcDbBlockReference
  2
BLOCK13
 10
-0.37302643846
 20
0.0594801148978
 30
0
 41
1
 42
1
 43
0
 50
0
 70
    1
 71
    1
 44
0
 45
0
  0
INSERT
  5
1FF
100
AcDbEntity
  8
0
  6
ByLayer
 62
  256
370
   -1
100
AcDbBlockReference
  2
BLOCK14
 10
11.7562826626
 20
1.56976492583
 30
0
 41
1
 42
1
 43
0
 50
0
 70
    1
 71
    1
 44
0
 45
0
  0
MTEXT
  5
200
100
AcDbEntity
  8
CONTINUOUS
  6
ByLayer
 62
  256
370
   -1
100
AcDbMText
 10
9.704144788860001
 20
0.9287469313309999
 30
0
 40
0.044686324118
 41
1.597536058797713
 71
    1
 72
    1
  1
\C7;LICENSE FOR DISTRIBUTIVE ECONOMICS. FOR \C7;
  7
standard
210
0
220
0
230
1
 50
0
 73
    1
 44
1
  0
MTEXT
  5
201
100
AcDbEntity
  8
CONTINUOUS
  6
ByLayer
 62
  256
370
   -1
100
AcDbMText
 10
12.1247775615
 20
1.40810952244
 30
0
 40
0.0536235889416
 41
0.3455742398458667
 71
    1
 72
    1
  1
\C7;.X\C7;
  7
standard
210
0
220
0
230
1
 50
0
 73
    1
 44
1
  0
MTEXT
  5
202
100
AcDbEntity
  8
CONTINUOUS
  6
ByLayer
 62
  256
370
   -1
100
AcDbMText
 10
9.704144788860001
 20
0.829376856762
 30
0
 40
0.044686324118
 41
1.163085713849056
 71
    1
 72
    1
  1
\C7;FURTHER INFORMATION GO TO:\C7;
  7
standard
210
0
220
0
230
1
 50
0
 73
    1
 44
1
  0
MTEXT
  5
203
100
AcDbEntity
  8
CONTINUOUS
  6
ByLayer
 62
  256
370
   -1
100
AcDbMText
 10
12.8420705227
 20
2.40448810286
 30
0
 40
0.0536235889416
 41
0.4647377708272033
 71
    1
 72
    1
  1
\C7;DATE\C7;
  7
standard
210
0
220
0
230
1
 50
0
 73
    1
 44
1
  0
MTEXT
  5
204
100
AcDbEntity
  8
CONTINUOUS
  6
ByLayer
 62
  256
370
   -1
100
AcDbMText
 10
11.6118920972
 20
0.574023856188
 30
0
 40
0.07149811858879999
 41
1.62459613904552
 71
    1
 72
    1
  1
\C7;THIRD ANGLE PROJECTION\C7;
  7
standard
210
0
220
0
230
1
 50
0
 73
    1
 44
1
  0
MTEXT
  5
205
100
AcDbEntity
  8
CONTINUOUS
  6
ByLayer
 62
  256
370
   -1
100
AcDbMText
 10
15.974082703
 20
1.11376163929
 30
0
 40
0.0804353834124
 41
0.625608537652
 71
    1
 72
    1
  1
\C7;REV\C7;
  7
standard
210
0
220
0
230
1
 50
0
 73
    1
 44
1
  0
MTEXT
  5
206
100
AcDbEntity
  8
CONTINUOUS
  6
ByLayer
 62
  256
370
   -1
100
AcDbMText
 10
11.5952182844
 20
1.84062215402
 30
0
 40
0.0536235889416
 41
0.4885704770234667
 71
    1
 72
    1
  1
\C7;APPR.\C7;
  7
standard
210
0
220
0
230
1
 50
0
 73
    1
 44
1
  0
MTEXT
  5
207
100
AcDbEntity
  8
CONTINUOUS
  6
ByLayer
 62
  256
370
   -1
100
AcDbMText
 10
11.5959805855
 20
2.21550209874
 30
0
 40
0.0536235889416
 41
0.5362358894160032
 71
    1
 72
    1
  1
\C7;DRAWN\C7;
  7
standard
210
0
220
0
230
1
 50
0
 73
    1
 44
1
  0
MTEXT
  5
208
100
AcDbEntity
  8
CONTINUOUS
  6
ByLayer
 62
  256
370
   -1
100
AcDbMText
 10
0.426009949526
 20
1.7856582291
 30
0
 40
0.07149811858879999
 41
0.4369329469315555
 71
    1
 72
    1
  1
\C7;A\C7;
  7
standard
210
0
220
0
230
1
 50
0
 73
    1
 44
1
  0
MTEXT
  5
209
100
AcDbEntity
  8
CONTINUOUS
  6
ByLayer
 62
  256
370
   -1
100
AcDbMText
 10
13.7021006186
 20
0.878810056551
 30
0
 40
0.155107359674
 41
2.649750727764167
 71
    4
 72
    1
  1
\C7;01-171-00-0 L-Q2\C7;
  7
standard
210
0
220
0
230
1
 50
0
 73
    1
 44
1
  0
MTEXT
  5
20A
100
AcDbEntity
  8
CONTINUOUS
  6
ByLayer
 62
  256
370
   -1
100
AcDbMText
 10
1.50908886894
 20
10.8613063881
 30
0
 40
0.07149811858879999
 41
0.4210444761340444
 71
    1
 72
    1
  1
\C7;8\C7;
  7
standard
210
0
220
0
230
1
 50
0
 73
    1
 44
1
  0
MTEXT
  5
20B
100
AcDbEntity
  8
CONTINUOUS
  6
ByLayer
 62
  256
370
   -1
100
AcDbMText
 10
12.9507724147
 20
1.40810952244
 30
0
 40
0.0536235889416
 41
0.4528214177290666
 71
    1
 72
    1
  1
\C7;.XXX\C7;
  7
standard
210
0
220
0
230
1
 50
0
 73
    1
 44
1
  0
MTEXT
  5
20C
100
AcDbEntity
  8
CONTINUOUS
  6
ByLayer
 62
  256
370
   -1
100
AcDbMText
 10
15.6390693244
 20
0.535415439155
 30
0
 40
0.0775536798368
 41
0.1852671240545778
 71
    4
 72
    1
  1
\C7;
  7
standard
210
0
220
0
230
1
 50
0
 73
    1
 44
1
  0
MTEXT
  5
20D
100
AcDbEntity
  8
CONTINUOUS
  6
ByLayer
 62
  256
370
   -1
100
AcDbMText
 10
12.4654202198
 20
1.24618552801
 30
0
 40
0.0732451420681
 41
0.6266528821381935
 71
    4
 72
    1
  1
\C7;+-.03\C7;
  7
standard
210
0
220
0
230
1
 50
0
 73
    1
 44
1
  0
MTEXT
  5
20E
100
AcDbEntity
  8
CONTINUOUS
  6
ByLayer
 62
  256
370
   -1
100
AcDbMText
 10
7.47869468193
 20
10.8670932197
 30
0
 40
0.07149811858879999
 41
0.4210444761340488
 71
    1
 72
    1
  1
\C7;5\C7;
  7
standard
210
0
220
0
230
1
 50
0
 73
    1
 44
1
  0
MTEXT
  5
20F
100
AcDbEntity
  8
CONTINUOUS
  6
ByLayer
 62
  256
370
   -1
100
AcDbMText
 10
11.5981115451
 20
2.02314188428
 30
0
 40
0.0536235889416
 41
0.5839013018085366
 71
    1
 72
    1
  1
\C7;CHECKED\C7;
  7
standard
210
0
220
0
230
1
 50
0
 73
    1
 44
1
  0
MTEXT
  5
210
100
AcDbEntity
  8
CONTINUOUS
  6
ByLayer
 62
  256
370
   -1
100
AcDbMText
 10
5.49868768611
 20
10.8665566623
 30
0
 40
0.07149811858879999
 41
0.4210444761340488
 71
    1
 72
    1
  1
\C7;6\C7;
  7
standard
210
0
220
0
230
1
 50
0
 73
    1
 44
1
  0
MTEXT
  5
211
100
AcDbEntity
  8
CONTINUOUS
  6
ByLayer
 62
  256
370
   -1
100
AcDbMText
 10
12.8387210876
 20
1.23131188821
 30
0
 40
0.0732451420681
 41
0.6836213259689379
 71
    4
 72
    1
  1
\C7;+-.005\C7;
  7
standard
210
0
220
0
230
1
 50
0
 73
    1
 44
1
  0
MTEXT
  5
212
100
AcDbEntity
  8
CONTINUOUS
  6
ByLayer
 62
  256
370
   -1
100
AcDbMText
 10
13.6876444178
 20
2.24976231733
 30
0
 40
0.137873208599
 41
1.953203730027009
 71
    4
 72
    1
  1
\C7;CEB PRESS 5\C7;
  7
standard
210
0
220
0
230
1
 50
0
 73
    1
 44
1
  0
MTEXT
  5
213
100
AcDbEntity
  8
CONTINUOUS
  6
ByLayer
 62
  256
370
   -1
100
AcDbMText
 10
13.6651407077
 20
1.7171682523
 30
0
 40
0.08617075537420001
 41
1.20160331105135
 71
    4
 72
    1
  1
\C7;L-Q2\C7;\H0.95x;
  7
standard
210
0
220
0
230
1
 50
0
 73
    1
 44
1
  0
MTEXT
  5
214
100
AcDbEntity
  8
CONTINUOUS
  6
ByLayer
 62
  256
370
   -1
100
AcDbMText
 10
13.2990559431
 20
2.04849907575
 30
0
 40
0.0804353834124
 41
1.117158085897531
 71
    1
 72
    1
  1
\C7;DESCRIPTION:\C7;
  7
standard
210
0
220
0
230
1
 50
0
 73
    1
 44
1
  0
MTEXT
  5
215
100
AcDbEntity
  8
CONTINUOUS
  6
ByLayer
 62
  256
370
   -1
100
AcDbMText
 10
0.426401731406
 20
4.42305363331
 30
0
 40
0.07149811858879999
 41
0.4289887115328
 71
    1
 72
    1
  1
\C7;B\C7;
  7
standard
210
0
220
0
230
1
 50
0
 73
    1
 44
1
  0
MTEXT
  5
216
100
AcDbEntity
  8
CONTINUOUS
  6
ByLayer
 62
  256
370
   -1
100
AcDbMText
 10
12.685442046
 20
1.9640694266
 30
0
 40
0.0775536798368
 41
0.1852671240545778
 71
    4
 72
    1
  1
\C7;
  7
standard
210
0
220
0
230
1
 50
0
 73
    1
 44
1
  0
MTEXT
  5
217
100
AcDbEntity
  8
CONTINUOUS
  6
ByLayer
 62
  256
370
   -1
100
AcDbMText
 10
15.852709192
 20
0.848986032441
 30
0
 40
0.155107359674
 41
0.3705342481101112
 71
    4
 72
    1
  1
\C7;
  7
standard
210
0
220
0
230
1
 50
0
 73
    1
 44
1
  0
MTEXT
  5
218
100
AcDbEntity
  8
CONTINUOUS
  6
ByLayer
 62
  256
370
   -1
100
AcDbMText
 10
12.6790060209
 20
2.16159715427
 30
0
 40
0.0775536798368
 41
0.1852671240545778
 71
    4
 72
    1
  1
\C7;
  7
standard
210
0
220
0
230
1
 50
0
 73
    1
 44
1
  0
MTEXT
  5
219
100
AcDbEntity
  8
CONTINUOUS
  6
ByLayer
 62
  256
370
   -1
100
AcDbMText
 10
11.6511163186
 20
1.22914982593
 30
0
 40
0.0732451420681
 41
0.569684438307449
 71
    4
 72
    1
  1
\C7;+-.5\C7;
  7
standard
210
0
220
0
230
1
 50
0
 73
    1
 44
1
  0
MTEXT
  5
21A
100
AcDbEntity
  8
CONTINUOUS
  6
ByLayer
 62
  256
370
   -1
100
AcDbMText
 10
13.352296777
 20
0.342247266662
 30
0
 40
0.07149811858879999
 41
0.4210444761340444
 71
    1
 72
    1
  1
\C7;2\C7;
  7
standard
210
0
220
0
230
1
 50
0
 73
    1
 44
1
  0
MTEXT
  5
21B
100
AcDbEntity
  8
CONTINUOUS
  6
ByLayer
 62
  256
370
   -1
100
AcDbMText
 10
11.3787703324
 20
0.341427315776
 30
0
 40
0.07149811858879999
 41
0.4210444761340488
 71
    1
 72
    1
  1
\C7;3\C7;
  7
standard
210
0
220
0
230
1
 50
0
 73
    1
 44
1
  0
MTEXT
  5
21C
100
AcDbEntity
  8
CONTINUOUS
  6
ByLayer
 62
  256
370
   -1
100
AcDbMText
 10
6.80009196124
 20
1.11928384135
 30
0
 40
0.0775536798368
 41
2.882411767267739
 71
    4
 72
    1
  3
\C7;PLEASE PROCEED AT YOUR OWN RISK!\C7;\PTHESE DRAWINGS ARE MEANT TO DOCUMENT\C7;\PPREVIOUS WORK AND PRESENT IDEAS ONLY\C7;\PTHEY ARE NOT MEANT TO BE A COMPLETE GUIDE.\C7;\PWORKING WITH ANY TOOLS, EQUIPMENT, \C7;\PHYDRAULICS, ELECTRONICS, ETC. MAY \
  1
C7;\PCAUSE SERIOUS INJURY OR DEATH.\C7;\P\C7;
  7
standard
210
0
220
0
230
1
 50
0
 73
    1
 44
1
  0
MTEXT
  5
21D
100
AcDbEntity
  8
CONTINUOUS
  6
ByLayer
 62
  256
370
   -1
100
AcDbMText
 10
16.4820809255
 20
1.80243379177
 30
0
 40
0.07149811858879999
 41
0.4369329469315555
 71
    1
 72
    1
  1
\C7;A\C7;
  7
standard
210
0
220
0
230
1
 50
0
 73
    1
 44
1
  0
MTEXT
  5
21E
100
AcDbEntity
  8
CONTINUOUS
  6
ByLayer
 62
  256
370
   -1
100
AcDbMText
 10
9.47012493161
 20
0.343531883398
 30
0
 40
0.07149811858879999
 41
0.4289887115328
 71
    1
 72
    1
  1
\C7;4\C7;
  7
standard
210
0
220
0
230
1
 50
0
 73
    1
 44
1
  0
MTEXT
  5
21F
100
AcDbEntity
  8
CONTINUOUS
  6
ByLayer
 62
  256
370
   -1
100
AcDbMText
 10
13.7722586084
 20
0.493252333694
 30
0
 40
0.0775536798368
 41
0.6635148163815112
 71
    4
 72
    1
  1
\C7;NONE\C7;
  7
standard
210
0
220
0
230
1
 50
0
 73
    1
 44
1
  0
MTEXT
  5
220
100
AcDbEntity
  8
CONTINUOUS
  6
ByLayer
 62
  256
370
   -1
100
AcDbMText
 10
3.55098702735
 20
10.8584654291
 30
0
 40
0.07149811858879999
 41
0.4210444761340444
 71
    1
 72
    1
  1
\C7;7\C7;
  7
standard
210
0
220
0
230
1
 50
0
 73
    1
 44
1
  0
MTEXT
  5
221
100
AcDbEntity
  8
CONTINUOUS
  6
ByLayer
 62
  256
370
   -1
100
AcDbMText
 10
7.48511555553
 20
0.340394556307
 30
0
 40
0.07149811858879999
 41
0.4210444761340488
 71
    1
 72
    1
  1
\C7;5\C7;
  7
standard
210
0
220
0
230
1
 50
0
 73
    1
 44
1
  0
MTEXT
  5
222
100
AcDbEntity
  8
CONTINUOUS
  6
ByLayer
 62
  256
370
   -1
100
AcDbMText
 10
13.4009949841
 20
10.8660102694
 30
0
 40
0.07149811858879999
 41
0.4210444761340444
 71
    1
 72
    1
  1
\C7;2\C7;
  7
standard
210
0
220
0
230
1
 50
0
 73
    1
 44
1
  0
MTEXT
  5
223
100
AcDbEntity
  8
CONTINUOUS
  6
ByLayer
 62
  256
370
   -1
100
AcDbMText
 10
12.0671129602
 20
1.79144010769
 30
0
 40
0.0775536798368
 41
0.1852671240545778
 71
    4
 72
    1
  1
\C7;
  7
standard
210
0
220
0
230
1
 50
0
 73
    1
 44
1
  0
MTEXT
  5
224
100
AcDbEntity
  8
CONTINUOUS
  6
ByLayer
 62
  256
370
   -1
100
AcDbMText
 10
10.194692211
 20
1.18799467965
 30
0
 40
0.044686324118
 41
0.8875200389811256
 71
    1
 72
    1
  1
\C7;LICENSE INFORMATION\C7;
  7
standard
210
0
220
0
230
1
 50
0
 73
    1
 44
1
  0
MTEXT
  5
225
100
AcDbEntity
  8
CONTINUOUS
  6
ByLayer
 62
  256
370
   -1
100
AcDbMText
 10
16.4913158734
 20
9.52080834587
 30
0
 40
0.07149811858879999
 41
0.4289887115328044
 71
    1
 72
    1
  1
\C7;D\C7;
  7
standard
210
0
220
0
230
1
 50
0
 73
    1
 44
1
  0
MTEXT
  5
226
100
AcDbEntity
  8
CONTINUOUS
  6
ByLayer
 62
  256
370
   -1
100
AcDbMText
 10
5.51882523857
 20
0.343463549961
 30
0
 40
0.07149811858879999
 41
0.4210444761340488
 71
    1
 72
    1
  1
\C7;6\C7;
  7
standard
210
0
220
0
230
1
 50
0
 73
    1
 44
1
  0
MTEXT
  5
227
100
AcDbEntity
  8
CONTINUOUS
  6
ByLayer
 62
  256
370
   -1
100
AcDbMText
 10
13.2990559431
 20
2.44278324028
 30
0
 40
0.0804353834124
 41
0.9026637471836051
 71
    1
 72
    1
  1
\C7;PROJECT:\C7;
  7
standard
210
0
220
0
230
1
 50
0
 73
    1
 44
1
  0
MTEXT
  5
228
100
AcDbEntity
  8
CONTINUOUS
  6
ByLayer
 62
  256
370
   -1
100
AcDbMText
 10
15.4273970005
 20
10.8598767883
 30
0
 40
0.07149811858879999
 41
0.4051560053365333
 71
    1
 72
    1
  1
\C7;1\C7;
  7
standard
210
0
220
0
230
1
 50
0
 73
    1
 44
1
  0
MTEXT
  5
229
100
AcDbEntity
  8
CONTINUOUS
  6
ByLayer
 62
  256
370
   -1
100
AcDbMText
 10
12.0667861578
 20
1.25640681409
 30
0
 40
0.0732451420681
 41
0.5534077400700889
 71
    4
 72
    1
  1
\C7;+-.1\C7;
  7
standard
210
0
220
0
230
1
 50
0
 73
    1
 44
1
  0
MTEXT
  5
22A
100
AcDbEntity
  8
CONTINUOUS
  6
ByLayer
 62
  256
370
   -1
100
AcDbMText
 10
12.0671141617
 20
2.16915160652
 30
0
 40
0.0732451420681
 41
0.5696844383074444
 71
    4
 72
    1
  1
\C7;RHB\C7;
  7
standard
210
0
220
0
230
1
 50
0
 73
    1
 44
1
  0
MTEXT
  5
22B
100
AcDbEntity
  8
CONTINUOUS
  6
ByLayer
 62
  256
370
   -1
100
AcDbMText
 10
11.432728105
 20
10.8593303954
 30
0
 40
0.07149811858879999
 41
0.4210444761340488
 71
    1
 72
    1
  1
\C7;3\C7;
  7
standard
210
0
220
0
230
1
 50
0
 73
    1
 44
1
  0
MTEXT
  5
22C
100
AcDbEntity
  8
CONTINUOUS
  6
ByLayer
 62
  256
370
   -1
100
AcDbMText
 10
13.3602911836
 20
1.09582620642
 30
0
 40
0.0804353834124
 41
0.6434830502467259
 71
    1
 72
    1
  1
\C7;SIZE\C7;
  7
standard
210
0
220
0
230
1
 50
0
 73
    1
 44
1
  0
MTEXT
  5
22D
100
AcDbEntity
  8
CONTINUOUS
  6
ByLayer
 62
  256
370
   -1
100
AcDbMText
 10
9.704144788860001
 20
1.0281170059
 30
0
 40
0.044686324118
 41
1.748973046086493
 71
    1
 72
    1
  1
\C7;ALL INFORMATION IS RELEASED UNDER THE OSE \C7;
  7
standard
210
0
220
0
230
1
 50
0
 73
    1
 44
1
  0
MTEXT
  5
22E
100
AcDbEntity
  8
CONTINUOUS
  6
ByLayer
 62
  256
370
   -1
100
AcDbMText
 10
12.5359721151
 20
1.40810952244
 30
0
 40
0.0536235889416
 41
0.3991978287874667
 71
    1
 72
    1
  1
\C7;.XX\C7;
  7
standard
210
0
220
0
230
1
 50
0
 73
    1
 44
1
  0
MTEXT
  5
22F
100
AcDbEntity
  8
CONTINUOUS
  6
ByLayer
 62
  256
370
   -1
100
AcDbMText
 10
1.52677445274
 20
0.342770883823
 30
0
 40
0.07149811858879999
 41
0.4210444761340444
 71
    1
 72
    1
  1
\C7;8\C7;
  7
standard
210
0
220
0
230
1
 50
0
 73
    1
 44
1
  0
MTEXT
  5
230
100
AcDbEntity
  8
CONTINUOUS
  6
ByLayer
 62
  256
370
   -1
100
AcDbMText
 10
9.704144788860001
 20
0.630636707625
 30
0
 40
0.044686324118
 41
1.473407390165751
 71
    1
 72
    1
  1
\C7;OPENSOURCEECOLOGY.ORG/WIKI/LICENSE \C7;
  7
standard
210
0
220
0
230
1
 50
0
 73
    1
 44
1
  0
MTEXT
  5
231
100
AcDbEntity
  8
CONTINUOUS
  6
ByLayer
 62
  256
370
   -1
100
AcDbMText
 10
11.5941272892
 20
1.40810952244
 30
0
 40
0.0536235889416
 41
0.5541104076948838
 71
    1
 72
    1
  1
\C7;ANGLES\C7;
  7
standard
210
0
220
0
230
1
 50
0
 73
    1
 44
1
  0
MTEXT
  5
232
100
AcDbEntity
  8
CONTINUOUS
  6
ByLayer
 62
  256
370
   -1
100
AcDbMText
 10
15.4083167374
 20
0.331180143587
 30
0
 40
0.07149811858879999
 41
0.4051560053365333
 71
    1
 72
    1
  1
\C7;1\C7;
  7
standard
210
0
220
0
230
1
 50
0
 73
    1
 44
1
  0
MTEXT
  5
233
100
AcDbEntity
  8
CONTINUOUS
  6
ByLayer
 62
  256
370
   -1
100
AcDbMText
 10
16.5114787596
 20
4.40889620723
 30
0
 40
0.07149811858879999
 41
0.4289887115328
 71
    1
 72
    1
  1
\C7;B\C7;
  7
standard
210
0
220
0
230
1
 50
0
 73
    1
 44
1
  0
MTEXT
  5
234
100
AcDbEntity
  8
CONTINUOUS
  6
ByLayer
 62
  256
370
   -1
100
AcDbMText
 10
9.46429872495
 20
10.8654638765
 30
0
 40
0.07149811858879999
 41
0.4289887115328
 71
    1
 72
    1
  1
\C7;4\C7;
  7
standard
210
0
220
0
230
1
 50
0
 73
    1
 44
1
  0
MTEXT
  5
235
100
AcDbEntity
  8
CONTINUOUS
  6
ByLayer
 62
  256
370
   -1
100
AcDbMText
 10
3.55742667537
 20
0.343069146781
 30
0
 40
0.07149811858879999
 41
0.4210444761340444
 71
    1
 72
    1
  1
\C7;7\C7;
  7
standard
210
0
220
0
230
1
 50
0
 73
    1
 44
1
  0
MTEXT
  5
236
100
AcDbEntity
  8
CONTINUOUS
  6
ByLayer
 62
  256
370
   -1
100
AcDbMText
 10
0.428610479966
 20
9.487355494719999
 30
0
 40
0.07149811858879999
 41
0.4289887115328044
 71
    1
 72
    1
  1
\C7;D\C7;
  7
standard
210
0
220
0
230
1
 50
0
 73
    1
 44
1
  0
MTEXT
  5
237
100
AcDbEntity
  8
CONTINUOUS
  6
ByLayer
 62
  256
370
   -1
100
AcDbMText
 10
16.4711826244
 20
6.93488774165
 30
0
 40
0.07149811858879999
 41
0.4210444761340444
 71
    1
 72
    1
  1
\C7;C\C7;
  7
standard
210
0
220
0
230
1
 50
0
 73
    1
 44
1
  0
MTEXT
  5
238
100
AcDbEntity
  8
CONTINUOUS
  6
ByLayer
 62
  256
370
   -1
100
AcDbMText
 10
14.3543842928
 20
0.583894128255
 30
0
 40
0.0804353834124
 41
0.8401028934184001
 71
    1
 72
    1
  1
\C7;WEIGHT:\C7;
  7
standard
210
0
220
0
230
1
 50
0
 73
    1
 44
1
  0
MTEXT
  5
239
100
AcDbEntity
  8
CONTINUOUS
  6
ByLayer
 62
  256
370
   -1
100
AcDbMText
 10
0.427314415038
 20
6.9401519559
 30
0
 40
0.07149811858879999
 41
0.4210444761340444
 71
    1
 72
    1
  1
\C7;C\C7;
  7
standard
210
0
220
0
230
1
 50
0
 73
    1
 44
1
  0
MTEXT
  5
23A
100
AcDbEntity
  8
CONTINUOUS
  6
ByLayer
 62
  256
370
   -1
100
AcDbMText
 10
12.6703334419
 20
1.79787658338
 30
0
 40
0.0775536798368
 41
0.1852671240545778
 71
    4
 72
    1
  1
\C7;
  7
standard
210
0
220
0
230
1
 50
0
 73
    1
 44
1
  0
MTEXT
  5
23B
100
AcDbEntity
  8
CONTINUOUS
  6
ByLayer
 62
  256
370
   -1
100
AcDbMText
 10
13.3681812646
 20
1.00046194544
 30
0
 40
0.205557090943
 41
1.233342545658
 71
    1
 72
    1
  1
\C7;B\C7;
  7
standard
210
0
220
0
230
1
 50
0
 73
    1
 44
1
  0
MTEXT
  5
23C
100
AcDbEntity
  8
CONTINUOUS
  6
ByLayer
 62
  256
370
   -1
100
AcDbMText
 10
12.0746666615
 20
1.98029600729
 30
0
 40
0.0775536798368
 41
0.1852671240545778
 71
    4
 72
    1
  1
\C7;
  7
standard
210
0
220
0
230
1
 50
0
 73
    1
 44
1
  0
MTEXT
  5
23D
100
AcDbEntity
  8
CONTINUOUS
  6
ByLayer
 62
  256
370
   -1
100
AcDbMText
 10
12.1967072781
 20
2.41539617384
 30
0
 40
0.0536235889416
 41
0.4706959473762666
 71
    1
 72
    1
  1
\C7;NAME\C7;
  7
standard
210
0
220
0
230
1
 50
0
 73
    1
 44
1
  0
MTEXT
  5
23E
100
AcDbEntity
  8
CONTINUOUS
  6
ByLayer
 62
  256
370
   -1
100
AcDbMText
 10
13.7070501432
 20
1.11292980944
 30
0
 40
0.0804353834124
 41
0.969693233360605
 71
    1
 72
    1
  1
\C7;DWG.  NO.\C7;
  7
standard
210
0
220
0
230
1
 50
0
 73
    1
 44
1
  0
MTEXT
  5
23F
100
AcDbEntity
  8
CONTINUOUS
  6
ByLayer
 62
  256
370
   -1
100
AcDbMText
 10
13.3235206706
 20
0.587696530819
 30
0
 40
0.0804353834124
 41
0.7775420226007259
 71
    1
 72
    1
  1
\C7;SCALE:\C7;
  7
standard
210
0
220
0
230
1
 50
0
 73
    1
 44
1
  0
MTEXT
  5
240
100
AcDbEntity
  8
CONTINUOUS
  6
ByLayer
 62
  256
370
   -1
100
AcDbMText
 10
14.9028603862
 20
0.524457871445
 30
0
 40
0.0775536798368
 41
0.1852671240545778
 71
    4
 72
    1
  1
\C7;
  7
standard
210
0
220
0
230
1
 50
0
 73
    1
 44
1
  0
ENDBLK
  5
74
330
72
100
AcDbEntity
  8
0
100
AcDbBlockEnd
  0
BLOCK
  5
76
330
75
100
AcDbEntity
  8
0
100
AcDbBlockBegin
  2
BLOCK13
 70
    0
 10
0
 20
0
  3
BLOCK13
  1

  0
CIRCLE
  5
241
100
AcDbEntity
  8
0
  6
ByLayer
 62
  256
370
   -1
100
AcDbCircle
 10
12.5727822224
 20
0.77973765604
 40
0.0787401574803
  0
CIRCLE
  5
242
100
AcDbEntity
  8
0
  6
ByLayer
 62
  256
370
   -1
100
AcDbCircle
 10
12.5727822224
 20
0.77973765604
 40
0.157480314961
  0
LINE
  5
243
100
AcDbEntity
  8
0
  6
ByLayer
 62
  256
370
   -1
100
AcDbLine
 10
12.8090026948
 20
0.85847781352
 11
12.8090026948
 21
0.700997498559
  0
LINE
  5
244
100
AcDbEntity
  8
0
  6
ByLayer
 62
  256
370
   -1
100
AcDbLine
 10
12.8090026948
 20
0.700997498559
 11
13.1239633247
 21
0.622257341079
  0
LINE
  5
245
100
AcDbEntity
  8
0
  6
ByLayer
 62
  256
370
   -1
100
AcDbLine
 10
13.1239633247
 20
0.622257341079
 11
13.1239633247
 21
0.937217971
  0
LINE
  5
246
100
AcDbEntity
  8
0
  6
ByLayer
 62
  256
370
   -1
100
AcDbLine
 10
13.1239633247
 20
0.937217971
 11
12.8090026948
 21
0.85847781352
  0
LINE
  5
247
100
AcDbEntity
  8
0
  6
ByLayer
 62
  256
370
   -1
100
AcDbLine
 10
12.3365617499
 20
0.77973765604
 11
13.2027034822
 21
0.77973765604
  0
LINE
  5
248
100
AcDbEntity
  8
0
  6
ByLayer
 62
  256
370
   -1
100
AcDbLine
 10
12.5727822224
 20
1.01595812848
 11
12.5727822224
 21
0.543517183599
  0
ENDBLK
  5
77
330
75
100
AcDbEntity
  8
0
100
AcDbBlockEnd
  0
BLOCK
  5
79
330
78
100
AcDbEntity
  8
0
100
AcDbBlockBegin
  2
BLOCK14
 70
    0
 10
0
 20
0
  3
BLOCK14
  1

  0
MTEXT
  5
249
100
AcDbEntity
  8
0
  6
ByLayer
 62
  256
370
   -1
100
AcDbMText
 10
0
 20
0.112491480021
 30
0
 40
0.0536235889416
 41
1.379317825635672
 71
    1
 72
    1
  1
\C7;UNLESS OTHERWISE SPECIFIED\C7;
  7
standard
210
0
220
0
230
1
 50
0
 73
    1
 44
1
  0
MTEXT
  5
24A
100
AcDbEntity
  8
0
  6
ByLayer
 62
  256
370
   -1
100
AcDbMText
 10
0
 20
0.00312140263981
 30
0
 40
0.0536235889416
 41
1.304840630140655
 71
    1
 72
    1
  1
\C7; DIMENSIONS ARE IN INCHES\C7;
  7
standard
210
0
220
0
230
1
 50
0
 73
    1
 44
1
  0
ENDBLK
  5
7A
330
78
100
AcDbEntity
  8
0
100
AcDbBlockEnd
  0
BLOCK
  5
7C
330
7B
100
AcDbEntity
  8
0
100
AcDbBlockBegin
  2
L-Q2
 70
    0
 10
0
 20
0
  3
L-Q2
  1

  0
LINE
  5
24B
100
AcDbEntity
  8
VISIBLE
  6
ByLayer
 62
  256
370
   -1
100
AcDbLine
 10
4.44834425318
 20
4.76771415031
 11
4.44834425318
 21
5.01771415031
  0
LINE
  5
24C
100
AcDbEntity
  8
VISIBLE
  6
ByLayer
 62
  256
370
   -1
100
AcDbLine
 10
9.94834425318
 20
5.01771415031
 11
4.44834425318
 21
5.01771415031
  0
LINE
  5
24D
100
AcDbEntity
  8
VISIBLE
  6
ByLayer
 62
  256
370
   -1
100
AcDbLine
 10
9.94834425318
 20
4.76771415031
 11
9.94834425318
 21
5.01771415031
  0
LINE
  5
24E
100
AcDbEntity
  8
VISIBLE
  6
ByLayer
 62
  256
370
   -1
100
AcDbLine
 10
9.94834425318
 20
4.76771415031
 11
4.44834425318
 21
4.76771415031
  0
LINE
  5
24F
100
AcDbEntity
  8
HIDDEN
  6
ByLayer
 62
  256
370
   -1
100
AcDbLine
 10
6.79209425318
 20
4.76771415031
 11
6.79209425318
 21
5.01771415031
  0
LINE
  5
250
100
AcDbEntity
  8
HIDDEN
  6
ByLayer
 62
  256
370
   -1
100
AcDbLine
 10
7.60459425318
 20
4.76771415031
 11
7.60459425318
 21
5.01771415031
  0
LINE
  5
251
100
AcDbEntity
  8
HIDDEN
  6
ByLayer
 62
  256
370
   -1
100
AcDbLine
 10
7.19834425318
 20
5.01771415031
 11
7.19834425318
 21
4.76771415031
  0
DIMENSION
  5
252
100
AcDbEntity
  8
DIMENSIONS
  6
ByLayer
 62
  256
370
   -1
100
AcDbDimension
 10
0
 20
0
 30
0
 11
7.97592307263
 21
9.000195258250001
 31
0
 70
   32
  1
<>
 71
    5
 72
    0
  3
Standard
 53
0
210
0
220
0
230
1
100
AcDbAlignedDimension
 13
4.44834425318
 23
4.76771415031
 33
0
 14
4.44834425318
 24
5.01771415031
 34
0
 50
270
100
AcDbRotatedDimension
  0
LINE
  5
253
100
AcDbEntity
  8
VISIBLE
  6
ByLayer
 62
  256
370
   -1
100
AcDbLine
 10
9.94834425318
 20
6.19031806067
 11
4.44834425318
 21
6.19031806067
  0
LINE
  5
254
100
AcDbEntity
  8
VISIBLE
  6
ByLayer
 62
  256
370
   -1
100
AcDbLine
 10
4.44834425318
 20
6.19031806067
 11
4.44834425318
 21
8.19031806067
  0
LINE
  5
255
100
AcDbEntity
  8
VISIBLE
  6
ByLayer
 62
  256
370
   -1
100
AcDbLine
 10
4.44834425318
 20
8.19031806067
 11
9.94834425318
 21
8.19031806067
  0
ARC
  5
256
100
AcDbEntity
  8
VISIBLE
  6
ByLayer
 62
  256
370
   -1
100
AcDbCircle
 10
7.19834425318
 20
7.19031806067
 40
0.40625
100
AcDbArc
 50
270
 51
90
  0
ARC
  5
257
100
AcDbEntity
  8
VISIBLE
  6
ByLayer
 62
  256
370
   -1
100
AcDbCircle
 10
7.19834425317
 20
7.19031806067
 40
0.40625
100
AcDbArc
 50
90
 51
270.000000001
  0
LINE
  5
258
100
AcDbEntity
  8
VISIBLE
  6
ByLayer
 62
  256
370
   -1
100
AcDbLine
 10
9.94834425318
 20
6.19031806067
 11
9.94834425318
 21
8.19031806067
  0
DIMENSION
  5
259
100
AcDbEntity
  8
DIMENSIONS
  6
ByLayer
 62
  256
370
   -1
100
AcDbDimension
 10
0
 20
0
 30
0
 11
7.86405271996
 21
15.3806361213
 31
0
 70
   32
  1
<>
 71
    5
 72
    0
  3
Standard
 53
0
210
0
220
0
230
1
100
AcDbAlignedDimension
 13
4.44834425318
 23
6.19031806067
 33
0
 14
4.44834425318
 24
8.19031806067
 34
0
 50
90
100
AcDbRotatedDimension
  0
DIMENSION
  5
25A
100
AcDbEntity
  8
DIMENSIONS
  6
ByLayer
 62
  256
370
   -1
100
AcDbDimension
 10
0
 20
0
 30
0
 11
10.1973459439
 21
17.1852768932
 31
0
 70
   32
  1
<>
 71
    5
 72
    0
  3
Standard
 53
0
210
0
220
0
230
1
100
AcDbAlignedDimension
 13
4.44834425318
 23
8.19031806067
 33
0
 14
9.94834425318
 24
8.19031806067
 34
0
100
AcDbRotatedDimension
  0
DIMENSION
  5
25B
100
AcDbEntity
  8
DIMENSIONS
  6
ByLayer
 62
  256
370
   -1
100
AcDbDimension
 10
0
 20
0
 30
0
 11
8.503310977
 21
15.3806361213
 31
0
 70
   32
  1
<>
 71
    5
 72
    0
  3
Standard
 53
0
210
0
220
0
230
1
100
AcDbAlignedDimension
 13
7.19834425317
 23
7.59656806067
 33
0
 14
7.19834425318
 24
6.78406806067
 34
0
 50
270
100
AcDbRotatedDimension
  0
LINE
  5
25C
100
AcDbEntity
  8
VISIBLE
  6
ByLayer
 62
  256
370
   -1
100
AcDbLine
 10
13.1209482508
 20
5.01771415031
 11
13.1209482508
 21
4.76771415031
  0
LINE
  5
25D
100
AcDbEntity
  8
VISIBLE
  6
ByLayer
 62
  256
370
   -1
100
AcDbLine
 10
11.1209482508
 20
4.76771415031
 11
11.1209482508
 21
5.01771415031
  0
LINE
  5
25E
100
AcDbEntity
  8
VISIBLE
  6
ByLayer
 62
  256
370
   -1
100
AcDbLine
 10
13.1209482508
 20
4.76771415031
 11
11.1209482508
 21
4.76771415031
  0
LINE
  5
25F
100
AcDbEntity
  8
VISIBLE
  6
ByLayer
 62
  256
370
   -1
100
AcDbLine
 10
11.1209482508
 20
5.01771415031
 11
13.1209482508
 21
5.01771415031
  0
LINE
  5
260
100
AcDbEntity
  8
HIDDEN
  6
ByLayer
 62
  256
370
   -1
100
AcDbLine
 10
11.7146982508
 20
5.01771415031
 11
11.7146982508
 21
4.76771415031
  0
LINE
  5
261
100
AcDbEntity
  8
HIDDEN
  6
ByLayer
 62
  256
370
   -1
100
AcDbLine
 10
12.5271982508
 20
4.76771415031
 11
12.5271982508
 21
5.01771415031
  0
LINE
  5
262
100
AcDbEntity
  8
VISIBLE
  6
ByLayer
 62
  256
370
   -1
100
AcDbLine
 10
10.5286999268
 20
8.782349368489999
 11
10.5286999268
 21
8.98647351372
  0
LINE
  5
263
100
AcDbEntity
  8
VISIBLE
  6
ByLayer
 62
  256
370
   -1
100
AcDbLine
 10
14.4177872233
 20
6.74110791617
 11
10.5286999268
 21
8.98647351372
  0
LINE
  5
264
100
AcDbEntity
  8
VISIBLE
  6
ByLayer
 62
  256
370
   -1
100
AcDbLine
 10
10.5286999268
 20
8.98647351372
 11
11.9429134891
 21
9.80297009465
  0
LINE
  5
265
100
AcDbEntity
  8
VISIBLE
  6
ByLayer
 62
  256
370
   -1
100
AcDbLine
 10
15.8320007857
 20
7.5576044971
 11
15.8320007857
 21
7.35348035187
  0
LINE
  5
266
100
AcDbEntity
  8
VISIBLE
  6
ByLayer
 62
  256
370
   -1
100
AcDbLine
 10
14.4177872233
 20
6.53698377094
 11
14.4177872233
 21
6.74110791617
  0
ELLIPSE
  5
267
100
AcDbEntity
  8
VISIBLE
  6
ByLayer
 62
  256
370
   -1
100
AcDbEllipse
 10
13.1803503562
 20
8.06791486018
 30
0
 11
-0.406249999997
 21
1.469e-12
 31
0
 40
0.57735026919
 41
-2.69139596365
 42
-2.35619449021
  0
LINE
  5
268
100
AcDbEntity
  8
VISIBLE
  6
ByLayer
 62
  256
370
   -1
100
AcDbLine
 10
15.8320007857
 20
7.35348035187
 11
14.4177872233
 21
6.53698377094
  0
LINE
  5
269
100
AcDbEntity
  8
VISIBLE
  6
ByLayer
 62
  256
370
   -1
100
AcDbLine
 10
11.9429134891
 20
9.80297009465
 11
15.8320007857
 21
7.5576044971
  0
ELLIPSE
  5
26A
100
AcDbEntity
  8
VISIBLE
  6
ByLayer
 62
  256
370
   -1
100
AcDbEllipse
 10
13.1803503562
 20
8.272039005410001
 30
0
 11
-0.40625
 21
0
 31
0
 40
0.57735026919
 41
-3.14159265359
 42
-2.35619449017
  0
ELLIPSE
  5
26B
100
AcDbEntity
  8
VISIBLE
  6
ByLayer
 62
  256
370
   -1
100
AcDbEllipse
 10
13.1803503562
 20
8.272039005410001
 30
0
 11
0.40625
 21
1.8e-15
 31
0
 40
0.57735026919
 41
3.92699081699
 42
6.28318530718
  0
LINE
  5
26C
100
AcDbEntity
  8
VISIBLE
  6
ByLayer
 62
  256
370
   -1
100
AcDbLine
 10
14.4177872233
 20
6.53698377094
 11
10.5286999268
 21
8.782349368489999
  0
ELLIPSE
  5
26D
100
AcDbEntity
  8
VISIBLE
  6
ByLayer
 62
  256
370
   -1
100
AcDbEllipse
 10
13.1803503562
 20
8.272039005410001
 30
0
 11
0.40625
 21
0
 31
0
 40
0.57735026919
 41
3.14159265359
 42
3.92699081699
  0
ELLIPSE
  5
26E
100
AcDbEntity
  8
VISIBLE
  6
ByLayer
 62
  256
370
   -1
100
AcDbEllipse
 10
13.1803503562
 20
8.272039005410001
 30
0
 11
-0.40625
 21
1.8e-15
 31
0
 40
0.57735026919
 41
-2.35619449017
 42
0
  0
LINE
  5
26F
100
AcDbEntity
  8
VISIBLE
  6
ByLayer
 62
  256
370
   -1
100
AcDbLine
 10
14.4177872233
 20
6.74110791617
 11
15.8320007857
 21
7.5576044971
  0
ELLIPSE
  5
270
100
AcDbEntity
  8
VISIBLE
  6
ByLayer
 62
  256
370
   -1
100
AcDbEllipse
 10
13.1803503562
 20
8.06791486018
 30
0
 11
-0.40625
 21
0
 31
0
 40
0.57735026919
 41
-2.35619449021
 42
-0.450196689933
  0
ELLIPSE
  5
271
100
AcDbEntity
  8
HIDDEN
  6
ByLayer
 62
  256
370
   -1
100
AcDbEllipse
 10
13.1803503562
 20
8.06791486018
 30
0
 11
0.40625
 21
-3.6e-15
 31
0
 40
0.57735026919
 41
-2.35619449019
 42
0
  0
ELLIPSE
  5
272
100
AcDbEntity
  8
HIDDEN
  6
ByLayer
 62
  256
370
   -1
100
AcDbEllipse
 10
13.1803503562
 20
8.06791486018
 30
0
 11
-0.406249999999
 21
0
 31
0
 40
0.57735026919
 41
3.14159265359
 42
3.59178934352
  0
LINE
  5
273
100
AcDbEntity
  8
HIDDEN
  6
ByLayer
 62
  256
370
   -1
100
AcDbLine
 10
15.8320007857
 20
7.35348035187
 11
11.9429134891
 21
9.598845949419999
  0
LINE
  5
274
100
AcDbEntity
  8
HIDDEN
  6
ByLayer
 62
  256
370
   -1
100
AcDbLine
 10
11.9429134891
 20
9.80297009465
 11
11.9429134891
 21
9.598845949419999
  0
ELLIPSE
  5
275
100
AcDbEntity
  8
HIDDEN
  6
ByLayer
 62
  256
370
   -1
100
AcDbEllipse
 10
13.1803503562
 20
8.06791486018
 30
0
 11
0.40625
 21
1.07e-14
 31
0
 40
0.57735026919
 41
2.69139596366
 42
3.14159265359
  0
ELLIPSE
  5
276
100
AcDbEntity
  8
HIDDEN
  6
ByLayer
 62
  256
370
   -1
100
AcDbEllipse
 10
13.1803503562
 20
8.06791486018
 30
0
 11
0.40625
 21
0
 31
0
 40
0.57735026919
 41
3.14159265359
 42
3.92699081699
  0
LINE
  5
277
100
AcDbEntity
  8
HIDDEN
  6
ByLayer
 62
  256
370
   -1
100
AcDbLine
 10
11.9429134891
 20
9.598845949419999
 11
10.5286999268
 21
8.782349368489999
  0
LINE
  5
278
100
AcDbEntity
  8
HIDDEN
  6
ByLayer
 62
  256
370
   -1
100
AcDbLine
 10
13.5866003562
 20
8.06791486018
 11
13.5866003562
 21
8.272039005410001
  0
LINE
  5
279
100
AcDbEntity
  8
HIDDEN
  6
ByLayer
 62
  256
370
   -1
100
AcDbLine
 10
12.7741003562
 20
8.06791486018
 11
12.7741003562
 21
8.272039005410001
  0
LINE
  5
27A
100
AcDbEntity
  8
TANGENT EDGES
  6
ByLayer
 62
  256
370
   -1
100
AcDbLine
 10
13.4676124861
 20
8.23376572818
 11
13.4676124861
 21
8.43788987342
  0
LINE
  5
27B
100
AcDbEntity
  8
HIDDEN
  6
ByLayer
 62
  256
370
   -1
100
AcDbLine
 10
12.8930882264
 20
8.106188137409999
 11
12.8930882264
 21
7.90206399218
  0
INSERT
  5
27C
100
AcDbEntity
  8
CONTINUOUS
  6
ByLayer
 62
  256
370
   -1
100
AcDbBlockReference
  2
BLOCK12
 10
0
 20
0
 30
0
 41
1
 42
1
 43
0
 50
0
 70
    1
 71
    1
 44
0
 45
0
  0
ENDBLK
  5
7D
330
7B
100
AcDbEntity
  8
0
100
AcDbBlockEnd
  0
BLOCK
  5
7F
330
7E
100
AcDbEntity
  8
0
100
AcDbBlockBegin
  2
BLOCK18
 70
    0
 10
0
 20
0
  3
BLOCK18
  1

  0
LINE
  5
27D
100
AcDbEntity
  8
CONTINUOUS
  6
ByLayer
 62
  256
370
   -1
100
AcDbLine
 10
0.626251604621
 20
10.6420731707
 11
16.3762516046
 21
10.6420731707
  0
LINE
  5
27E
100
AcDbEntity
  8
CONTINUOUS
  6
ByLayer
 62
  256
370
   -1
100
AcDbLine
 10
0.626251604621
 20
10.6420731707
 11
0.626251604621
 21
0.392073170732
  0
LINE
  5
27F
100
AcDbEntity
  8
CONTINUOUS
  6
ByLayer
 62
  256
370
   -1
100
AcDbLine
 10
16.3762516046
 20
0.392073170732
 11
0.626251604621
 21
0.392073170732
  0
LINE
  5
280
100
AcDbEntity
  8
CONTINUOUS
  6
ByLayer
 62
  256
370
   -1
100
AcDbLine
 10
16.3762516046
 20
0.392073170732
 11
16.3762516046
 21
10.6420731707
  0
LINE
  5
281
100
AcDbEntity
  8
CONTINUOUS
  6
ByLayer
 62
  256
370
   -1
100
AcDbLine
 10
16.3762516046
 20
8.0752921748
 11
16.5012516046
 21
8.0752921748
  0
LINE
  5
282
100
AcDbEntity
  8
CONTINUOUS
  6
ByLayer
 62
  256
370
   -1
100
AcDbLine
 10
16.3762516046
 20
5.5127921748
 11
16.5012516046
 21
5.5127921748
  0
LINE
  5
283
100
AcDbEntity
  8
CONTINUOUS
  6
ByLayer
 62
  256
370
   -1
100
AcDbLine
 10
16.3762516046
 20
5.5127921748
 11
16.4434330337
 21
5.53680182526
  0
LINE
  5
284
100
AcDbEntity
  8
CONTINUOUS
  6
ByLayer
 62
  256
370
   -1
100
AcDbLine
 10
16.3762516046
 20
5.5127921748
 11
16.4434330337
 21
5.49021364932
  0
LINE
  5
285
100
AcDbEntity
  8
CONTINUOUS
  6
ByLayer
 62
  256
370
   -1
100
AcDbLine
 10
16.4434330337
 20
5.53680182526
 11
16.4434330337
 21
5.49021364932
  0
LINE
  5
286
100
AcDbEntity
  8
CONTINUOUS
  6
ByLayer
 62
  256
370
   -1
100
AcDbLine
 10
16.3762516046
 20
5.5127921748
 11
16.4434330337
 21
5.52183033312
  0
LINE
  5
287
100
AcDbEntity
  8
CONTINUOUS
  6
ByLayer
 62
  256
370
   -1
100
AcDbLine
 10
16.3762516046
 20
5.5127921748
 11
16.4434330337
 21
5.50248405478
  0
LINE
  5
288
100
AcDbEntity
  8
CONTINUOUS
  6
ByLayer
 62
  256
370
   -1
100
AcDbLine
 10
16.3762516046
 20
2.9502921748
 11
16.5012516046
 21
2.9502921748
  0
LINE
  5
289
100
AcDbEntity
  8
CONTINUOUS
  6
ByLayer
 62
  256
370
   -1
100
AcDbLine
 10
0.626251604621
 20
2.95457317073
 11
0.501251604621
 21
2.95457317073
  0
LINE
  5
28A
100
AcDbEntity
  8
CONTINUOUS
  6
ByLayer
 62
  256
370
   -1
100
AcDbLine
 10
0.626251604621
 20
5.51707317073
 11
0.559070175518
 21
5.50676505072
  0
LINE
  5
28B
100
AcDbEntity
  8
CONTINUOUS
  6
ByLayer
 62
  256
370
   -1
100
AcDbLine
 10
0.626251604621
 20
5.51707317073
 11
0.559070175518
 21
5.52611132905
  0
LINE
  5
28C
100
AcDbEntity
  8
CONTINUOUS
  6
ByLayer
 62
  256
370
   -1
100
AcDbLine
 10
0.559070175518
 20
5.5410828212
 11
0.559070175518
 21
5.49449464526
  0
LINE
  5
28D
100
AcDbEntity
  8
CONTINUOUS
  6
ByLayer
 62
  256
370
   -1
100
AcDbLine
 10
0.626251604621
 20
5.51707317073
 11
0.559070175518
 21
5.49449464526
  0
LINE
  5
28E
100
AcDbEntity
  8
CONTINUOUS
  6
ByLayer
 62
  256
370
   -1
100
AcDbLine
 10
0.626251604621
 20
5.51707317073
 11
0.559070175518
 21
5.5410828212
  0
LINE
  5
28F
100
AcDbEntity
  8
CONTINUOUS
  6
ByLayer
 62
  256
370
   -1
100
AcDbLine
 10
0.626251604621
 20
5.51707317073
 11
0.501251604621
 21
5.51707317073
  0
LINE
  5
290
100
AcDbEntity
  8
CONTINUOUS
  6
ByLayer
 62
  256
370
   -1
100
AcDbLine
 10
0.626251604621
 20
8.079573170730001
 11
0.501251604621
 21
8.079573170730001
  0
LINE
  5
291
100
AcDbEntity
  8
CONTINUOUS
  6
ByLayer
 62
  256
370
   -1
100
AcDbLine
 10
9.54980206352
 20
2.44962614087
 11
16.3762516046
 21
2.44962614087
  0
LINE
  5
292
100
AcDbEntity
  8
CONTINUOUS
  6
ByLayer
 62
  256
370
   -1
100
AcDbLine
 10
11.5513364013
 20
2.44962614087
 11
11.5513364013
 21
0.392073170732
  0
LINE
  5
293
100
AcDbEntity
  8
CONTINUOUS
  6
ByLayer
 62
  256
370
   -1
100
AcDbLine
 10
13.2432004658
 20
2.44962614087
 11
13.2432004658
 21
0.392073170732
  0
LINE
  5
294
100
AcDbEntity
  8
CONTINUOUS
  6
ByLayer
 62
  256
370
   -1
100
AcDbLine
 10
13.2432004658
 20
0.604959010098
 11
16.3762516046
 21
0.604959010098
  0
LINE
  5
295
100
AcDbEntity
  8
CONTINUOUS
  6
ByLayer
 62
  256
370
   -1
100
AcDbLine
 10
13.2432004658
 20
1.11193624566
 11
16.3762516046
 21
1.11193624566
  0
LINE
  5
296
100
AcDbEntity
  8
CONTINUOUS
  6
ByLayer
 62
  256
370
   -1
100
AcDbLine
 10
13.2432004658
 20
2.07462614087
 11
16.3762516046
 21
2.07462614087
  0
LINE
  5
297
100
AcDbEntity
  8
CONTINUOUS
  6
ByLayer
 62
  256
370
   -1
100
AcDbLine
 10
13.6596632587
 20
1.11193624566
 11
13.6596632587
 21
0.604959010098
  0
LINE
  5
298
100
AcDbEntity
  8
CONTINUOUS
  6
ByLayer
 62
  256
370
   -1
100
AcDbLine
 10
14.2861627554
 20
0.604959010098
 11
14.2861627554
 21
0.392073170732
  0
LINE
  5
299
100
AcDbEntity
  8
CONTINUOUS
  6
ByLayer
 62
  256
370
   -1
100
AcDbLine
 10
15.8043163091
 20
1.11193624566
 11
15.8043163091
 21
0.604959010098
  0
LINE
  5
29A
100
AcDbEntity
  8
CONTINUOUS
  6
ByLayer
 62
  256
370
   -1
100
AcDbLine
 10
15.5189756774
 20
0.604959010098
 11
15.5189756774
 21
0.392073170732
  0
LINE
  5
29B
100
AcDbEntity
  8
CONTINUOUS
  6
ByLayer
 62
  256
370
   -1
100
AcDbLine
 10
11.5513364013
 20
1.88712614087
 11
13.2432004658
 21
1.88712614087
  0
LINE
  5
29C
100
AcDbEntity
  8
CONTINUOUS
  6
ByLayer
 62
  256
370
   -1
100
AcDbLine
 10
11.5513364013
 20
2.07462614087
 11
13.2432004658
 21
2.07462614087
  0
LINE
  5
29D
100
AcDbEntity
  8
CONTINUOUS
  6
ByLayer
 62
  256
370
   -1
100
AcDbLine
 10
11.5513364013
 20
2.26212614087
 11
13.2432004658
 21
2.26212614087
  0
LINE
  5
29E
100
AcDbEntity
  8
CONTINUOUS
  6
ByLayer
 62
  256
370
   -1
100
AcDbLine
 10
11.5513364013
 20
1.11668767505
 11
13.2432004658
 21
1.11668767505
  0
LINE
  5
29F
100
AcDbEntity
  8
CONTINUOUS
  6
ByLayer
 62
  256
370
   -1
100
AcDbLine
 10
12.6404313067
 20
2.44962614087
 11
12.6404313067
 21
1.69962614087
  0
LINE
  5
2A0
100
AcDbEntity
  8
CONTINUOUS
  6
ByLayer
 62
  256
370
   -1
100
AcDbLine
 10
12.0248227272
 20
2.44962614087
 11
12.0248227272
 21
1.69962614087
  0
LINE
  5
2A1
100
AcDbEntity
  8
CONTINUOUS
  6
ByLayer
 62
  256
370
   -1
100
AcDbLine
 10
9.54980206352
 20
0.392073170732
 11
9.54980206352
 21
2.44962614087
  0
LINE
  5
2A2
100
AcDbEntity
  8
CONTINUOUS
  6
ByLayer
 62
  256
370
   -1
100
AcDbLine
 10
11.9625579365
 20
1.42415459873
 11
11.9625579365
 21
1.11668767505
  0
LINE
  5
2A3
100
AcDbEntity
  8
CONTINUOUS
  6
ByLayer
 62
  256
370
   -1
100
AcDbLine
 10
12.3737128259
 20
1.42415459873
 11
12.3737128259
 21
1.11668767505
  0
LINE
  5
2A4
100
AcDbEntity
  8
CONTINUOUS
  6
ByLayer
 62
  256
370
   -1
100
AcDbLine
 10
12.8181441331
 20
1.42415459873
 11
12.8181441331
 21
1.11668767505
  0
LINE
  5
2A5
100
AcDbEntity
  8
CONTINUOUS
  6
ByLayer
 62
  256
370
   -1
100
AcDbLine
 10
11.5513364013
 20
1.42415459873
 11
13.2432004658
 21
1.42415459873
  0
LINE
  5
2A6
100
AcDbEntity
  8
CONTINUOUS
  6
ByLayer
 62
  256
370
   -1
100
AcDbLine
 10
13.2432004658
 20
1.69962614087
 11
11.5513364013
 21
1.69962614087
  0
LINE
  5
2A7
100
AcDbEntity
  8
CONTINUOUS
  6
ByLayer
 62
  256
370
   -1
100
AcDbLine
 10
9.54980206352
 20
1.26508544565
 11
11.5513364013
 21
1.26508544565
  0
LINE
  5
2A8
100
AcDbEntity
  8
CONTINUOUS
  6
ByLayer
 62
  256
370
   -1
100
AcDbLine
 10
14.4072516046
 20
0.392073170732
 11
14.4072516046
 21
0.307273964934
  0
LINE
  5
2A9
100
AcDbEntity
  8
CONTINUOUS
  6
ByLayer
 62
  256
370
   -1
100
AcDbLine
 10
12.4385016046
 20
0.392073170732
 11
12.4385016046
 21
0.307273964934
  0
LINE
  5
2AA
100
AcDbEntity
  8
CONTINUOUS
  6
ByLayer
 62
  256
370
   -1
100
AcDbLine
 10
10.4697516046
 20
0.392073170732
 11
10.4697516046
 21
0.307273964934
  0
LINE
  5
2AB
100
AcDbEntity
  8
CONTINUOUS
  6
ByLayer
 62
  256
370
   -1
100
AcDbLine
 10
8.501001604620001
 20
0.392073170732
 11
8.501001604620001
 21
0.307273964934
  0
LINE
  5
2AC
100
AcDbEntity
  8
CONTINUOUS
  6
ByLayer
 62
  256
370
   -1
100
AcDbLine
 10
6.53225160462
 20
0.392073170732
 11
6.53225160462
 21
0.307273964934
  0
LINE
  5
2AD
100
AcDbEntity
  8
CONTINUOUS
  6
ByLayer
 62
  256
370
   -1
100
AcDbLine
 10
4.56350160462
 20
0.392073170732
 11
4.56350160462
 21
0.307273964934
  0
LINE
  5
2AE
100
AcDbEntity
  8
CONTINUOUS
  6
ByLayer
 62
  256
370
   -1
100
AcDbLine
 10
2.59475160462
 20
0.392073170732
 11
2.59475160462
 21
0.307273964934
  0
LINE
  5
2AF
100
AcDbEntity
  8
CONTINUOUS
  6
ByLayer
 62
  256
370
   -1
100
AcDbLine
 10
2.59475160462
 20
10.6420731707
 11
2.59475160462
 21
10.7268723765
  0
LINE
  5
2B0
100
AcDbEntity
  8
CONTINUOUS
  6
ByLayer
 62
  256
370
   -1
100
AcDbLine
 10
4.56350160462
 20
10.6420731707
 11
4.56350160462
 21
10.7268723765
  0
LINE
  5
2B1
100
AcDbEntity
  8
CONTINUOUS
  6
ByLayer
 62
  256
370
   -1
100
AcDbLine
 10
6.53225160462
 20
10.6420731707
 11
6.53225160462
 21
10.7268723765
  0
LINE
  5
2B2
100
AcDbEntity
  8
CONTINUOUS
  6
ByLayer
 62
  256
370
   -1
100
AcDbLine
 10
8.501001604620001
 20
10.6420731707
 11
8.501001604620001
 21
10.7268723765
  0
LINE
  5
2B3
100
AcDbEntity
  8
CONTINUOUS
  6
ByLayer
 62
  256
370
   -1
100
AcDbLine
 10
10.4697516046
 20
10.6420731707
 11
10.4697516046
 21
10.7268723765
  0
LINE
  5
2B4
100
AcDbEntity
  8
CONTINUOUS
  6
ByLayer
 62
  256
370
   -1
100
AcDbLine
 10
12.4385016046
 20
10.6420731707
 11
12.4385016046
 21
10.7268723765
  0
LINE
  5
2B5
100
AcDbEntity
  8
CONTINUOUS
  6
ByLayer
 62
  256
370
   -1
100
AcDbLine
 10
14.4072516046
 20
10.6420731707
 11
14.4072516046
 21
10.7268723765
  0
LINE
  5
2B6
100
AcDbEntity
  8
CONTINUOUS
  6
ByLayer
 62
  256
370
   -1
100
AcDbLine
 10
8.501001604620001
 20
10.6420731707
 11
8.48775048715
 21
10.6840054626
  0
LINE
  5
2B7
100
AcDbEntity
  8
CONTINUOUS
  6
ByLayer
 62
  256
370
   -1
100
AcDbLine
 10
8.501001604620001
 20
10.6420731707
 11
8.513556578459999
 21
10.6840054626
  0
LINE
  5
2B8
100
AcDbEntity
  8
CONTINUOUS
  6
ByLayer
 62
  256
370
   -1
100
AcDbLine
 10
8.513556578459999
 20
10.6840054626
 11
8.48775048715
 21
10.6840054626
  0
LINE
  5
2B9
100
AcDbEntity
  8
CONTINUOUS
  6
ByLayer
 62
  256
370
   -1
100
AcDbLine
 10
8.49396306469
 20
10.6840054626
 11
8.501001604620001
 21
10.6420731707
  0
LINE
  5
2BA
100
AcDbEntity
  8
CONTINUOUS
  6
ByLayer
 62
  256
370
   -1
100
AcDbLine
 10
8.505910329180001
 20
10.6840054626
 11
8.501001604620001
 21
10.6420731707
  0
LINE
  5
2BB
100
AcDbEntity
  8
CONTINUOUS
  6
ByLayer
 62
  256
370
   -1
100
AcDbLine
 10
8.501001604620001
 20
0.392073170732
 11
8.513556578459999
 21
0.3575
  0
LINE
  5
2BC
100
AcDbEntity
  8
CONTINUOUS
  6
ByLayer
 62
  256
370
   -1
100
AcDbLine
 10
8.513556578459999
 20
0.3575
 11
8.48775048715
 21
0.3575
  0
LINE
  5
2BD
100
AcDbEntity
  8
CONTINUOUS
  6
ByLayer
 62
  256
370
   -1
100
AcDbLine
 10
8.48775048715
 20
0.3575
 11
8.501001604620001
 21
0.392073170732
  0
INSERT
  5
2BE
100
AcDbEntity
  8
0
  6
ByLayer
 62
  256
370
   -1
100
AcDbBlockReference
  2
BLOCK19
 10
-0.37302643846
 20
0.0594801148978
 30
0
 41
1
 42
1
 43
0
 50
0
 70
    1
 71
    1
 44
0
 45
0
  0
INSERT
  5
2BF
100
AcDbEntity
  8
0
  6
ByLayer
 62
  256
370
   -1
100
AcDbBlockReference
  2
BLOCK20
 10
11.7562826626
 20
1.56976492583
 30
0
 41
1
 42
1
 43
0
 50
0
 70
    1
 71
    1
 44
0
 45
0
  0
MTEXT
  5
2C0
100
AcDbEntity
  8
CONTINUOUS
  6
ByLayer
 62
  256
370
   -1
100
AcDbMText
 10
11.6511163186
 20
1.22914982593
 30
0
 40
0.0732451420681
 41
0.569684438307449
 71
    4
 72
    1
  1
\C7;+-.5\C7;
  7
standard
210
0
220
0
230
1
 50
0
 73
    1
 44
1
  0
MTEXT
  5
2C1
100
AcDbEntity
  8
CONTINUOUS
  6
ByLayer
 62
  256
370
   -1
100
AcDbMText
 10
15.6390693244
 20
0.535415439155
 30
0
 40
0.0775536798368
 41
0.1852671240545778
 71
    4
 72
    1
  1
\C7;
  7
standard
210
0
220
0
230
1
 50
0
 73
    1
 44
1
  0
MTEXT
  5
2C2
100
AcDbEntity
  8
CONTINUOUS
  6
ByLayer
 62
  256
370
   -1
100
AcDbMText
 10
13.7722586084
 20
0.493252333694
 30
0
 40
0.0775536798368
 41
0.6635148163815112
 71
    4
 72
    1
  1
\C7;NONE\C7;
  7
standard
210
0
220
0
230
1
 50
0
 73
    1
 44
1
  0
MTEXT
  5
2C3
100
AcDbEntity
  8
CONTINUOUS
  6
ByLayer
 62
  256
370
   -1
100
AcDbMText
 10
11.5959805855
 20
2.21550209874
 30
0
 40
0.0536235889416
 41
0.5362358894160032
 71
    1
 72
    1
  1
\C7;DRAWN\C7;
  7
standard
210
0
220
0
230
1
 50
0
 73
    1
 44
1
  0
MTEXT
  5
2C4
100
AcDbEntity
  8
CONTINUOUS
  6
ByLayer
 62
  256
370
   -1
100
AcDbMText
 10
11.432728105
 20
10.8593303954
 30
0
 40
0.07149811858879999
 41
0.4210444761340488
 71
    1
 72
    1
  1
\C7;3\C7;
  7
standard
210
0
220
0
230
1
 50
0
 73
    1
 44
1
  0
MTEXT
  5
2C5
100
AcDbEntity
  8
CONTINUOUS
  6
ByLayer
 62
  256
370
   -1
100
AcDbMText
 10
11.5941272892
 20
1.40810952244
 30
0
 40
0.0536235889416
 41
0.5541104076948838
 71
    1
 72
    1
  1
\C7;ANGLES\C7;
  7
standard
210
0
220
0
230
1
 50
0
 73
    1
 44
1
  0
MTEXT
  5
2C6
100
AcDbEntity
  8
CONTINUOUS
  6
ByLayer
 62
  256
370
   -1
100
AcDbMText
 10
12.8387210876
 20
1.23131188821
 30
0
 40
0.0732451420681
 41
0.6836213259689379
 71
    4
 72
    1
  1
\C7;+-.005\C7;
  7
standard
210
0
220
0
230
1
 50
0
 73
    1
 44
1
  0
MTEXT
  5
2C7
100
AcDbEntity
  8
CONTINUOUS
  6
ByLayer
 62
  256
370
   -1
100
AcDbMText
 10
12.8420705227
 20
2.40448810286
 30
0
 40
0.0536235889416
 41
0.4647377708272033
 71
    1
 72
    1
  1
\C7;DATE\C7;
  7
standard
210
0
220
0
230
1
 50
0
 73
    1
 44
1
  0
MTEXT
  5
2C8
100
AcDbEntity
  8
CONTINUOUS
  6
ByLayer
 62
  256
370
   -1
100
AcDbMText
 10
11.3787703324
 20
0.341427315776
 30
0
 40
0.07149811858879999
 41
0.4210444761340488
 71
    1
 72
    1
  1
\C7;3\C7;
  7
standard
210
0
220
0
230
1
 50
0
 73
    1
 44
1
  0
MTEXT
  5
2C9
100
AcDbEntity
  8
CONTINUOUS
  6
ByLayer
 62
  256
370
   -1
100
AcDbMText
 10
12.6790060209
 20
2.16159715427
 30
0
 40
0.0775536798368
 41
0.1852671240545778
 71
    4
 72
    1
  1
\C7;
  7
standard
210
0
220
0
230
1
 50
0
 73
    1
 44
1
  0
MTEXT
  5
2CA
100
AcDbEntity
  8
CONTINUOUS
  6
ByLayer
 62
  256
370
   -1
100
AcDbMText
 10
7.48511555553
 20
0.340394556307
 30
0
 40
0.07149811858879999
 41
0.4210444761340488
 71
    1
 72
    1
  1
\C7;5\C7;
  7
standard
210
0
220
0
230
1
 50
0
 73
    1
 44
1
  0
MTEXT
  5
2CB
100
AcDbEntity
  8
CONTINUOUS
  6
ByLayer
 62
  256
370
   -1
100
AcDbMText
 10
9.704144788860001
 20
1.0281170059
 30
0
 40
0.044686324118
 41
1.748973046086493
 71
    1
 72
    1
  1
\C7;ALL INFORMATION IS RELEASED UNDER THE OSE \C7;
  7
standard
210
0
220
0
230
1
 50
0
 73
    1
 44
1
  0
MTEXT
  5
2CC
100
AcDbEntity
  8
CONTINUOUS
  6
ByLayer
 62
  256
370
   -1
100
AcDbMText
 10
12.0746666615
 20
1.98029600729
 30
0
 40
0.0775536798368
 41
0.1852671240545778
 71
    4
 72
    1
  1
\C7;
  7
standard
210
0
220
0
230
1
 50
0
 73
    1
 44
1
  0
MTEXT
  5
2CD
100
AcDbEntity
  8
CONTINUOUS
  6
ByLayer
 62
  256
370
   -1
100
AcDbMText
 10
13.6876444178
 20
2.24976231733
 30
0
 40
0.137873208599
 41
1.953203730027009
 71
    4
 72
    1
  1
\C7;CEB PRESS 5\C7;
  7
standard
210
0
220
0
230
1
 50
0
 73
    1
 44
1
  0
MTEXT
  5
2CE
100
AcDbEntity
  8
CONTINUOUS
  6
ByLayer
 62
  256
370
   -1
100
AcDbMText
 10
12.6703334419
 20
1.79787658338
 30
0
 40
0.0775536798368
 41
0.1852671240545778
 71
    4
 72
    1
  1
\C7;
  7
standard
210
0
220
0
230
1
 50
0
 73
    1
 44
1
  0
MTEXT
  5
2CF
100
AcDbEntity
  8
CONTINUOUS
  6
ByLayer
 62
  256
370
   -1
100
AcDbMText
 10
5.51882523857
 20
0.343463549961
 30
0
 40
0.07149811858879999
 41
0.4210444761340488
 71
    1
 72
    1
  1
\C7;6\C7;
  7
standard
210
0
220
0
230
1
 50
0
 73
    1
 44
1
  0
MTEXT
  5
2D0
100
AcDbEntity
  8
CONTINUOUS
  6
ByLayer
 62
  256
370
   -1
100
AcDbMText
 10
7.47869468193
 20
10.8670932197
 30
0
 40
0.07149811858879999
 41
0.4210444761340488
 71
    1
 72
    1
  1
\C7;5\C7;
  7
standard
210
0
220
0
230
1
 50
0
 73
    1
 44
1
  0
MTEXT
  5
2D1
100
AcDbEntity
  8
CONTINUOUS
  6
ByLayer
 62
  256
370
   -1
100
AcDbMText
 10
1.50908886894
 20
10.8613063881
 30
0
 40
0.07149811858879999
 41
0.4210444761340444
 71
    1
 72
    1
  1
\C7;8\C7;
  7
standard
210
0
220
0
230
1
 50
0
 73
    1
 44
1
  0
MTEXT
  5
2D2
100
AcDbEntity
  8
CONTINUOUS
  6
ByLayer
 62
  256
370
   -1
100
AcDbMText
 10
9.704144788860001
 20
0.829376856762
 30
0
 40
0.044686324118
 41
1.163085713849056
 71
    1
 72
    1
  1
\C7;FURTHER INFORMATION GO TO:\C7;
  7
standard
210
0
220
0
230
1
 50
0
 73
    1
 44
1
  0
MTEXT
  5
2D3
100
AcDbEntity
  8
CONTINUOUS
  6
ByLayer
 62
  256
370
   -1
100
AcDbMText
 10
15.974082703
 20
1.11376163929
 30
0
 40
0.0804353834124
 41
0.625608537652
 71
    1
 72
    1
  1
\C7;REV\C7;
  7
standard
210
0
220
0
230
1
 50
0
 73
    1
 44
1
  0
MTEXT
  5
2D4
100
AcDbEntity
  8
CONTINUOUS
  6
ByLayer
 62
  256
370
   -1
100
AcDbMText
 10
13.352296777
 20
0.342247266662
 30
0
 40
0.07149811858879999
 41
0.4210444761340444
 71
    1
 72
    1
  1
\C7;2\C7;
  7
standard
210
0
220
0
230
1
 50
0
 73
    1
 44
1
  0
MTEXT
  5
2D5
100
AcDbEntity
  8
CONTINUOUS
  6
ByLayer
 62
  256
370
   -1
100
AcDbMText
 10
16.5114787596
 20
4.40889620723
 30
0
 40
0.07149811858879999
 41
0.4289887115328
 71
    1
 72
    1
  1
\C7;B\C7;
  7
standard
210
0
220
0
230
1
 50
0
 73
    1
 44
1
  0
MTEXT
  5
2D6
100
AcDbEntity
  8
CONTINUOUS
  6
ByLayer
 62
  256
370
   -1
100
AcDbMText
 10
0.428610479966
 20
9.487355494719999
 30
0
 40
0.07149811858879999
 41
0.4289887115328044
 71
    1
 72
    1
  1
\C7;D\C7;
  7
standard
210
0
220
0
230
1
 50
0
 73
    1
 44
1
  0
MTEXT
  5
2D7
100
AcDbEntity
  8
CONTINUOUS
  6
ByLayer
 62
  256
370
   -1
100
AcDbMText
 10
6.80009196124
 20
1.11928384135
 30
0
 40
0.0775536798368
 41
2.882411767267739
 71
    4
 72
    1
  3
\C7;PLEASE PROCEED AT YOUR OWN RISK!\C7;\PTHESE DRAWINGS ARE MEANT TO DOCUMENT\C7;\PPREVIOUS WORK AND PRESENT IDEAS ONLY\C7;\PTHEY ARE NOT MEANT TO BE A COMPLETE GUIDE.\C7;\PWORKING WITH ANY TOOLS, EQUIPMENT, \C7;\PHYDRAULICS, ELECTRONICS, ETC. MAY \
  1
C7;\PCAUSE SERIOUS INJURY OR DEATH.\C7;\P\C7;
  7
standard
210
0
220
0
230
1
 50
0
 73
    1
 44
1
  0
MTEXT
  5
2D8
100
AcDbEntity
  8
CONTINUOUS
  6
ByLayer
 62
  256
370
   -1
100
AcDbMText
 10
12.4654202198
 20
1.24618552801
 30
0
 40
0.0732451420681
 41
0.6266528821381935
 71
    4
 72
    1
  1
\C7;+-.03\C7;
  7
standard
210
0
220
0
230
1
 50
0
 73
    1
 44
1
  0
MTEXT
  5
2D9
100
AcDbEntity
  8
CONTINUOUS
  6
ByLayer
 62
  256
370
   -1
100
AcDbMText
 10
13.3602911836
 20
1.09582620642
 30
0
 40
0.0804353834124
 41
0.6434830502467259
 71
    1
 72
    1
  1
\C7;SIZE\C7;
  7
standard
210
0
220
0
230
1
 50
0
 73
    1
 44
1
  0
MTEXT
  5
2DA
100
AcDbEntity
  8
CONTINUOUS
  6
ByLayer
 62
  256
370
   -1
100
AcDbMText
 10
13.6651407077
 20
1.7171682523
 30
0
 40
0.08617075537420001
 41
1.201603311051355
 71
    4
 72
    1
  1
\C7;L-Q3\C7;\H0.95x;
  7
standard
210
0
220
0
230
1
 50
0
 73
    1
 44
1
  0
MTEXT
  5
2DB
100
AcDbEntity
  8
CONTINUOUS
  6
ByLayer
 62
  256
370
   -1
100
AcDbMText
 10
9.704144788860001
 20
0.9287469313309999
 30
0
 40
0.044686324118
 41
1.597536058797713
 71
    1
 72
    1
  1
\C7;LICENSE FOR DISTRIBUTIVE ECONOMICS. FOR \C7;
  7
standard
210
0
220
0
230
1
 50
0
 73
    1
 44
1
  0
MTEXT
  5
2DC
100
AcDbEntity
  8
CONTINUOUS
  6
ByLayer
 62
  256
370
   -1
100
AcDbMText
 10
14.9028603862
 20
0.524457871445
 30
0
 40
0.0775536798368
 41
0.1852671240545778
 71
    4
 72
    1
  1
\C7;
  7
standard
210
0
220
0
230
1
 50
0
 73
    1
 44
1
  0
MTEXT
  5
2DD
100
AcDbEntity
  8
CONTINUOUS
  6
ByLayer
 62
  256
370
   -1
100
AcDbMText
 10
11.6118920972
 20
0.574023856188
 30
0
 40
0.07149811858879999
 41
1.62459613904552
 71
    1
 72
    1
  1
\C7;THIRD ANGLE PROJECTION\C7;
  7
standard
210
0
220
0
230
1
 50
0
 73
    1
 44
1
  0
MTEXT
  5
2DE
100
AcDbEntity
  8
CONTINUOUS
  6
ByLayer
 62
  256
370
   -1
100
AcDbMText
 10
16.4820809255
 20
1.80243379177
 30
0
 40
0.07149811858879999
 41
0.4369329469315555
 71
    1
 72
    1
  1
\C7;A\C7;
  7
standard
210
0
220
0
230
1
 50
0
 73
    1
 44
1
  0
MTEXT
  5
2DF
100
AcDbEntity
  8
CONTINUOUS
  6
ByLayer
 62
  256
370
   -1
100
AcDbMText
 10
13.7021006186
 20
0.878810056551
 30
0
 40
0.155107359674
 41
2.684219029913954
 71
    4
 72
    1
  1
\C7;01-129-00-0 L-Q3\C7;
  7
standard
210
0
220
0
230
1
 50
0
 73
    1
 44
1
  0
MTEXT
  5
2E0
100
AcDbEntity
  8
CONTINUOUS
  6
ByLayer
 62
  256
370
   -1
100
AcDbMText
 10
13.4009949841
 20
10.8660102694
 30
0
 40
0.07149811858879999
 41
0.4210444761340444
 71
    1
 72
    1
  1
\C7;2\C7;
  7
standard
210
0
220
0
230
1
 50
0
 73
    1
 44
1
  0
MTEXT
  5
2E1
100
AcDbEntity
  8
CONTINUOUS
  6
ByLayer
 62
  256
370
   -1
100
AcDbMText
 10
11.5981115451
 20
2.02314188428
 30
0
 40
0.0536235889416
 41
0.5839013018085366
 71
    1
 72
    1
  1
\C7;CHECKED\C7;
  7
standard
210
0
220
0
230
1
 50
0
 73
    1
 44
1
  0
MTEXT
  5
2E2
100
AcDbEntity
  8
CONTINUOUS
  6
ByLayer
 62
  256
370
   -1
100
AcDbMText
 10
9.46429872495
 20
10.8654638765
 30
0
 40
0.07149811858879999
 41
0.4289887115328
 71
    1
 72
    1
  1
\C7;4\C7;
  7
standard
210
0
220
0
230
1
 50
0
 73
    1
 44
1
  0
MTEXT
  5
2E3
100
AcDbEntity
  8
CONTINUOUS
  6
ByLayer
 62
  256
370
   -1
100
AcDbMText
 10
10.194692211
 20
1.18799467965
 30
0
 40
0.044686324118
 41
0.8875200389811256
 71
    1
 72
    1
  1
\C7;LICENSE INFORMATION\C7;
  7
standard
210
0
220
0
230
1
 50
0
 73
    1
 44
1
  0
MTEXT
  5
2E4
100
AcDbEntity
  8
CONTINUOUS
  6
ByLayer
 62
  256
370
   -1
100
AcDbMText
 10
1.52677445274
 20
0.342770883823
 30
0
 40
0.07149811858879999
 41
0.4210444761340444
 71
    1
 72
    1
  1
\C7;8\C7;
  7
standard
210
0
220
0
230
1
 50
0
 73
    1
 44
1
  0
MTEXT
  5
2E5
100
AcDbEntity
  8
CONTINUOUS
  6
ByLayer
 62
  256
370
   -1
100
AcDbMText
 10
3.55742667537
 20
0.343069146781
 30
0
 40
0.07149811858879999
 41
0.4210444761340444
 71
    1
 72
    1
  1
\C7;7\C7;
  7
standard
210
0
220
0
230
1
 50
0
 73
    1
 44
1
  0
MTEXT
  5
2E6
100
AcDbEntity
  8
CONTINUOUS
  6
ByLayer
 62
  256
370
   -1
100
AcDbMText
 10
3.55098702735
 20
10.8584654291
 30
0
 40
0.07149811858879999
 41
0.4210444761340444
 71
    1
 72
    1
  1
\C7;7\C7;
  7
standard
210
0
220
0
230
1
 50
0
 73
    1
 44
1
  0
MTEXT
  5
2E7
100
AcDbEntity
  8
CONTINUOUS
  6
ByLayer
 62
  256
370
   -1
100
AcDbMText
 10
16.4913158734
 20
9.52080834587
 30
0
 40
0.07149811858879999
 41
0.4289887115328044
 71
    1
 72
    1
  1
\C7;D\C7;
  7
standard
210
0
220
0
230
1
 50
0
 73
    1
 44
1
  0
MTEXT
  5
2E8
100
AcDbEntity
  8
CONTINUOUS
  6
ByLayer
 62
  256
370
   -1
100
AcDbMText
 10
12.9507724147
 20
1.40810952244
 30
0
 40
0.0536235889416
 41
0.4528214177290666
 71
    1
 72
    1
  1
\C7;.XXX\C7;
  7
standard
210
0
220
0
230
1
 50
0
 73
    1
 44
1
  0
MTEXT
  5
2E9
100
AcDbEntity
  8
CONTINUOUS
  6
ByLayer
 62
  256
370
   -1
100
AcDbMText
 10
12.0671129602
 20
1.79144010769
 30
0
 40
0.0775536798368
 41
0.1852671240545778
 71
    4
 72
    1
  1
\C7;
  7
standard
210
0
220
0
230
1
 50
0
 73
    1
 44
1
  0
MTEXT
  5
2EA
100
AcDbEntity
  8
CONTINUOUS
  6
ByLayer
 62
  256
370
   -1
100
AcDbMText
 10
13.7070501432
 20
1.11292980944
 30
0
 40
0.0804353834124
 41
0.969693233360605
 71
    1
 72
    1
  1
\C7;DWG.  NO.\C7;
  7
standard
210
0
220
0
230
1
 50
0
 73
    1
 44
1
  0
MTEXT
  5
2EB
100
AcDbEntity
  8
CONTINUOUS
  6
ByLayer
 62
  256
370
   -1
100
AcDbMText
 10
15.4083167374
 20
0.331180143587
 30
0
 40
0.07149811858879999
 41
0.4051560053365333
 71
    1
 72
    1
  1
\C7;1\C7;
  7
standard
210
0
220
0
230
1
 50
0
 73
    1
 44
1
  0
MTEXT
  5
2EC
100
AcDbEntity
  8
CONTINUOUS
  6
ByLayer
 62
  256
370
   -1
100
AcDbMText
 10
12.685442046
 20
1.9640694266
 30
0
 40
0.0775536798368
 41
0.1852671240545778
 71
    4
 72
    1
  1
\C7;
  7
standard
210
0
220
0
230
1
 50
0
 73
    1
 44
1
  0
MTEXT
  5
2ED
100
AcDbEntity
  8
CONTINUOUS
  6
ByLayer
 62
  256
370
   -1
100
AcDbMText
 10
9.704144788860001
 20
0.630636707625
 30
0
 40
0.044686324118
 41
1.473407390165751
 71
    1
 72
    1
  1
\C7;OPENSOURCEECOLOGY.ORG/WIKI/LICENSE \C7;
  7
standard
210
0
220
0
230
1
 50
0
 73
    1
 44
1
  0
MTEXT
  5
2EE
100
AcDbEntity
  8
CONTINUOUS
  6
ByLayer
 62
  256
370
   -1
100
AcDbMText
 10
0.426401731406
 20
4.42305363331
 30
0
 40
0.07149811858879999
 41
0.4289887115328
 71
    1
 72
    1
  1
\C7;B\C7;
  7
standard
210
0
220
0
230
1
 50
0
 73
    1
 44
1
  0
MTEXT
  5
2EF
100
AcDbEntity
  8
CONTINUOUS
  6
ByLayer
 62
  256
370
   -1
100
AcDbMText
 10
12.1247775615
 20
1.40810952244
 30
0
 40
0.0536235889416
 41
0.3455742398458667
 71
    1
 72
    1
  1
\C7;.X\C7;
  7
standard
210
0
220
0
230
1
 50
0
 73
    1
 44
1
  0
MTEXT
  5
2F0
100
AcDbEntity
  8
CONTINUOUS
  6
ByLayer
 62
  256
370
   -1
100
AcDbMText
 10
12.0667861578
 20
1.25640681409
 30
0
 40
0.0732451420681
 41
0.5534077400700889
 71
    4
 72
    1
  1
\C7;+-.1\C7;
  7
standard
210
0
220
0
230
1
 50
0
 73
    1
 44
1
  0
MTEXT
  5
2F1
100
AcDbEntity
  8
CONTINUOUS
  6
ByLayer
 62
  256
370
   -1
100
AcDbMText
 10
13.3681812646
 20
1.00046194544
 30
0
 40
0.205557090943
 41
1.233342545658
 71
    1
 72
    1
  1
\C7;B\C7;
  7
standard
210
0
220
0
230
1
 50
0
 73
    1
 44
1
  0
MTEXT
  5
2F2
100
AcDbEntity
  8
CONTINUOUS
  6
ByLayer
 62
  256
370
   -1
100
AcDbMText
 10
5.49868768611
 20
10.8665566623
 30
0
 40
0.07149811858879999
 41
0.4210444761340488
 71
    1
 72
    1
  1
\C7;6\C7;
  7
standard
210
0
220
0
230
1
 50
0
 73
    1
 44
1
  0
MTEXT
  5
2F3
100
AcDbEntity
  8
CONTINUOUS
  6
ByLayer
 62
  256
370
   -1
100
AcDbMText
 10
0.427314415038
 20
6.9401519559
 30
0
 40
0.07149811858879999
 41
0.4210444761340444
 71
    1
 72
    1
  1
\C7;C\C7;
  7
standard
210
0
220
0
230
1
 50
0
 73
    1
 44
1
  0
MTEXT
  5
2F4
100
AcDbEntity
  8
CONTINUOUS
  6
ByLayer
 62
  256
370
   -1
100
AcDbMText
 10
13.2990559431
 20
2.04849907575
 30
0
 40
0.0804353834124
 41
1.117158085897531
 71
    1
 72
    1
  1
\C7;DESCRIPTION:\C7;
  7
standard
210
0
220
0
230
1
 50
0
 73
    1
 44
1
  0
MTEXT
  5
2F5
100
AcDbEntity
  8
CONTINUOUS
  6
ByLayer
 62
  256
370
   -1
100
AcDbMText
 10
13.3235206706
 20
0.587696530819
 30
0
 40
0.0804353834124
 41
0.7775420226007259
 71
    1
 72
    1
  1
\C7;SCALE:\C7;
  7
standard
210
0
220
0
230
1
 50
0
 73
    1
 44
1
  0
MTEXT
  5
2F6
100
AcDbEntity
  8
CONTINUOUS
  6
ByLayer
 62
  256
370
   -1
100
AcDbMText
 10
14.3543842928
 20
0.583894128255
 30
0
 40
0.0804353834124
 41
0.8401028934184001
 71
    1
 72
    1
  1
\C7;WEIGHT:\C7;
  7
standard
210
0
220
0
230
1
 50
0
 73
    1
 44
1
  0
MTEXT
  5
2F7
100
AcDbEntity
  8
CONTINUOUS
  6
ByLayer
 62
  256
370
   -1
100
AcDbMText
 10
0.426009949526
 20
1.7856582291
 30
0
 40
0.07149811858879999
 41
0.4369329469315555
 71
    1
 72
    1
  1
\C7;A\C7;
  7
standard
210
0
220
0
230
1
 50
0
 73
    1
 44
1
  0
MTEXT
  5
2F8
100
AcDbEntity
  8
CONTINUOUS
  6
ByLayer
 62
  256
370
   -1
100
AcDbMText
 10
15.852709192
 20
0.848986032441
 30
0
 40
0.155107359674
 41
0.3705342481101112
 71
    4
 72
    1
  1
\C7;
  7
standard
210
0
220
0
230
1
 50
0
 73
    1
 44
1
  0
MTEXT
  5
2F9
100
AcDbEntity
  8
CONTINUOUS
  6
ByLayer
 62
  256
370
   -1
100
AcDbMText
 10
15.4273970005
 20
10.8598767883
 30
0
 40
0.07149811858879999
 41
0.4051560053365333
 71
    1
 72
    1
  1
\C7;1\C7;
  7
standard
210
0
220
0
230
1
 50
0
 73
    1
 44
1
  0
MTEXT
  5
2FA
100
AcDbEntity
  8
CONTINUOUS
  6
ByLayer
 62
  256
370
   -1
100
AcDbMText
 10
12.0671141617
 20
2.16915160652
 30
0
 40
0.0732451420681
 41
0.5696844383074444
 71
    4
 72
    1
  1
\C7;RHB\C7;
  7
standard
210
0
220
0
230
1
 50
0
 73
    1
 44
1
  0
MTEXT
  5
2FB
100
AcDbEntity
  8
CONTINUOUS
  6
ByLayer
 62
  256
370
   -1
100
AcDbMText
 10
9.47012493161
 20
0.343531883398
 30
0
 40
0.07149811858879999
 41
0.4289887115328
 71
    1
 72
    1
  1
\C7;4\C7;
  7
standard
210
0
220
0
230
1
 50
0
 73
    1
 44
1
  0
MTEXT
  5
2FC
100
AcDbEntity
  8
CONTINUOUS
  6
ByLayer
 62
  256
370
   -1
100
AcDbMText
 10
16.4711826244
 20
6.93488774165
 30
0
 40
0.07149811858879999
 41
0.4210444761340444
 71
    1
 72
    1
  1
\C7;C\C7;
  7
standard
210
0
220
0
230
1
 50
0
 73
    1
 44
1
  0
MTEXT
  5
2FD
100
AcDbEntity
  8
CONTINUOUS
  6
ByLayer
 62
  256
370
   -1
100
AcDbMText
 10
13.2990559431
 20
2.44278324028
 30
0
 40
0.0804353834124
 41
0.9026637471836051
 71
    1
 72
    1
  1
\C7;PROJECT:\C7;
  7
standard
210
0
220
0
230
1
 50
0
 73
    1
 44
1
  0
MTEXT
  5
2FE
100
AcDbEntity
  8
CONTINUOUS
  6
ByLayer
 62
  256
370
   -1
100
AcDbMText
 10
12.5359721151
 20
1.40810952244
 30
0
 40
0.0536235889416
 41
0.3991978287874667
 71
    1
 72
    1
  1
\C7;.XX\C7;
  7
standard
210
0
220
0
230
1
 50
0
 73
    1
 44
1
  0
MTEXT
  5
2FF
100
AcDbEntity
  8
CONTINUOUS
  6
ByLayer
 62
  256
370
   -1
100
AcDbMText
 10
12.1967072781
 20
2.41539617384
 30
0
 40
0.0536235889416
 41
0.4706959473762666
 71
    1
 72
    1
  1
\C7;NAME\C7;
  7
standard
210
0
220
0
230
1
 50
0
 73
    1
 44
1
  0
MTEXT
  5
300
100
AcDbEntity
  8
CONTINUOUS
  6
ByLayer
 62
  256
370
   -1
100
AcDbMText
 10
11.5952182844
 20
1.84062215402
 30
0
 40
0.0536235889416
 41
0.4885704770234667
 71
    1
 72
    1
  1
\C7;APPR.\C7;
  7
standard
210
0
220
0
230
1
 50
0
 73
    1
 44
1
  0
ENDBLK
  5
80
330
7E
100
AcDbEntity
  8
0
100
AcDbBlockEnd
  0
BLOCK
  5
82
330
81
100
AcDbEntity
  8
0
100
AcDbBlockBegin
  2
BLOCK19
 70
    0
 10
0
 20
0
  3
BLOCK19
  1

  0
CIRCLE
  5
301
100
AcDbEntity
  8
0
  6
ByLayer
 62
  256
370
   -1
100
AcDbCircle
 10
12.5727822224
 20
0.77973765604
 40
0.0787401574803
  0
CIRCLE
  5
302
100
AcDbEntity
  8
0
  6
ByLayer
 62
  256
370
   -1
100
AcDbCircle
 10
12.5727822224
 20
0.77973765604
 40
0.157480314961
  0
LINE
  5
303
100
AcDbEntity
  8
0
  6
ByLayer
 62
  256
370
   -1
100
AcDbLine
 10
12.8090026948
 20
0.85847781352
 11
12.8090026948
 21
0.700997498559
  0
LINE
  5
304
100
AcDbEntity
  8
0
  6
ByLayer
 62
  256
370
   -1
100
AcDbLine
 10
12.8090026948
 20
0.700997498559
 11
13.1239633247
 21
0.622257341079
  0
LINE
  5
305
100
AcDbEntity
  8
0
  6
ByLayer
 62
  256
370
   -1
100
AcDbLine
 10
13.1239633247
 20
0.622257341079
 11
13.1239633247
 21
0.937217971
  0
LINE
  5
306
100
AcDbEntity
  8
0
  6
ByLayer
 62
  256
370
   -1
100
AcDbLine
 10
13.1239633247
 20
0.937217971
 11
12.8090026948
 21
0.85847781352
  0
LINE
  5
307
100
AcDbEntity
  8
0
  6
ByLayer
 62
  256
370
   -1
100
AcDbLine
 10
12.3365617499
 20
0.77973765604
 11
13.2027034822
 21
0.77973765604
  0
LINE
  5
308
100
AcDbEntity
  8
0
  6
ByLayer
 62
  256
370
   -1
100
AcDbLine
 10
12.5727822224
 20
1.01595812848
 11
12.5727822224
 21
0.543517183599
  0
ENDBLK
  5
83
330
81
100
AcDbEntity
  8
0
100
AcDbBlockEnd
  0
BLOCK
  5
85
330
84
100
AcDbEntity
  8
0
100
AcDbBlockBegin
  2
BLOCK20
 70
    0
 10
0
 20
0
  3
BLOCK20
  1

  0
MTEXT
  5
309
100
AcDbEntity
  8
0
  6
ByLayer
 62
  256
370
   -1
100
AcDbMText
 10
0
 20
0.112491480021
 30
0
 40
0.0536235889416
 41
1.379317825635672
 71
    1
 72
    1
  1
\C7;UNLESS OTHERWISE SPECIFIED\C7;
  7
standard
210
0
220
0
230
1
 50
0
 73
    1
 44
1
  0
MTEXT
  5
30A
100
AcDbEntity
  8
0
  6
ByLayer
 62
  256
370
   -1
100
AcDbMText
 10
0
 20
0.00312140263981
 30
0
 40
0.0536235889416
 41
1.304840630140655
 71
    1
 72
    1
  1
\C7; DIMENSIONS ARE IN INCHES\C7;
  7
standard
210
0
220
0
230
1
 50
0
 73
    1
 44
1
  0
ENDBLK
  5
86
330
84
100
AcDbEntity
  8
0
100
AcDbBlockEnd
  0
BLOCK
  5
88
330
87
100
AcDbEntity
  8
0
100
AcDbBlockBegin
  2
L-Q3
 70
    0
 10
0
 20
0
  3
L-Q3
  1

  0
LINE
  5
30B
100
AcDbEntity
  8
VISIBLE
  6
ByLayer
 62
  256
370
   -1
100
AcDbLine
 10
4.1214547345
 20
5.50838666591
 11
4.1214547345
 21
5.57088666591
  0
LINE
  5
30C
100
AcDbEntity
  8
VISIBLE
  6
ByLayer
 62
  256
370
   -1
100
AcDbLine
 10
9.1527047345
 20
5.50838666591
 11
9.1527047345
 21
5.57088666591
  0
LINE
  5
30D
100
AcDbEntity
  8
VISIBLE
  6
ByLayer
 62
  256
370
   -1
100
AcDbLine
 10
9.1527047345
 20
5.57088666591
 11
4.1214547345
 21
5.57088666591
  0
LINE
  5
30E
100
AcDbEntity
  8
VISIBLE
  6
ByLayer
 62
  256
370
   -1
100
AcDbLine
 10
4.1214547345
 20
5.50838666591
 11
9.1527047345
 21
5.50838666591
  0
DIMENSION
  5
30F
100
AcDbEntity
  8
DIMENSIONS
  6
ByLayer
 62
  256
370
   -1
100
AcDbDimension
 10
0
 20
0
 30
0
 11
7.14778563732
 21
10.6061702727
 31
0
 70
   32
  1
<>
 71
    5
 72
    0
  3
Standard
 53
0
210
0
220
0
230
1
100
AcDbAlignedDimension
 13
4.1214547345
 23
5.50838666591
 33
0
 14
4.1214547345
 24
5.57088666591
 34
0
 50
90
100
AcDbRotatedDimension
  0
LINE
  5
310
100
AcDbEntity
  8
VISIBLE
  6
ByLayer
 62
  256
370
   -1
100
AcDbLine
 10
4.1214547345
 20
7.10039785903
 11
9.1527047345
 21
7.10039785903
  0
LINE
  5
311
100
AcDbEntity
  8
VISIBLE
  6
ByLayer
 62
  256
370
   -1
100
AcDbLine
 10
4.1214547345
 20
6.13164785903
 11
4.1214547345
 21
7.10039785903
  0
LINE
  5
312
100
AcDbEntity
  8
VISIBLE
  6
ByLayer
 62
  256
370
   -1
100
AcDbLine
 10
9.1527047345
 20
7.10039785903
 11
9.1527047345
 21
6.13164785903
  0
LINE
  5
313
100
AcDbEntity
  8
VISIBLE
  6
ByLayer
 62
  256
370
   -1
100
AcDbLine
 10
9.1527047345
 20
6.13164785903
 11
4.1214547345
 21
6.13164785903
  0
DIMENSION
  5
314
100
AcDbEntity
  8
DIMENSIONS
  6
ByLayer
 62
  256
370
   -1
100
AcDbDimension
 10
0
 20
0
 30
0
 11
9.848653778319999
 21
14.0901143964
 31
0
 70
   32
  1
<>
 71
    5
 72
    0
  3
Standard
 53
0
210
0
220
0
230
1
100
AcDbAlignedDimension
 13
4.1214547345
 23
7.10039785903
 33
0
 14
9.1527047345
 24
7.10039785903
 34
0
100
AcDbRotatedDimension
  0
DIMENSION
  5
315
100
AcDbEntity
  8
DIMENSIONS
  6
ByLayer
 62
  256
370
   -1
100
AcDbDimension
 10
0
 20
0
 30
0
 11
7.38750782163
 21
12.7476707181
 31
0
 70
   32
  1
<>
 71
    5
 72
    0
  3
Standard
 53
0
210
0
220
0
230
1
100
AcDbAlignedDimension
 13
4.1214547345
 23
6.13164785903
 33
0
 14
4.1214547345
 24
7.10039785903
 34
0
 50
90
100
AcDbRotatedDimension
  0
LINE
  5
316
100
AcDbEntity
  8
VISIBLE
  6
ByLayer
 62
  256
370
   -1
100
AcDbLine
 10
9.71346571314
 20
5.50838666591
 11
9.71346571314
 21
5.57088666591
  0
LINE
  5
317
100
AcDbEntity
  8
VISIBLE
  6
ByLayer
 62
  256
370
   -1
100
AcDbLine
 10
9.71346571314
 20
5.50838666591
 11
10.6822157131
 21
5.50838666591
  0
LINE
  5
318
100
AcDbEntity
  8
VISIBLE
  6
ByLayer
 62
  256
370
   -1
100
AcDbLine
 10
10.6822157131
 20
5.57088666591
 11
9.71346571314
 21
5.57088666591
  0
LINE
  5
319
100
AcDbEntity
  8
VISIBLE
  6
ByLayer
 62
  256
370
   -1
100
AcDbLine
 10
10.6822157131
 20
5.50838666591
 11
10.6822157131
 21
5.57088666591
  0
LINE
  5
31A
100
AcDbEntity
  8
VISIBLE
  6
ByLayer
 62
  256
370
   -1
100
AcDbLine
 10
10.9030471924
 20
8.12198695877
 11
14.4606781852
 21
6.06798774738
  0
LINE
  5
31B
100
AcDbEntity
  8
VISIBLE
  6
ByLayer
 62
  256
370
   -1
100
AcDbLine
 10
10.2180374981
 20
7.72649642739
 11
10.9030471924
 21
8.12198695877
  0
LINE
  5
31C
100
AcDbEntity
  8
VISIBLE
  6
ByLayer
 62
  256
370
   -1
100
AcDbLine
 10
10.2180374981
 20
7.67546539108
 11
10.2180374981
 21
7.72649642739
  0
LINE
  5
31D
100
AcDbEntity
  8
VISIBLE
  6
ByLayer
 62
  256
370
   -1
100
AcDbLine
 10
13.775668491
 20
5.62146617968
 11
13.775668491
 21
5.67249721599
  0
LINE
  5
31E
100
AcDbEntity
  8
VISIBLE
  6
ByLayer
 62
  256
370
   -1
100
AcDbLine
 10
13.775668491
 20
5.62146617968
 11
14.4606781852
 21
6.01695671107
  0
LINE
  5
31F
100
AcDbEntity
  8
VISIBLE
  6
ByLayer
 62
  256
370
   -1
100
AcDbLine
 10
14.4606781852
 20
6.06798774738
 11
13.775668491
 21
5.67249721599
  0
LINE
  5
320
100
AcDbEntity
  8
VISIBLE
  6
ByLayer
 62
  256
370
   -1
100
AcDbLine
 10
14.4606781852
 20
6.01695671107
 11
14.4606781852
 21
6.06798774738
  0
LINE
  5
321
100
AcDbEntity
  8
VISIBLE
  6
ByLayer
 62
  256
370
   -1
100
AcDbLine
 10
13.775668491
 20
5.67249721599
 11
10.2180374981
 21
7.72649642739
  0
LINE
  5
322
100
AcDbEntity
  8
VISIBLE
  6
ByLayer
 62
  256
370
   -1
100
AcDbLine
 10
10.2180374981
 20
7.67546539108
 11
13.775668491
 21
5.62146617968
  0
LINE
  5
323
100
AcDbEntity
  8
HIDDEN
  6
ByLayer
 62
  256
370
   -1
100
AcDbLine
 10
10.9030471924
 20
8.12198695877
 11
10.9030471924
 21
8.07095592247
  0
LINE
  5
324
100
AcDbEntity
  8
HIDDEN
  6
ByLayer
 62
  256
370
   -1
100
AcDbLine
 10
14.4606781852
 20
6.01695671107
 11
10.9030471924
 21
8.07095592247
  0
LINE
  5
325
100
AcDbEntity
  8
HIDDEN
  6
ByLayer
 62
  256
370
   -1
100
AcDbLine
 10
10.9030471924
 20
8.07095592247
 11
10.2180374981
 21
7.67546539108
  0
INSERT
  5
326
100
AcDbEntity
  8
CONTINUOUS
  6
ByLayer
 62
  256
370
   -1
100
AcDbBlockReference
  2
BLOCK18
 10
0
 20
0
 30
0
 41
1
 42
1
 43
0
 50
0
 70
    1
 71
    1
 44
0
 45
0
  0
ENDBLK
  5
89
330
87
100
AcDbEntity
  8
0
100
AcDbBlockEnd
  0
BLOCK
  5
8B
330
8A
100
AcDbEntity
  8
0
100
AcDbBlockBegin
  2
D5
 70
    0
 10
0
 20
0
  3
D5
  1

  0
MTEXT
  5
327
100
AcDbEntity
  8
DIMENSIONS
  6
ByLayer
 62
  256
370
   -1
100
AcDbMText
 10
8.41208630659
 20
8.869410236989999
 30
0
 40
0.135718939714
 41
0.6446649636415169
 71
    5
 72
    1
  1
54.64 %%D
  7
standard
210
0
220
0
230
1
 50
0
 73
    1
 44
1
  0
MTEXT
  5
328
100
AcDbEntity
  8
DIMENSIONS
  6
ByLayer
 62
  256
370
   -1
100
AcDbMText
 10
8.41208630659
 20
8.869410236989999
 30
0
 40
0.135718939714
 41
0
 71
    5
 72
    1
  1

  7
standard
210
0
220
0
230
1
 50
0
 73
    1
 44
1
  0
MTEXT
  5
329
100
AcDbEntity
  8
DIMENSIONS
  6
ByLayer
 62
  256
370
   -1
100
AcDbMText
 10
8.41208630659
 20
8.869410236989999
 30
0
 40
0.135718939714
 41
0
 71
    5
 72
    1
  1

  7
standard
210
0
220
0
230
1
 50
0
 73
    1
 44
1
  0
LWPOLYLINE
  5
32A
100
AcDbEntity
  8
DIMENSIONS
  6
ByLayer
 62
  256
370
   -1
100
AcDbPolyline
 90
    4
 70
    0
 43
0
 10
9.172462018779999
 20
6.29010059827
 10
9.15916863462
 20
6.34992982138
 10
9.184166442860001
 20
6.35026085473
 10
9.172462018779999
 20
6.29010059827
  0
ARC
  5
32B
100
AcDbEntity
  8
DIMENSIONS
  6
ByLayer
 62
  256
370
   -1
100
AcDbCircle
 10
4.41756958849
 20
6.29010059827
 40
4.75447652993
100
AcDbArc
 50
0.722236992476
 51
30.2973462947
  0
LWPOLYLINE
  5
32C
100
AcDbEntity
  8
DIMENSIONS
  6
ByLayer
 62
  256
370
   -1
100
AcDbPolyline
 90
    4
 70
    0
 43
0
 10
7.16944934609
 20
10.1677493476
 10
7.22528426607
 20
10.1424766012
 10
7.21054681993
 20
10.1222823525
 10
7.16944934609
 20
10.1677493476
  0
ARC
  5
32D
100
AcDbEntity
  8
DIMENSIONS
  6
ByLayer
 62
  256
370
   -1
100
AcDbCircle
 10
4.41756958849
 20
6.29010059827
 40
4.7544993413
100
AcDbArc
 50
35.4839168484
 51
53.9171401171
  0
LINE
  5
32E
100
AcDbEntity
  8
DIMENSIONS
  6
ByLayer
 62
  256
370
   -1
100
AcDbLine
 10
8.48006958849
 20
6.29010059827
 11
9.234962018779999
 21
6.29010059827
  0
LINE
  5
32F
100
AcDbEntity
  8
DIMENSIONS
  6
ByLayer
 62
  256
370
   -1
100
AcDbLine
 10
5.37040794303
 20
7.63273646149
 11
7.20562103396
 21
10.2187185442
  0
ENDBLK
  5
8C
330
8A
100
AcDbEntity
  8
0
100
AcDbBlockEnd
  0
BLOCK
  5
8E
330
8D
100
AcDbEntity
  8
0
100
AcDbBlockBegin
  2
D6
 70
    0
 10
0
 20
0
  3
D6
  1

  0
MTEXT
  5
330
100
AcDbEntity
  8
DIMENSIONS
  6
ByLayer
 62
  256
370
   -1
100
AcDbMText
 10
4.87590292182
 20
8.336904931259999
 30
0
 40
0.135718939714
 41
0.4222367013324529
 71
    5
 72
    1
  1
2.750
  7
standard
210
0
220
0
230
1
 50
0
 73
    1
 44
1
  0
MTEXT
  5
331
100
AcDbEntity
  8
DIMENSIONS
  6
ByLayer
 62
  256
370
   -1
100
AcDbMText
 10
4.87590292182
 20
8.336904931259999
 30
0
 40
0.135718939714
 41
0
 71
    5
 72
    1
  1

  7
standard
210
0
220
0
230
1
 50
0
 73
    1
 44
1
  0
MTEXT
  5
332
100
AcDbEntity
  8
DIMENSIONS
  6
ByLayer
 62
  256
370
   -1
100
AcDbMText
 10
4.87590292182
 20
8.336904931259999
 30
0
 40
0.135718939714
 41
0
 71
    5
 72
    1
  1

  7
standard
210
0
220
0
230
1
 50
0
 73
    1
 44
1
  0
LINE
  5
333
100
AcDbEntity
  8
DIMENSIONS
  6
ByLayer
 62
  256
370
   -1
100
AcDbLine
 10
4.41756958849
 20
6.35260059827
 11
4.41756958849
 21
8.399404931259999
  0
LINE
  5
334
100
AcDbEntity
  8
DIMENSIONS
  6
ByLayer
 62
  256
370
   -1
100
AcDbLine
 10
5.33423625516
 20
7.64426726494
 11
5.33423625516
 21
8.399404931259999
  0
LWPOLYLINE
  5
335
100
AcDbEntity
  8
DIMENSIONS
  6
ByLayer
 62
  256
370
   -1
100
AcDbPolyline
 90
    4
 70
    0
 43
0
 10
4.41756958849
 20
8.336904931259999
 10
4.47756958849
 20
8.34940493126
 10
4.47756958849
 20
8.32440493126
 10
4.41756958849
 20
8.336904931259999
  0
LINE
  5
336
100
AcDbEntity
  8
DIMENSIONS
  6
ByLayer
 62
  256
370
   -1
100
AcDbLine
 10
4.47756958849
 20
8.336904931259999
 11
4.56340292182
 21
8.336904951279999
  0
LWPOLYLINE
  5
337
100
AcDbEntity
  8
DIMENSIONS
  6
ByLayer
 62
  256
370
   -1
100
AcDbPolyline
 90
    4
 70
    0
 43
0
 10
5.33423625516
 20
8.336904931259999
 10
5.27423625516
 20
8.32440493126
 10
5.27423625516
 20
8.34940493126
 10
5.33423625516
 20
8.336904931259999
  0
LINE
  5
338
100
AcDbEntity
  8
DIMENSIONS
  6
ByLayer
 62
  256
370
   -1
100
AcDbLine
 10
5.27423625516
 20
8.336904931259999
 11
5.1884029018
 21
8.336904951279999
  0
ENDBLK
  5
8F
330
8D
100
AcDbEntity
  8
0
100
AcDbBlockEnd
  0
BLOCK
  5
91
330
90
100
AcDbEntity
  8
0
100
AcDbBlockBegin
  2
BLOCK21
 70
    0
 10
0
 20
0
  3
BLOCK21
  1

  0
LINE
  5
339
100
AcDbEntity
  8
CONTINUOUS
  6
ByLayer
 62
  256
370
   -1
100
AcDbLine
 10
0.626251604621
 20
10.6420731707
 11
16.3762516046
 21
10.6420731707
  0
LINE
  5
33A
100
AcDbEntity
  8
CONTINUOUS
  6
ByLayer
 62
  256
370
   -1
100
AcDbLine
 10
0.626251604621
 20
10.6420731707
 11
0.626251604621
 21
0.392073170732
  0
LINE
  5
33B
100
AcDbEntity
  8
CONTINUOUS
  6
ByLayer
 62
  256
370
   -1
100
AcDbLine
 10
16.3762516046
 20
0.392073170732
 11
0.626251604621
 21
0.392073170732
  0
LINE
  5
33C
100
AcDbEntity
  8
CONTINUOUS
  6
ByLayer
 62
  256
370
   -1
100
AcDbLine
 10
16.3762516046
 20
0.392073170732
 11
16.3762516046
 21
10.6420731707
  0
LINE
  5
33D
100
AcDbEntity
  8
CONTINUOUS
  6
ByLayer
 62
  256
370
   -1
100
AcDbLine
 10
16.3762516046
 20
8.0752921748
 11
16.5012516046
 21
8.0752921748
  0
LINE
  5
33E
100
AcDbEntity
  8
CONTINUOUS
  6
ByLayer
 62
  256
370
   -1
100
AcDbLine
 10
16.3762516046
 20
5.5127921748
 11
16.5012516046
 21
5.5127921748
  0
LINE
  5
33F
100
AcDbEntity
  8
CONTINUOUS
  6
ByLayer
 62
  256
370
   -1
100
AcDbLine
 10
16.3762516046
 20
5.5127921748
 11
16.4434330337
 21
5.53680182526
  0
LINE
  5
340
100
AcDbEntity
  8
CONTINUOUS
  6
ByLayer
 62
  256
370
   -1
100
AcDbLine
 10
16.3762516046
 20
5.5127921748
 11
16.4434330337
 21
5.49021364932
  0
LINE
  5
341
100
AcDbEntity
  8
CONTINUOUS
  6
ByLayer
 62
  256
370
   -1
100
AcDbLine
 10
16.4434330337
 20
5.53680182526
 11
16.4434330337
 21
5.49021364932
  0
LINE
  5
342
100
AcDbEntity
  8
CONTINUOUS
  6
ByLayer
 62
  256
370
   -1
100
AcDbLine
 10
16.3762516046
 20
5.5127921748
 11
16.4434330337
 21
5.52183033312
  0
LINE
  5
343
100
AcDbEntity
  8
CONTINUOUS
  6
ByLayer
 62
  256
370
   -1
100
AcDbLine
 10
16.3762516046
 20
5.5127921748
 11
16.4434330337
 21
5.50248405478
  0
LINE
  5
344
100
AcDbEntity
  8
CONTINUOUS
  6
ByLayer
 62
  256
370
   -1
100
AcDbLine
 10
16.3762516046
 20
2.9502921748
 11
16.5012516046
 21
2.9502921748
  0
LINE
  5
345
100
AcDbEntity
  8
CONTINUOUS
  6
ByLayer
 62
  256
370
   -1
100
AcDbLine
 10
0.626251604621
 20
2.95457317073
 11
0.501251604621
 21
2.95457317073
  0
LINE
  5
346
100
AcDbEntity
  8
CONTINUOUS
  6
ByLayer
 62
  256
370
   -1
100
AcDbLine
 10
0.626251604621
 20
5.51707317073
 11
0.559070175518
 21
5.50676505072
  0
LINE
  5
347
100
AcDbEntity
  8
CONTINUOUS
  6
ByLayer
 62
  256
370
   -1
100
AcDbLine
 10
0.626251604621
 20
5.51707317073
 11
0.559070175518
 21
5.52611132905
  0
LINE
  5
348
100
AcDbEntity
  8
CONTINUOUS
  6
ByLayer
 62
  256
370
   -1
100
AcDbLine
 10
0.559070175518
 20
5.5410828212
 11
0.559070175518
 21
5.49449464526
  0
LINE
  5
349
100
AcDbEntity
  8
CONTINUOUS
  6
ByLayer
 62
  256
370
   -1
100
AcDbLine
 10
0.626251604621
 20
5.51707317073
 11
0.559070175518
 21
5.49449464526
  0
LINE
  5
34A
100
AcDbEntity
  8
CONTINUOUS
  6
ByLayer
 62
  256
370
   -1
100
AcDbLine
 10
0.626251604621
 20
5.51707317073
 11
0.559070175518
 21
5.5410828212
  0
LINE
  5
34B
100
AcDbEntity
  8
CONTINUOUS
  6
ByLayer
 62
  256
370
   -1
100
AcDbLine
 10
0.626251604621
 20
5.51707317073
 11
0.501251604621
 21
5.51707317073
  0
LINE
  5
34C
100
AcDbEntity
  8
CONTINUOUS
  6
ByLayer
 62
  256
370
   -1
100
AcDbLine
 10
0.626251604621
 20
8.079573170730001
 11
0.501251604621
 21
8.079573170730001
  0
LINE
  5
34D
100
AcDbEntity
  8
CONTINUOUS
  6
ByLayer
 62
  256
370
   -1
100
AcDbLine
 10
9.54980206352
 20
2.44962614087
 11
16.3762516046
 21
2.44962614087
  0
LINE
  5
34E
100
AcDbEntity
  8
CONTINUOUS
  6
ByLayer
 62
  256
370
   -1
100
AcDbLine
 10
11.5513364013
 20
2.44962614087
 11
11.5513364013
 21
0.392073170732
  0
LINE
  5
34F
100
AcDbEntity
  8
CONTINUOUS
  6
ByLayer
 62
  256
370
   -1
100
AcDbLine
 10
13.2432004658
 20
2.44962614087
 11
13.2432004658
 21
0.392073170732
  0
LINE
  5
350
100
AcDbEntity
  8
CONTINUOUS
  6
ByLayer
 62
  256
370
   -1
100
AcDbLine
 10
13.2432004658
 20
0.604959010098
 11
16.3762516046
 21
0.604959010098
  0
LINE
  5
351
100
AcDbEntity
  8
CONTINUOUS
  6
ByLayer
 62
  256
370
   -1
100
AcDbLine
 10
13.2432004658
 20
1.11193624566
 11
16.3762516046
 21
1.11193624566
  0
LINE
  5
352
100
AcDbEntity
  8
CONTINUOUS
  6
ByLayer
 62
  256
370
   -1
100
AcDbLine
 10
13.2432004658
 20
2.07462614087
 11
16.3762516046
 21
2.07462614087
  0
LINE
  5
353
100
AcDbEntity
  8
CONTINUOUS
  6
ByLayer
 62
  256
370
   -1
100
AcDbLine
 10
13.6596632587
 20
1.11193624566
 11
13.6596632587
 21
0.604959010098
  0
LINE
  5
354
100
AcDbEntity
  8
CONTINUOUS
  6
ByLayer
 62
  256
370
   -1
100
AcDbLine
 10
14.2861627554
 20
0.604959010098
 11
14.2861627554
 21
0.392073170732
  0
LINE
  5
355
100
AcDbEntity
  8
CONTINUOUS
  6
ByLayer
 62
  256
370
   -1
100
AcDbLine
 10
15.8043163091
 20
1.11193624566
 11
15.8043163091
 21
0.604959010098
  0
LINE
  5
356
100
AcDbEntity
  8
CONTINUOUS
  6
ByLayer
 62
  256
370
   -1
100
AcDbLine
 10
15.5189756774
 20
0.604959010098
 11
15.5189756774
 21
0.392073170732
  0
LINE
  5
357
100
AcDbEntity
  8
CONTINUOUS
  6
ByLayer
 62
  256
370
   -1
100
AcDbLine
 10
11.5513364013
 20
1.88712614087
 11
13.2432004658
 21
1.88712614087
  0
LINE
  5
358
100
AcDbEntity
  8
CONTINUOUS
  6
ByLayer
 62
  256
370
   -1
100
AcDbLine
 10
11.5513364013
 20
2.07462614087
 11
13.2432004658
 21
2.07462614087
  0
LINE
  5
359
100
AcDbEntity
  8
CONTINUOUS
  6
ByLayer
 62
  256
370
   -1
100
AcDbLine
 10
11.5513364013
 20
2.26212614087
 11
13.2432004658
 21
2.26212614087
  0
LINE
  5
35A
100
AcDbEntity
  8
CONTINUOUS
  6
ByLayer
 62
  256
370
   -1
100
AcDbLine
 10
11.5513364013
 20
1.11668767505
 11
13.2432004658
 21
1.11668767505
  0
LINE
  5
35B
100
AcDbEntity
  8
CONTINUOUS
  6
ByLayer
 62
  256
370
   -1
100
AcDbLine
 10
12.6404313067
 20
2.44962614087
 11
12.6404313067
 21
1.69962614087
  0
LINE
  5
35C
100
AcDbEntity
  8
CONTINUOUS
  6
ByLayer
 62
  256
370
   -1
100
AcDbLine
 10
12.0248227272
 20
2.44962614087
 11
12.0248227272
 21
1.69962614087
  0
LINE
  5
35D
100
AcDbEntity
  8
CONTINUOUS
  6
ByLayer
 62
  256
370
   -1
100
AcDbLine
 10
9.54980206352
 20
0.392073170732
 11
9.54980206352
 21
2.44962614087
  0
LINE
  5
35E
100
AcDbEntity
  8
CONTINUOUS
  6
ByLayer
 62
  256
370
   -1
100
AcDbLine
 10
11.9625579365
 20
1.42415459873
 11
11.9625579365
 21
1.11668767505
  0
LINE
  5
35F
100
AcDbEntity
  8
CONTINUOUS
  6
ByLayer
 62
  256
370
   -1
100
AcDbLine
 10
12.3737128259
 20
1.42415459873
 11
12.3737128259
 21
1.11668767505
  0
LINE
  5
360
100
AcDbEntity
  8
CONTINUOUS
  6
ByLayer
 62
  256
370
   -1
100
AcDbLine
 10
12.8181441331
 20
1.42415459873
 11
12.8181441331
 21
1.11668767505
  0
LINE
  5
361
100
AcDbEntity
  8
CONTINUOUS
  6
ByLayer
 62
  256
370
   -1
100
AcDbLine
 10
11.5513364013
 20
1.42415459873
 11
13.2432004658
 21
1.42415459873
  0
LINE
  5
362
100
AcDbEntity
  8
CONTINUOUS
  6
ByLayer
 62
  256
370
   -1
100
AcDbLine
 10
13.2432004658
 20
1.69962614087
 11
11.5513364013
 21
1.69962614087
  0
LINE
  5
363
100
AcDbEntity
  8
CONTINUOUS
  6
ByLayer
 62
  256
370
   -1
100
AcDbLine
 10
9.54980206352
 20
1.26508544565
 11
11.5513364013
 21
1.26508544565
  0
LINE
  5
364
100
AcDbEntity
  8
CONTINUOUS
  6
ByLayer
 62
  256
370
   -1
100
AcDbLine
 10
14.4072516046
 20
0.392073170732
 11
14.4072516046
 21
0.307273964934
  0
LINE
  5
365
100
AcDbEntity
  8
CONTINUOUS
  6
ByLayer
 62
  256
370
   -1
100
AcDbLine
 10
12.4385016046
 20
0.392073170732
 11
12.4385016046
 21
0.307273964934
  0
LINE
  5
366
100
AcDbEntity
  8
CONTINUOUS
  6
ByLayer
 62
  256
370
   -1
100
AcDbLine
 10
10.4697516046
 20
0.392073170732
 11
10.4697516046
 21
0.307273964934
  0
LINE
  5
367
100
AcDbEntity
  8
CONTINUOUS
  6
ByLayer
 62
  256
370
   -1
100
AcDbLine
 10
8.501001604620001
 20
0.392073170732
 11
8.501001604620001
 21
0.307273964934
  0
LINE
  5
368
100
AcDbEntity
  8
CONTINUOUS
  6
ByLayer
 62
  256
370
   -1
100
AcDbLine
 10
6.53225160462
 20
0.392073170732
 11
6.53225160462
 21
0.307273964934
  0
LINE
  5
369
100
AcDbEntity
  8
CONTINUOUS
  6
ByLayer
 62
  256
370
   -1
100
AcDbLine
 10
4.56350160462
 20
0.392073170732
 11
4.56350160462
 21
0.307273964934
  0
LINE
  5
36A
100
AcDbEntity
  8
CONTINUOUS
  6
ByLayer
 62
  256
370
   -1
100
AcDbLine
 10
2.59475160462
 20
0.392073170732
 11
2.59475160462
 21
0.307273964934
  0
LINE
  5
36B
100
AcDbEntity
  8
CONTINUOUS
  6
ByLayer
 62
  256
370
   -1
100
AcDbLine
 10
2.59475160462
 20
10.6420731707
 11
2.59475160462
 21
10.7268723765
  0
LINE
  5
36C
100
AcDbEntity
  8
CONTINUOUS
  6
ByLayer
 62
  256
370
   -1
100
AcDbLine
 10
4.56350160462
 20
10.6420731707
 11
4.56350160462
 21
10.7268723765
  0
LINE
  5
36D
100
AcDbEntity
  8
CONTINUOUS
  6
ByLayer
 62
  256
370
   -1
100
AcDbLine
 10
6.53225160462
 20
10.6420731707
 11
6.53225160462
 21
10.7268723765
  0
LINE
  5
36E
100
AcDbEntity
  8
CONTINUOUS
  6
ByLayer
 62
  256
370
   -1
100
AcDbLine
 10
8.501001604620001
 20
10.6420731707
 11
8.501001604620001
 21
10.7268723765
  0
LINE
  5
36F
100
AcDbEntity
  8
CONTINUOUS
  6
ByLayer
 62
  256
370
   -1
100
AcDbLine
 10
10.4697516046
 20
10.6420731707
 11
10.4697516046
 21
10.7268723765
  0
LINE
  5
370
100
AcDbEntity
  8
CONTINUOUS
  6
ByLayer
 62
  256
370
   -1
100
AcDbLine
 10
12.4385016046
 20
10.6420731707
 11
12.4385016046
 21
10.7268723765
  0
LINE
  5
371
100
AcDbEntity
  8
CONTINUOUS
  6
ByLayer
 62
  256
370
   -1
100
AcDbLine
 10
14.4072516046
 20
10.6420731707
 11
14.4072516046
 21
10.7268723765
  0
LINE
  5
372
100
AcDbEntity
  8
CONTINUOUS
  6
ByLayer
 62
  256
370
   -1
100
AcDbLine
 10
8.501001604620001
 20
10.6420731707
 11
8.48775048715
 21
10.6840054626
  0
LINE
  5
373
100
AcDbEntity
  8
CONTINUOUS
  6
ByLayer
 62
  256
370
   -1
100
AcDbLine
 10
8.501001604620001
 20
10.6420731707
 11
8.513556578459999
 21
10.6840054626
  0
LINE
  5
374
100
AcDbEntity
  8
CONTINUOUS
  6
ByLayer
 62
  256
370
   -1
100
AcDbLine
 10
8.513556578459999
 20
10.6840054626
 11
8.48775048715
 21
10.6840054626
  0
LINE
  5
375
100
AcDbEntity
  8
CONTINUOUS
  6
ByLayer
 62
  256
370
   -1
100
AcDbLine
 10
8.49396306469
 20
10.6840054626
 11
8.501001604620001
 21
10.6420731707
  0
LINE
  5
376
100
AcDbEntity
  8
CONTINUOUS
  6
ByLayer
 62
  256
370
   -1
100
AcDbLine
 10
8.505910329180001
 20
10.6840054626
 11
8.501001604620001
 21
10.6420731707
  0
LINE
  5
377
100
AcDbEntity
  8
CONTINUOUS
  6
ByLayer
 62
  256
370
   -1
100
AcDbLine
 10
8.501001604620001
 20
0.392073170732
 11
8.513556578459999
 21
0.3575
  0
LINE
  5
378
100
AcDbEntity
  8
CONTINUOUS
  6
ByLayer
 62
  256
370
   -1
100
AcDbLine
 10
8.513556578459999
 20
0.3575
 11
8.48775048715
 21
0.3575
  0
LINE
  5
379
100
AcDbEntity
  8
CONTINUOUS
  6
ByLayer
 62
  256
370
   -1
100
AcDbLine
 10
8.48775048715
 20
0.3575
 11
8.501001604620001
 21
0.392073170732
  0
INSERT
  5
37A
100
AcDbEntity
  8
0
  6
ByLayer
 62
  256
370
   -1
100
AcDbBlockReference
  2
BLOCK22
 10
-0.37302643846
 20
0.0594801148978
 30
0
 41
1
 42
1
 43
0
 50
0
 70
    1
 71
    1
 44
0
 45
0
  0
INSERT
  5
37B
100
AcDbEntity
  8
0
  6
ByLayer
 62
  256
370
   -1
100
AcDbBlockReference
  2
BLOCK23
 10
11.7562826626
 20
1.56976492583
 30
0
 41
1
 42
1
 43
0
 50
0
 70
    1
 71
    1
 44
0
 45
0
  0
MTEXT
  5
37C
100
AcDbEntity
  8
CONTINUOUS
  6
ByLayer
 62
  256
370
   -1
100
AcDbMText
 10
11.432728105
 20
10.8593303954
 30
0
 40
0.07149811858879999
 41
0.4210444761340488
 71
    1
 72
    1
  1
\C7;3\C7;
  7
standard
210
0
220
0
230
1
 50
0
 73
    1
 44
1
  0
MTEXT
  5
37D
100
AcDbEntity
  8
CONTINUOUS
  6
ByLayer
 62
  256
370
   -1
100
AcDbMText
 10
11.6511163186
 20
1.22914982593
 30
0
 40
0.0732451420681
 41
0.569684438307449
 71
    4
 72
    1
  1
\C7;+-.5\C7;
  7
standard
210
0
220
0
230
1
 50
0
 73
    1
 44
1
  0
MTEXT
  5
37E
100
AcDbEntity
  8
CONTINUOUS
  6
ByLayer
 62
  256
370
   -1
100
AcDbMText
 10
12.5359721151
 20
1.40810952244
 30
0
 40
0.0536235889416
 41
0.3991978287874667
 71
    1
 72
    1
  1
\C7;.XX\C7;
  7
standard
210
0
220
0
230
1
 50
0
 73
    1
 44
1
  0
MTEXT
  5
37F
100
AcDbEntity
  8
CONTINUOUS
  6
ByLayer
 62
  256
370
   -1
100
AcDbMText
 10
13.7070501432
 20
1.11292980944
 30
0
 40
0.0804353834124
 41
0.969693233360605
 71
    1
 72
    1
  1
\C7;DWG.  NO.\C7;
  7
standard
210
0
220
0
230
1
 50
0
 73
    1
 44
1
  0
MTEXT
  5
380
100
AcDbEntity
  8
CONTINUOUS
  6
ByLayer
 62
  256
370
   -1
100
AcDbMText
 10
16.5114787596
 20
4.40889620723
 30
0
 40
0.07149811858879999
 41
0.4289887115328
 71
    1
 72
    1
  1
\C7;B\C7;
  7
standard
210
0
220
0
230
1
 50
0
 73
    1
 44
1
  0
MTEXT
  5
381
100
AcDbEntity
  8
CONTINUOUS
  6
ByLayer
 62
  256
370
   -1
100
AcDbMText
 10
9.47012493161
 20
0.343531883398
 30
0
 40
0.07149811858879999
 41
0.4289887115328
 71
    1
 72
    1
  1
\C7;4\C7;
  7
standard
210
0
220
0
230
1
 50
0
 73
    1
 44
1
  0
MTEXT
  5
382
100
AcDbEntity
  8
CONTINUOUS
  6
ByLayer
 62
  256
370
   -1
100
AcDbMText
 10
12.0671141617
 20
2.16915160652
 30
0
 40
0.0732451420681
 41
0.5696844383074444
 71
    4
 72
    1
  1
\C7;RHB\C7;
  7
standard
210
0
220
0
230
1
 50
0
 73
    1
 44
1
  0
MTEXT
  5
383
100
AcDbEntity
  8
CONTINUOUS
  6
ByLayer
 62
  256
370
   -1
100
AcDbMText
 10
13.7021006186
 20
0.878810056551
 30
0
 40
0.155107359674
 41
2.701453180988843
 71
    4
 72
    1
  1
\C7;01-130-00-0 L-Q4\C7;
  7
standard
210
0
220
0
230
1
 50
0
 73
    1
 44
1
  0
MTEXT
  5
384
100
AcDbEntity
  8
CONTINUOUS
  6
ByLayer
 62
  256
370
   -1
100
AcDbMText
 10
0.427314415038
 20
6.9401519559
 30
0
 40
0.07149811858879999
 41
0.4210444761340444
 71
    1
 72
    1
  1
\C7;C\C7;
  7
standard
210
0
220
0
230
1
 50
0
 73
    1
 44
1
  0
MTEXT
  5
385
100
AcDbEntity
  8
CONTINUOUS
  6
ByLayer
 62
  256
370
   -1
100
AcDbMText
 10
9.704144788860001
 20
0.630636707625
 30
0
 40
0.044686324118
 41
1.473407390165751
 71
    1
 72
    1
  1
\C7;OPENSOURCEECOLOGY.ORG/WIKI/LICENSE \C7;
  7
standard
210
0
220
0
230
1
 50
0
 73
    1
 44
1
  0
MTEXT
  5
386
100
AcDbEntity
  8
CONTINUOUS
  6
ByLayer
 62
  256
370
   -1
100
AcDbMText
 10
16.4913158734
 20
9.52080834587
 30
0
 40
0.07149811858879999
 41
0.4289887115328044
 71
    1
 72
    1
  1
\C7;D\C7;
  7
standard
210
0
220
0
230
1
 50
0
 73
    1
 44
1
  0
MTEXT
  5
387
100
AcDbEntity
  8
CONTINUOUS
  6
ByLayer
 62
  256
370
   -1
100
AcDbMText
 10
12.0667861578
 20
1.25640681409
 30
0
 40
0.0732451420681
 41
0.5534077400700889
 71
    4
 72
    1
  1
\C7;+-.1\C7;
  7
standard
210
0
220
0
230
1
 50
0
 73
    1
 44
1
  0
MTEXT
  5
388
100
AcDbEntity
  8
CONTINUOUS
  6
ByLayer
 62
  256
370
   -1
100
AcDbMText
 10
13.3681812646
 20
1.00046194544
 30
0
 40
0.205557090943
 41
1.233342545658
 71
    1
 72
    1
  1
\C7;B\C7;
  7
standard
210
0
220
0
230
1
 50
0
 73
    1
 44
1
  0
MTEXT
  5
389
100
AcDbEntity
  8
CONTINUOUS
  6
ByLayer
 62
  256
370
   -1
100
AcDbMText
 10
9.46429872495
 20
10.8654638765
 30
0
 40
0.07149811858879999
 41
0.4289887115328
 71
    1
 72
    1
  1
\C7;4\C7;
  7
standard
210
0
220
0
230
1
 50
0
 73
    1
 44
1
  0
MTEXT
  5
38A
100
AcDbEntity
  8
CONTINUOUS
  6
ByLayer
 62
  256
370
   -1
100
AcDbMText
 10
15.4083167374
 20
0.331180143587
 30
0
 40
0.07149811858879999
 41
0.4051560053365333
 71
    1
 72
    1
  1
\C7;1\C7;
  7
standard
210
0
220
0
230
1
 50
0
 73
    1
 44
1
  0
MTEXT
  5
38B
100
AcDbEntity
  8
CONTINUOUS
  6
ByLayer
 62
  256
370
   -1
100
AcDbMText
 10
0.428610479966
 20
9.487355494719999
 30
0
 40
0.07149811858879999
 41
0.4289887115328044
 71
    1
 72
    1
  1
\C7;D\C7;
  7
standard
210
0
220
0
230
1
 50
0
 73
    1
 44
1
  0
MTEXT
  5
38C
100
AcDbEntity
  8
CONTINUOUS
  6
ByLayer
 62
  256
370
   -1
100
AcDbMText
 10
13.3235206706
 20
0.587696530819
 30
0
 40
0.0804353834124
 41
0.7775420226007259
 71
    1
 72
    1
  1
\C7;SCALE:\C7;
  7
standard
210
0
220
0
230
1
 50
0
 73
    1
 44
1
  0
MTEXT
  5
38D
100
AcDbEntity
  8
CONTINUOUS
  6
ByLayer
 62
  256
370
   -1
100
AcDbMText
 10
13.2990559431
 20
2.44278324028
 30
0
 40
0.0804353834124
 41
0.9026637471836051
 71
    1
 72
    1
  1
\C7;PROJECT:\C7;
  7
standard
210
0
220
0
230
1
 50
0
 73
    1
 44
1
  0
MTEXT
  5
38E
100
AcDbEntity
  8
CONTINUOUS
  6
ByLayer
 62
  256
370
   -1
100
AcDbMText
 10
12.8387210876
 20
1.23131188821
 30
0
 40
0.0732451420681
 41
0.6836213259689379
 71
    4
 72
    1
  1
\C7;+-.005\C7;
  7
standard
210
0
220
0
230
1
 50
0
 73
    1
 44
1
  0
MTEXT
  5
38F
100
AcDbEntity
  8
CONTINUOUS
  6
ByLayer
 62
  256
370
   -1
100
AcDbMText
 10
13.4009949841
 20
10.8660102694
 30
0
 40
0.07149811858879999
 41
0.4210444761340444
 71
    1
 72
    1
  1
\C7;2\C7;
  7
standard
210
0
220
0
230
1
 50
0
 73
    1
 44
1
  0
MTEXT
  5
390
100
AcDbEntity
  8
CONTINUOUS
  6
ByLayer
 62
  256
370
   -1
100
AcDbMText
 10
13.352296777
 20
0.342247266662
 30
0
 40
0.07149811858879999
 41
0.4210444761340444
 71
    1
 72
    1
  1
\C7;2\C7;
  7
standard
210
0
220
0
230
1
 50
0
 73
    1
 44
1
  0
MTEXT
  5
391
100
AcDbEntity
  8
CONTINUOUS
  6
ByLayer
 62
  256
370
   -1
100
AcDbMText
 10
15.852709192
 20
0.848986032441
 30
0
 40
0.155107359674
 41
0.3705342481101112
 71
    4
 72
    1
  1
\C7;
  7
standard
210
0
220
0
230
1
 50
0
 73
    1
 44
1
  0
MTEXT
  5
392
100
AcDbEntity
  8
CONTINUOUS
  6
ByLayer
 62
  256
370
   -1
100
AcDbMText
 10
14.9028603862
 20
0.524457871445
 30
0
 40
0.0775536798368
 41
0.1852671240545778
 71
    4
 72
    1
  1
\C7;
  7
standard
210
0
220
0
230
1
 50
0
 73
    1
 44
1
  0
MTEXT
  5
393
100
AcDbEntity
  8
CONTINUOUS
  6
ByLayer
 62
  256
370
   -1
100
AcDbMText
 10
12.0671129602
 20
1.79144010769
 30
0
 40
0.0775536798368
 41
0.1852671240545778
 71
    4
 72
    1
  1
\C7;
  7
standard
210
0
220
0
230
1
 50
0
 73
    1
 44
1
  0
MTEXT
  5
394
100
AcDbEntity
  8
CONTINUOUS
  6
ByLayer
 62
  256
370
   -1
100
AcDbMText
 10
13.6651407077
 20
1.7171682523
 30
0
 40
0.08617075537420001
 41
1.211177839426261
 71
    4
 72
    1
  1
\C7;L-Q4\C7;\H0.95x;
  7
standard
210
0
220
0
230
1
 50
0
 73
    1
 44
1
  0
MTEXT
  5
395
100
AcDbEntity
  8
CONTINUOUS
  6
ByLayer
 62
  256
370
   -1
100
AcDbMText
 10
6.80009196124
 20
1.11928384135
 30
0
 40
0.0775536798368
 41
2.882411767267739
 71
    4
 72
    1
  3
\C7;PLEASE PROCEED AT YOUR OWN RISK!\C7;\PTHESE DRAWINGS ARE MEANT TO DOCUMENT\C7;\PPREVIOUS WORK AND PRESENT IDEAS ONLY\C7;\PTHEY ARE NOT MEANT TO BE A COMPLETE GUIDE.\C7;\PWORKING WITH ANY TOOLS, EQUIPMENT, \C7;\PHYDRAULICS, ELECTRONICS, ETC. MAY \
  1
C7;\PCAUSE SERIOUS INJURY OR DEATH.\C7;\P\C7;
  7
standard
210
0
220
0
230
1
 50
0
 73
    1
 44
1
  0
MTEXT
  5
396
100
AcDbEntity
  8
CONTINUOUS
  6
ByLayer
 62
  256
370
   -1
100
AcDbMText
 10
10.194692211
 20
1.18799467965
 30
0
 40
0.044686324118
 41
0.8875200389811256
 71
    1
 72
    1
  1
\C7;LICENSE INFORMATION\C7;
  7
standard
210
0
220
0
230
1
 50
0
 73
    1
 44
1
  0
MTEXT
  5
397
100
AcDbEntity
  8
CONTINUOUS
  6
ByLayer
 62
  256
370
   -1
100
AcDbMText
 10
12.685442046
 20
1.9640694266
 30
0
 40
0.0775536798368
 41
0.1852671240545778
 71
    4
 72
    1
  1
\C7;
  7
standard
210
0
220
0
230
1
 50
0
 73
    1
 44
1
  0
MTEXT
  5
398
100
AcDbEntity
  8
CONTINUOUS
  6
ByLayer
 62
  256
370
   -1
100
AcDbMText
 10
1.52677445274
 20
0.342770883823
 30
0
 40
0.07149811858879999
 41
0.4210444761340444
 71
    1
 72
    1
  1
\C7;8\C7;
  7
standard
210
0
220
0
230
1
 50
0
 73
    1
 44
1
  0
MTEXT
  5
399
100
AcDbEntity
  8
CONTINUOUS
  6
ByLayer
 62
  256
370
   -1
100
AcDbMText
 10
16.4711826244
 20
6.93488774165
 30
0
 40
0.07149811858879999
 41
0.4210444761340444
 71
    1
 72
    1
  1
\C7;C\C7;
  7
standard
210
0
220
0
230
1
 50
0
 73
    1
 44
1
  0
MTEXT
  5
39A
100
AcDbEntity
  8
CONTINUOUS
  6
ByLayer
 62
  256
370
   -1
100
AcDbMText
 10
14.3543842928
 20
0.583894128255
 30
0
 40
0.0804353834124
 41
0.8401028934184001
 71
    1
 72
    1
  1
\C7;WEIGHT:\C7;
  7
standard
210
0
220
0
230
1
 50
0
 73
    1
 44
1
  0
MTEXT
  5
39B
100
AcDbEntity
  8
CONTINUOUS
  6
ByLayer
 62
  256
370
   -1
100
AcDbMText
 10
9.704144788860001
 20
0.829376856762
 30
0
 40
0.044686324118
 41
1.163085713849056
 71
    1
 72
    1
  1
\C7;FURTHER INFORMATION GO TO:\C7;
  7
standard
210
0
220
0
230
1
 50
0
 73
    1
 44
1
  0
MTEXT
  5
39C
100
AcDbEntity
  8
CONTINUOUS
  6
ByLayer
 62
  256
370
   -1
100
AcDbMText
 10
12.4654202198
 20
1.24618552801
 30
0
 40
0.0732451420681
 41
0.6266528821381935
 71
    4
 72
    1
  1
\C7;+-.03\C7;
  7
standard
210
0
220
0
230
1
 50
0
 73
    1
 44
1
  0
MTEXT
  5
39D
100
AcDbEntity
  8
CONTINUOUS
  6
ByLayer
 62
  256
370
   -1
100
AcDbMText
 10
12.1247775615
 20
1.40810952244
 30
0
 40
0.0536235889416
 41
0.3455742398458667
 71
    1
 72
    1
  1
\C7;.X\C7;
  7
standard
210
0
220
0
230
1
 50
0
 73
    1
 44
1
  0
MTEXT
  5
39E
100
AcDbEntity
  8
CONTINUOUS
  6
ByLayer
 62
  256
370
   -1
100
AcDbMText
 10
11.6118920972
 20
0.574023856188
 30
0
 40
0.07149811858879999
 41
1.62459613904552
 71
    1
 72
    1
  1
\C7;THIRD ANGLE PROJECTION\C7;
  7
standard
210
0
220
0
230
1
 50
0
 73
    1
 44
1
  0
MTEXT
  5
39F
100
AcDbEntity
  8
CONTINUOUS
  6
ByLayer
 62
  256
370
   -1
100
AcDbMText
 10
11.5952182844
 20
1.84062215402
 30
0
 40
0.0536235889416
 41
0.4885704770234667
 71
    1
 72
    1
  1
\C7;APPR.\C7;
  7
standard
210
0
220
0
230
1
 50
0
 73
    1
 44
1
  0
MTEXT
  5
3A0
100
AcDbEntity
  8
CONTINUOUS
  6
ByLayer
 62
  256
370
   -1
100
AcDbMText
 10
13.2990559431
 20
2.04849907575
 30
0
 40
0.0804353834124
 41
1.117158085897531
 71
    1
 72
    1
  1
\C7;DESCRIPTION:\C7;
  7
standard
210
0
220
0
230
1
 50
0
 73
    1
 44
1
  0
MTEXT
  5
3A1
100
AcDbEntity
  8
CONTINUOUS
  6
ByLayer
 62
  256
370
   -1
100
AcDbMText
 10
11.5981115451
 20
2.02314188428
 30
0
 40
0.0536235889416
 41
0.5839013018085366
 71
    1
 72
    1
  1
\C7;CHECKED\C7;
  7
standard
210
0
220
0
230
1
 50
0
 73
    1
 44
1
  0
MTEXT
  5
3A2
100
AcDbEntity
  8
CONTINUOUS
  6
ByLayer
 62
  256
370
   -1
100
AcDbMText
 10
12.8420705227
 20
2.40448810286
 30
0
 40
0.0536235889416
 41
0.4647377708272033
 71
    1
 72
    1
  1
\C7;DATE\C7;
  7
standard
210
0
220
0
230
1
 50
0
 73
    1
 44
1
  0
MTEXT
  5
3A3
100
AcDbEntity
  8
CONTINUOUS
  6
ByLayer
 62
  256
370
   -1
100
AcDbMText
 10
15.4273970005
 20
10.8598767883
 30
0
 40
0.07149811858879999
 41
0.4051560053365333
 71
    1
 72
    1
  1
\C7;1\C7;
  7
standard
210
0
220
0
230
1
 50
0
 73
    1
 44
1
  0
MTEXT
  5
3A4
100
AcDbEntity
  8
CONTINUOUS
  6
ByLayer
 62
  256
370
   -1
100
AcDbMText
 10
16.4820809255
 20
1.80243379177
 30
0
 40
0.07149811858879999
 41
0.4369329469315555
 71
    1
 72
    1
  1
\C7;A\C7;
  7
standard
210
0
220
0
230
1
 50
0
 73
    1
 44
1
  0
MTEXT
  5
3A5
100
AcDbEntity
  8
CONTINUOUS
  6
ByLayer
 62
  256
370
   -1
100
AcDbMText
 10
11.3787703324
 20
0.341427315776
 30
0
 40
0.07149811858879999
 41
0.4210444761340488
 71
    1
 72
    1
  1
\C7;3\C7;
  7
standard
210
0
220
0
230
1
 50
0
 73
    1
 44
1
  0
MTEXT
  5
3A6
100
AcDbEntity
  8
CONTINUOUS
  6
ByLayer
 62
  256
370
   -1
100
AcDbMText
 10
15.6390693244
 20
0.535415439155
 30
0
 40
0.0775536798368
 41
0.1852671240545778
 71
    4
 72
    1
  1
\C7;
  7
standard
210
0
220
0
230
1
 50
0
 73
    1
 44
1
  0
MTEXT
  5
3A7
100
AcDbEntity
  8
CONTINUOUS
  6
ByLayer
 62
  256
370
   -1
100
AcDbMText
 10
12.9507724147
 20
1.40810952244
 30
0
 40
0.0536235889416
 41
0.4528214177290666
 71
    1
 72
    1
  1
\C7;.XXX\C7;
  7
standard
210
0
220
0
230
1
 50
0
 73
    1
 44
1
  0
MTEXT
  5
3A8
100
AcDbEntity
  8
CONTINUOUS
  6
ByLayer
 62
  256
370
   -1
100
AcDbMText
 10
7.47869468193
 20
10.8670932197
 30
0
 40
0.07149811858879999
 41
0.4210444761340488
 71
    1
 72
    1
  1
\C7;5\C7;
  7
standard
210
0
220
0
230
1
 50
0
 73
    1
 44
1
  0
MTEXT
  5
3A9
100
AcDbEntity
  8
CONTINUOUS
  6
ByLayer
 62
  256
370
   -1
100
AcDbMText
 10
13.3602911836
 20
1.09582620642
 30
0
 40
0.0804353834124
 41
0.6434830502467259
 71
    1
 72
    1
  1
\C7;SIZE\C7;
  7
standard
210
0
220
0
230
1
 50
0
 73
    1
 44
1
  0
MTEXT
  5
3AA
100
AcDbEntity
  8
CONTINUOUS
  6
ByLayer
 62
  256
370
   -1
100
AcDbMText
 10
13.7722586084
 20
0.493252333694
 30
0
 40
0.0775536798368
 41
0.6635148163815112
 71
    4
 72
    1
  1
\C7;NONE\C7;
  7
standard
210
0
220
0
230
1
 50
0
 73
    1
 44
1
  0
MTEXT
  5
3AB
100
AcDbEntity
  8
CONTINUOUS
  6
ByLayer
 62
  256
370
   -1
100
AcDbMText
 10
9.704144788860001
 20
0.9287469313309999
 30
0
 40
0.044686324118
 41
1.597536058797713
 71
    1
 72
    1
  1
\C7;LICENSE FOR DISTRIBUTIVE ECONOMICS. FOR \C7;
  7
standard
210
0
220
0
230
1
 50
0
 73
    1
 44
1
  0
MTEXT
  5
3AC
100
AcDbEntity
  8
CONTINUOUS
  6
ByLayer
 62
  256
370
   -1
100
AcDbMText
 10
11.5941272892
 20
1.40810952244
 30
0
 40
0.0536235889416
 41
0.5541104076948838
 71
    1
 72
    1
  1
\C7;ANGLES\C7;
  7
standard
210
0
220
0
230
1
 50
0
 73
    1
 44
1
  0
MTEXT
  5
3AD
100
AcDbEntity
  8
CONTINUOUS
  6
ByLayer
 62
  256
370
   -1
100
AcDbMText
 10
11.5959805855
 20
2.21550209874
 30
0
 40
0.0536235889416
 41
0.5362358894160032
 71
    1
 72
    1
  1
\C7;DRAWN\C7;
  7
standard
210
0
220
0
230
1
 50
0
 73
    1
 44
1
  0
MTEXT
  5
3AE
100
AcDbEntity
  8
CONTINUOUS
  6
ByLayer
 62
  256
370
   -1
100
AcDbMText
 10
5.49868768611
 20
10.8665566623
 30
0
 40
0.07149811858879999
 41
0.4210444761340488
 71
    1
 72
    1
  1
\C7;6\C7;
  7
standard
210
0
220
0
230
1
 50
0
 73
    1
 44
1
  0
MTEXT
  5
3AF
100
AcDbEntity
  8
CONTINUOUS
  6
ByLayer
 62
  256
370
   -1
100
AcDbMText
 10
12.1967072781
 20
2.41539617384
 30
0
 40
0.0536235889416
 41
0.4706959473762666
 71
    1
 72
    1
  1
\C7;NAME\C7;
  7
standard
210
0
220
0
230
1
 50
0
 73
    1
 44
1
  0
MTEXT
  5
3B0
100
AcDbEntity
  8
CONTINUOUS
  6
ByLayer
 62
  256
370
   -1
100
AcDbMText
 10
7.48511555553
 20
0.340394556307
 30
0
 40
0.07149811858879999
 41
0.4210444761340488
 71
    1
 72
    1
  1
\C7;5\C7;
  7
standard
210
0
220
0
230
1
 50
0
 73
    1
 44
1
  0
MTEXT
  5
3B1
100
AcDbEntity
  8
CONTINUOUS
  6
ByLayer
 62
  256
370
   -1
100
AcDbMText
 10
1.50908886894
 20
10.8613063881
 30
0
 40
0.07149811858879999
 41
0.4210444761340444
 71
    1
 72
    1
  1
\C7;8\C7;
  7
standard
210
0
220
0
230
1
 50
0
 73
    1
 44
1
  0
MTEXT
  5
3B2
100
AcDbEntity
  8
CONTINUOUS
  6
ByLayer
 62
  256
370
   -1
100
AcDbMText
 10
5.51882523857
 20
0.343463549961
 30
0
 40
0.07149811858879999
 41
0.4210444761340488
 71
    1
 72
    1
  1
\C7;6\C7;
  7
standard
210
0
220
0
230
1
 50
0
 73
    1
 44
1
  0
MTEXT
  5
3B3
100
AcDbEntity
  8
CONTINUOUS
  6
ByLayer
 62
  256
370
   -1
100
AcDbMText
 10
12.6703334419
 20
1.79787658338
 30
0
 40
0.0775536798368
 41
0.1852671240545778
 71
    4
 72
    1
  1
\C7;
  7
standard
210
0
220
0
230
1
 50
0
 73
    1
 44
1
  0
MTEXT
  5
3B4
100
AcDbEntity
  8
CONTINUOUS
  6
ByLayer
 62
  256
370
   -1
100
AcDbMText
 10
12.0746666615
 20
1.98029600729
 30
0
 40
0.0775536798368
 41
0.1852671240545778
 71
    4
 72
    1
  1
\C7;
  7
standard
210
0
220
0
230
1
 50
0
 73
    1
 44
1
  0
MTEXT
  5
3B5
100
AcDbEntity
  8
CONTINUOUS
  6
ByLayer
 62
  256
370
   -1
100
AcDbMText
 10
13.6876444178
 20
2.24976231733
 30
0
 40
0.137873208599
 41
1.953203730027009
 71
    4
 72
    1
  1
\C7;CEB PRESS 5\C7;
  7
standard
210
0
220
0
230
1
 50
0
 73
    1
 44
1
  0
MTEXT
  5
3B6
100
AcDbEntity
  8
CONTINUOUS
  6
ByLayer
 62
  256
370
   -1
100
AcDbMText
 10
3.55098702735
 20
10.8584654291
 30
0
 40
0.07149811858879999
 41
0.4210444761340444
 71
    1
 72
    1
  1
\C7;7\C7;
  7
standard
210
0
220
0
230
1
 50
0
 73
    1
 44
1
  0
MTEXT
  5
3B7
100
AcDbEntity
  8
CONTINUOUS
  6
ByLayer
 62
  256
370
   -1
100
AcDbMText
 10
12.6790060209
 20
2.16159715427
 30
0
 40
0.0775536798368
 41
0.1852671240545778
 71
    4
 72
    1
  1
\C7;
  7
standard
210
0
220
0
230
1
 50
0
 73
    1
 44
1
  0
MTEXT
  5
3B8
100
AcDbEntity
  8
CONTINUOUS
  6
ByLayer
 62
  256
370
   -1
100
AcDbMText
 10
0.426009949526
 20
1.7856582291
 30
0
 40
0.07149811858879999
 41
0.4369329469315555
 71
    1
 72
    1
  1
\C7;A\C7;
  7
standard
210
0
220
0
230
1
 50
0
 73
    1
 44
1
  0
MTEXT
  5
3B9
100
AcDbEntity
  8
CONTINUOUS
  6
ByLayer
 62
  256
370
   -1
100
AcDbMText
 10
0.426401731406
 20
4.42305363331
 30
0
 40
0.07149811858879999
 41
0.4289887115328
 71
    1
 72
    1
  1
\C7;B\C7;
  7
standard
210
0
220
0
230
1
 50
0
 73
    1
 44
1
  0
MTEXT
  5
3BA
100
AcDbEntity
  8
CONTINUOUS
  6
ByLayer
 62
  256
370
   -1
100
AcDbMText
 10
15.974082703
 20
1.11376163929
 30
0
 40
0.0804353834124
 41
0.625608537652
 71
    1
 72
    1
  1
\C7;REV\C7;
  7
standard
210
0
220
0
230
1
 50
0
 73
    1
 44
1
  0
MTEXT
  5
3BB
100
AcDbEntity
  8
CONTINUOUS
  6
ByLayer
 62
  256
370
   -1
100
AcDbMText
 10
3.55742667537
 20
0.343069146781
 30
0
 40
0.07149811858879999
 41
0.4210444761340444
 71
    1
 72
    1
  1
\C7;7\C7;
  7
standard
210
0
220
0
230
1
 50
0
 73
    1
 44
1
  0
MTEXT
  5
3BC
100
AcDbEntity
  8
CONTINUOUS
  6
ByLayer
 62
  256
370
   -1
100
AcDbMText
 10
9.704144788860001
 20
1.0281170059
 30
0
 40
0.044686324118
 41
1.748973046086493
 71
    1
 72
    1
  1
\C7;ALL INFORMATION IS RELEASED UNDER THE OSE \C7;
  7
standard
210
0
220
0
230
1
 50
0
 73
    1
 44
1
  0
ENDBLK
  5
92
330
90
100
AcDbEntity
  8
0
100
AcDbBlockEnd
  0
BLOCK
  5
94
330
93
100
AcDbEntity
  8
0
100
AcDbBlockBegin
  2
BLOCK22
 70
    0
 10
0
 20
0
  3
BLOCK22
  1

  0
CIRCLE
  5
3BD
100
AcDbEntity
  8
0
  6
ByLayer
 62
  256
370
   -1
100
AcDbCircle
 10
12.5727822224
 20
0.77973765604
 40
0.0787401574803
  0
CIRCLE
  5
3BE
100
AcDbEntity
  8
0
  6
ByLayer
 62
  256
370
   -1
100
AcDbCircle
 10
12.5727822224
 20
0.77973765604
 40
0.157480314961
  0
LINE
  5
3BF
100
AcDbEntity
  8
0
  6
ByLayer
 62
  256
370
   -1
100
AcDbLine
 10
12.8090026948
 20
0.85847781352
 11
12.8090026948
 21
0.700997498559
  0
LINE
  5
3C0
100
AcDbEntity
  8
0
  6
ByLayer
 62
  256
370
   -1
100
AcDbLine
 10
12.8090026948
 20
0.700997498559
 11
13.1239633247
 21
0.622257341079
  0
LINE
  5
3C1
100
AcDbEntity
  8
0
  6
ByLayer
 62
  256
370
   -1
100
AcDbLine
 10
13.1239633247
 20
0.622257341079
 11
13.1239633247
 21
0.937217971
  0
LINE
  5
3C2
100
AcDbEntity
  8
0
  6
ByLayer
 62
  256
370
   -1
100
AcDbLine
 10
13.1239633247
 20
0.937217971
 11
12.8090026948
 21
0.85847781352
  0
LINE
  5
3C3
100
AcDbEntity
  8
0
  6
ByLayer
 62
  256
370
   -1
100
AcDbLine
 10
12.3365617499
 20
0.77973765604
 11
13.2027034822
 21
0.77973765604
  0
LINE
  5
3C4
100
AcDbEntity
  8
0
  6
ByLayer
 62
  256
370
   -1
100
AcDbLine
 10
12.5727822224
 20
1.01595812848
 11
12.5727822224
 21
0.543517183599
  0
ENDBLK
  5
95
330
93
100
AcDbEntity
  8
0
100
AcDbBlockEnd
  0
BLOCK
  5
97
330
96
100
AcDbEntity
  8
0
100
AcDbBlockBegin
  2
BLOCK23
 70
    0
 10
0
 20
0
  3
BLOCK23
  1

  0
MTEXT
  5
3C5
100
AcDbEntity
  8
0
  6
ByLayer
 62
  256
370
   -1
100
AcDbMText
 10
0
 20
0.112491480021
 30
0
 40
0.0536235889416
 41
1.379317825635672
 71
    1
 72
    1
  1
\C7;UNLESS OTHERWISE SPECIFIED\C7;
  7
standard
210
0
220
0
230
1
 50
0
 73
    1
 44
1
  0
MTEXT
  5
3C6
100
AcDbEntity
  8
0
  6
ByLayer
 62
  256
370
   -1
100
AcDbMText
 10
0
 20
0.00312140263981
 30
0
 40
0.0536235889416
 41
1.304840630140655
 71
    1
 72
    1
  1
\C7; DIMENSIONS ARE IN INCHES\C7;
  7
standard
210
0
220
0
230
1
 50
0
 73
    1
 44
1
  0
ENDBLK
  5
98
330
96
100
AcDbEntity
  8
0
100
AcDbBlockEnd
  0
BLOCK
  5
9A
330
99
100
AcDbEntity
  8
0
100
AcDbBlockBegin
  2
L-Q4
 70
    0
 10
0
 20
0
  3
L-Q4
  1

  0
LINE
  5
3C7
100
AcDbEntity
  8
VISIBLE
  6
ByLayer
 62
  256
370
   -1
100
AcDbLine
 10
8.41756958849
 20
5.62941693665
 11
8.41756958849
 21
5.71275026998
  0
LINE
  5
3C8
100
AcDbEntity
  8
VISIBLE
  6
ByLayer
 62
  256
370
   -1
100
AcDbLine
 10
8.41756958849
 20
5.71275026998
 11
4.41756958849
 21
5.71275026998
  0
LINE
  5
3C9
100
AcDbEntity
  8
VISIBLE
  6
ByLayer
 62
  256
370
   -1
100
AcDbLine
 10
4.41756958849
 20
5.62941693665
 11
8.41756958849
 21
5.62941693665
  0
LINE
  5
3CA
100
AcDbEntity
  8
VISIBLE
  6
ByLayer
 62
  256
370
   -1
100
AcDbLine
 10
4.41756958849
 20
5.62941693665
 11
4.41756958849
 21
5.71275026998
  0
LINE
  5
3CB
100
AcDbEntity
  8
HIDDEN
  6
ByLayer
 62
  256
370
   -1
100
AcDbLine
 10
5.33423625516
 20
5.71275026998
 11
5.33423625516
 21
5.62941693665
  0
DIMENSION
  5
3CC
100
AcDbEntity
  8
DIMENSIONS
  6
ByLayer
 62
  256
370
   -1
100
AcDbDimension
 10
0
 20
0
 30
0
 11
7.8274589899
 21
10.6792543044
 31
0
 70
   32
  1
<>
 71
    5
 72
    0
  3
Standard
 53
0
210
0
220
0
230
1
100
AcDbAlignedDimension
 13
4.41756958849
 23
5.62941693665
 33
0
 14
4.41756958849
 24
5.71275026998
 34
0
 50
90
100
AcDbRotatedDimension
  0
LINE
  5
3CD
100
AcDbEntity
  8
VISIBLE
  6
ByLayer
 62
  256
370
   -1
100
AcDbLine
 10
8.41756958849
 20
6.29010059827
 11
4.41756958849
 21
6.29010059827
  0
LINE
  5
3CE
100
AcDbEntity
  8
VISIBLE
  6
ByLayer
 62
  256
370
   -1
100
AcDbLine
 10
4.41756958849
 20
6.29010059827
 11
5.33423625516
 21
7.58176726494
  0
LINE
  5
3CF
100
AcDbEntity
  8
VISIBLE
  6
ByLayer
 62
  256
370
   -1
100
AcDbLine
 10
5.33423625516
 20
7.58176726494
 11
8.41756958849
 21
7.58176726494
  0
LINE
  5
3D0
100
AcDbEntity
  8
VISIBLE
  6
ByLayer
 62
  256
370
   -1
100
AcDbLine
 10
8.41756958849
 20
7.58176726494
 11
8.41756958849
 21
6.29010059827
  0
DIMENSION
  5
3D1
100
AcDbEntity
  8
DIMENSIONS
  6
ByLayer
 62
  256
370
   -1
100
AcDbDimension
 10
0
 20
0
 30
0
 11
11.0077690966
 21
14.5362337568
 31
0
 70
   32
  1
<>
 71
    5
 72
    0
  3
Standard
 53
0
210
0
220
0
230
1
100
AcDbAlignedDimension
 13
5.33423625516
 23
7.58176726494
 33
0
 14
8.41756958849
 24
7.58176726494
 34
0
100
AcDbRotatedDimension
  0
DIMENSION
  5
3D2
100
AcDbEntity
  8
DIMENSIONS
  6
ByLayer
 62
  256
370
   -1
100
AcDbDimension
 10
0
 20
0
 30
0
 11
7.63568034135
 21
13.2260345299
 31
0
 70
   32
  1
<>
 71
    5
 72
    0
  3
Standard
 53
0
210
0
220
0
230
1
100
AcDbAlignedDimension
 13
5.33423625516
 23
7.58176726494
 33
0
 14
4.41756958849
 24
6.29010059827
 34
0
 50
90
100
AcDbRotatedDimension
  0
DIMENSION
  5
3D3
100
AcDbEntity
  8
DIMENSIONS
  6
ByLayer
 62
  256
370
   -1
100
AcDbDimension
 10
0
 20
0
 30
0
 11
10.3365475812
 21
12.2668655476
 31
0
 70
   32
  1
<>
 71
    5
 72
    0
  3
Standard
 53
0
210
0
220
0
230
1
100
AcDbAlignedDimension
 13
8.41756958849
 23
6.29010059827
 33
0
 14
4.41756958849
 24
6.29010059827
 34
0
 50
180
100
AcDbRotatedDimension
  0
DIMENSION
  5
3D4
100
AcDbEntity
  8
DIMENSIONS
  6
ByLayer
 62
  256
370
   -1
100
AcDbDimension
 10
7.16944934609
 20
10.1677493476
 30
0
 11
12.8296558951
 21
15.1595108353
 31
0
 70
   34
  1
<>
 71
    5
 72
    0
  3
Standard
 53
0
210
0
220
0
230
1
100
AcDb2LineAngularDimension
 13
8.41756958849
 23
6.29010059827
 33
0
 14
9.172462018779999
 24
6.29010059827
 34
0
 15
5.33423625516
 25
7.58176726494
 35
0
 16
12.8296558951
 26
15.1595108353
 36
0
  0
DIMENSION
  5
3D5
100
AcDbEntity
  8
DIMENSIONS
  6
ByLayer
 62
  256
370
   -1
100
AcDbDimension
 10
0
 20
0
 30
0
 11
9.29347251031
 21
14.6270055295
 31
0
 70
   32
  1
<>
 71
    5
 72
    0
  3
Standard
 53
0
210
0
220
0
230
1
100
AcDbAlignedDimension
 13
4.41756958849
 23
6.29010059827
 33
0
 14
5.33423625516
 24
7.58176726494
 34
0
100
AcDbRotatedDimension
  0
LINE
  5
3D6
100
AcDbEntity
  8
VISIBLE
  6
ByLayer
 62
  256
370
   -1
100
AcDbLine
 10
8.994919804449999
 20
5.62941693665
 11
8.994919804449999
 21
5.71275026998
  0
LINE
  5
3D7
100
AcDbEntity
  8
VISIBLE
  6
ByLayer
 62
  256
370
   -1
100
AcDbLine
 10
8.994919804449999
 20
5.62941693665
 11
10.2865864711
 21
5.62941693665
  0
LINE
  5
3D8
100
AcDbEntity
  8
VISIBLE
  6
ByLayer
 62
  256
370
   -1
100
AcDbLine
 10
10.2865864711
 20
5.62941693665
 11
10.2865864711
 21
5.71275026998
  0
LINE
  5
3D9
100
AcDbEntity
  8
VISIBLE
  6
ByLayer
 62
  256
370
   -1
100
AcDbLine
 10
10.2865864711
 20
5.71275026998
 11
8.994919804449999
 21
5.71275026998
  0
LINE
  5
3DA
100
AcDbEntity
  8
VISIBLE
  6
ByLayer
 62
  256
370
   -1
100
AcDbLine
 10
12.0845702216
 20
6.6321471181
 11
12.0845702216
 21
6.70018849985
  0
LINE
  5
3DB
100
AcDbEntity
  8
VISIBLE
  6
ByLayer
 62
  256
370
   -1
100
AcDbLine
 10
12.0845702216
 20
6.6321471181
 11
12.9979164807
 21
7.15946782662
  0
LINE
  5
3DC
100
AcDbEntity
  8
VISIBLE
  6
ByLayer
 62
  256
370
   -1
100
AcDbLine
 10
12.0845702216
 20
6.70018849985
 11
9.25614309689
 21
8.333181661699999
  0
LINE
  5
3DD
100
AcDbEntity
  8
VISIBLE
  6
ByLayer
 62
  256
370
   -1
100
AcDbLine
 10
12.9979164807
 20
7.15946782662
 11
12.9979164807
 21
7.22750920836
  0
LINE
  5
3DE
100
AcDbEntity
  8
VISIBLE
  6
ByLayer
 62
  256
370
   -1
100
AcDbLine
 10
9.25614309689
 20
8.265140279960001
 11
12.0845702216
 21
6.6321471181
  0
LINE
  5
3DF
100
AcDbEntity
  8
VISIBLE
  6
ByLayer
 62
  256
370
   -1
100
AcDbLine
 10
9.25614309689
 20
8.265140279960001
 11
9.25614309689
 21
8.333181661699999
  0
LINE
  5
3E0
100
AcDbEntity
  8
VISIBLE
  6
ByLayer
 62
  256
370
   -1
100
AcDbLine
 10
9.25614309689
 20
8.333181661699999
 11
10.817670572
 21
8.486274770630001
  0
LINE
  5
3E1
100
AcDbEntity
  8
VISIBLE
  6
ByLayer
 62
  256
370
   -1
100
AcDbLine
 10
10.817670572
 20
8.486274770630001
 11
12.9979164807
 21
7.22750920836
  0
LINE
  5
3E2
100
AcDbEntity
  8
VISIBLE
  6
ByLayer
 62
  256
370
   -1
100
AcDbLine
 10
12.9979164807
 20
7.22750920836
 11
12.0845702216
 21
6.70018849985
  0
LINE
  5
3E3
100
AcDbEntity
  8
HIDDEN
  6
ByLayer
 62
  256
370
   -1
100
AcDbLine
 10
10.817670572
 20
8.486274770630001
 11
10.817670572
 21
8.418233388879999
  0
LINE
  5
3E4
100
AcDbEntity
  8
HIDDEN
  6
ByLayer
 62
  256
370
   -1
100
AcDbLine
 10
12.9979164807
 20
7.15946782662
 11
10.817670572
 21
8.418233388879999
  0
LINE
  5
3E5
100
AcDbEntity
  8
HIDDEN
  6
ByLayer
 62
  256
370
   -1
100
AcDbLine
 10
10.817670572
 20
8.418233388879999
 11
9.25614309689
 21
8.265140279960001
  0
INSERT
  5
3E6
100
AcDbEntity
  8
CONTINUOUS
  6
ByLayer
 62
  256
370
   -1
100
AcDbBlockReference
  2
BLOCK21
 10
0
 20
0
 30
0
 41
1
 42
1
 43
0
 50
0
 70
    1
 71
    1
 44
0
 45
0
  0
ENDBLK
  5
9B
330
99
100
AcDbEntity
  8
0
100
AcDbBlockEnd
  0
BLOCK
  5
9D
330
9C
100
AcDbEntity
  8
0
100
AcDbBlockBegin
  2
L-Q5
 70
    0
 10
0
 20
0
  3
L-Q5
  1

  0
LINE
  5
3E7
100
AcDbEntity
  8
VISIBLE
  6
ByLayer
 62
  256
370
   -1
100
AcDbLine
 10
4.35498344241
 20
6.07179972905
 11
9.386233442409999
 21
6.07179972905
  0
LINE
  5
3E8
100
AcDbEntity
  8
VISIBLE
  6
ByLayer
 62
  256
370
   -1
100
AcDbLine
 10
4.35498344241
 20
6.07179972905
 11
4.35498344241
 21
6.13429972905
  0
LINE
  5
3E9
100
AcDbEntity
  8
VISIBLE
  6
ByLayer
 62
  256
370
   -1
100
AcDbLine
 10
9.386233442409999
 20
6.13429972905
 11
4.35498344241
 21
6.13429972905
  0
LINE
  5
3EA
100
AcDbEntity
  8
VISIBLE
  6
ByLayer
 62
  256
370
   -1
100
AcDbLine
 10
9.386233442409999
 20
6.07179972905
 11
9.386233442409999
 21
6.13429972905
  0
DIMENSION
  5
3EB
100
AcDbEntity
  8
DIMENSIONS
  6
ByLayer
 62
  256
370
   -1
100
AcDbDimension
 10
0
 20
0
 30
0
 11
7.73290628148
 21
11.3453796044
 31
0
 70
   32
  1
<>
 71
    5
 72
    0
  3
Standard
 53
0
210
0
220
0
230
1
100
AcDbAlignedDimension
 13
4.35498344241
 23
6.13429972905
 33
0
 14
4.35498344241
 24
6.07179972905
 34
0
 50
270
100
AcDbRotatedDimension
  0
LINE
  5
3EC
100
AcDbEntity
  8
VISIBLE
  6
ByLayer
 62
  256
370
   -1
100
AcDbLine
 10
9.386233442409999
 20
6.69506095221
 11
4.35498344241
 21
6.69506095221
  0
LINE
  5
3ED
100
AcDbEntity
  8
VISIBLE
  6
ByLayer
 62
  256
370
   -1
100
AcDbLine
 10
9.386233442409999
 20
7.88256095221
 11
9.386233442409999
 21
6.69506095221
  0
LINE
  5
3EE
100
AcDbEntity
  8
VISIBLE
  6
ByLayer
 62
  256
370
   -1
100
AcDbLine
 10
4.35498344241
 20
6.69506095221
 11
4.35498344241
 21
7.88256095221
  0
LINE
  5
3EF
100
AcDbEntity
  8
VISIBLE
  6
ByLayer
 62
  256
370
   -1
100
AcDbLine
 10
4.35498344241
 20
7.88256095221
 11
9.386233442409999
 21
7.88256095221
  0
DIMENSION
  5
3F0
100
AcDbEntity
  8
DIMENSIONS
  6
ByLayer
 62
  256
370
   -1
100
AcDbDimension
 10
0
 20
0
 30
0
 11
9.890404738779999
 21
15.4685823155
 31
0
 70
   32
  1
<>
 71
    5
 72
    0
  3
Standard
 53
0
210
0
220
0
230
1
100
AcDbAlignedDimension
 13
4.35498344241
 23
7.88256095221
 33
0
 14
9.386233442409999
 24
7.88256095221
 34
0
100
AcDbRotatedDimension
  0
DIMENSION
  5
3F1
100
AcDbEntity
  8
DIMENSIONS
  6
ByLayer
 62
  256
370
   -1
100
AcDbDimension
 10
0
 20
0
 30
0
 11
7.06168476615
 21
13.710620832
 31
0
 70
   32
  1
<>
 71
    5
 72
    0
  3
Standard
 53
0
210
0
220
0
230
1
100
AcDbAlignedDimension
 13
4.35498344241
 23
6.69506095221
 33
0
 14
4.35498344241
 24
7.88256095221
 34
0
 50
90
100
AcDbRotatedDimension
  0
LINE
  5
3F2
100
AcDbEntity
  8
VISIBLE
  6
ByLayer
 62
  256
370
   -1
100
AcDbLine
 10
9.946994601269999
 20
6.07179972905
 11
11.1344946013
 21
6.07179972905
  0
LINE
  5
3F3
100
AcDbEntity
  8
VISIBLE
  6
ByLayer
 62
  256
370
   -1
100
AcDbLine
 10
11.1344946013
 20
6.13429972905
 11
9.946994601269999
 21
6.13429972905
  0
LINE
  5
3F4
100
AcDbEntity
  8
VISIBLE
  6
ByLayer
 62
  256
370
   -1
100
AcDbLine
 10
9.946994601269999
 20
6.07179972905
 11
9.946994601269999
 21
6.13429972905
  0
LINE
  5
3F5
100
AcDbEntity
  8
VISIBLE
  6
ByLayer
 62
  256
370
   -1
100
AcDbLine
 10
11.1344946013
 20
6.07179972905
 11
11.1344946013
 21
6.13429972905
  0
LINE
  5
3F6
100
AcDbEntity
  8
VISIBLE
  6
ByLayer
 62
  256
370
   -1
100
AcDbLine
 10
10.7580861714
 20
8.71755200096
 11
14.3157171642
 21
6.66355278956
  0
LINE
  5
3F7
100
AcDbEntity
  8
VISIBLE
  6
ByLayer
 62
  256
370
   -1
100
AcDbLine
 10
10.7580861714
 20
8.71755200096
 11
10.7580861714
 21
8.76858303727
  0
LINE
  5
3F8
100
AcDbEntity
  8
VISIBLE
  6
ByLayer
 62
  256
370
   -1
100
AcDbLine
 10
14.3157171642
 20
6.71458382587
 11
10.7580861714
 21
8.76858303727
  0
LINE
  5
3F9
100
AcDbEntity
  8
VISIBLE
  6
ByLayer
 62
  256
370
   -1
100
AcDbLine
 10
14.3157171642
 20
6.66355278956
 11
15.1554064669
 21
7.14834763449
  0
LINE
  5
3FA
100
AcDbEntity
  8
VISIBLE
  6
ByLayer
 62
  256
370
   -1
100
AcDbLine
 10
15.1554064669
 20
7.19937867079
 11
14.3157171642
 21
6.71458382587
  0
LINE
  5
3FB
100
AcDbEntity
  8
VISIBLE
  6
ByLayer
 62
  256
370
   -1
100
AcDbLine
 10
10.7580861714
 20
8.76858303727
 11
11.5977754741
 21
9.25337788219
  0
LINE
  5
3FC
100
AcDbEntity
  8
VISIBLE
  6
ByLayer
 62
  256
370
   -1
100
AcDbLine
 10
14.3157171642
 20
6.66355278956
 11
14.3157171642
 21
6.71458382587
  0
LINE
  5
3FD
100
AcDbEntity
  8
VISIBLE
  6
ByLayer
 62
  256
370
   -1
100
AcDbLine
 10
15.1554064669
 20
7.14834763449
 11
15.1554064669
 21
7.19937867079
  0
LINE
  5
3FE
100
AcDbEntity
  8
VISIBLE
  6
ByLayer
 62
  256
370
   -1
100
AcDbLine
 10
11.5977754741
 20
9.25337788219
 11
15.1554064669
 21
7.19937867079
  0
INSERT
  5
3FF
100
AcDbEntity
  8
CONTINUOUS
  6
ByLayer
 62
  256
370
   -1
100
AcDbBlockReference
  2
BLOCK15
 10
0
 20
0
 30
0
 41
1
 42
1
 43
0
 50
0
 70
    1
 71
    1
 44
0
 45
0
  0
ENDBLK
  5
9E
330
9C
100
AcDbEntity
  8
0
100
AcDbBlockEnd
  0
BLOCK
  5
A0
330
9F
100
AcDbEntity
  8
0
100
AcDbBlockBegin
  2
BLOCK3
 70
    0
 10
0
 20
0
  3
BLOCK3
  1

  0
LINE
  5
400
100
AcDbEntity
  8
CONTINUOUS
  6
ByLayer
 62
  256
370
   -1
100
AcDbLine
 10
0.626251604621
 20
10.6420731707
 11
16.3762516046
 21
10.6420731707
  0
LINE
  5
401
100
AcDbEntity
  8
CONTINUOUS
  6
ByLayer
 62
  256
370
   -1
100
AcDbLine
 10
0.626251604621
 20
10.6420731707
 11
0.626251604621
 21
0.392073170732
  0
LINE
  5
402
100
AcDbEntity
  8
CONTINUOUS
  6
ByLayer
 62
  256
370
   -1
100
AcDbLine
 10
16.3762516046
 20
0.392073170732
 11
0.626251604621
 21
0.392073170732
  0
LINE
  5
403
100
AcDbEntity
  8
CONTINUOUS
  6
ByLayer
 62
  256
370
   -1
100
AcDbLine
 10
16.3762516046
 20
0.392073170732
 11
16.3762516046
 21
10.6420731707
  0
LINE
  5
404
100
AcDbEntity
  8
CONTINUOUS
  6
ByLayer
 62
  256
370
   -1
100
AcDbLine
 10
16.3762516046
 20
8.0752921748
 11
16.5012516046
 21
8.0752921748
  0
LINE
  5
405
100
AcDbEntity
  8
CONTINUOUS
  6
ByLayer
 62
  256
370
   -1
100
AcDbLine
 10
16.3762516046
 20
5.5127921748
 11
16.5012516046
 21
5.5127921748
  0
LINE
  5
406
100
AcDbEntity
  8
CONTINUOUS
  6
ByLayer
 62
  256
370
   -1
100
AcDbLine
 10
16.3762516046
 20
5.5127921748
 11
16.4434330337
 21
5.53680182526
  0
LINE
  5
407
100
AcDbEntity
  8
CONTINUOUS
  6
ByLayer
 62
  256
370
   -1
100
AcDbLine
 10
16.3762516046
 20
5.5127921748
 11
16.4434330337
 21
5.49021364932
  0
LINE
  5
408
100
AcDbEntity
  8
CONTINUOUS
  6
ByLayer
 62
  256
370
   -1
100
AcDbLine
 10
16.4434330337
 20
5.53680182526
 11
16.4434330337
 21
5.49021364932
  0
LINE
  5
409
100
AcDbEntity
  8
CONTINUOUS
  6
ByLayer
 62
  256
370
   -1
100
AcDbLine
 10
16.3762516046
 20
5.5127921748
 11
16.4434330337
 21
5.52183033312
  0
LINE
  5
40A
100
AcDbEntity
  8
CONTINUOUS
  6
ByLayer
 62
  256
370
   -1
100
AcDbLine
 10
16.3762516046
 20
5.5127921748
 11
16.4434330337
 21
5.50248405478
  0
LINE
  5
40B
100
AcDbEntity
  8
CONTINUOUS
  6
ByLayer
 62
  256
370
   -1
100
AcDbLine
 10
16.3762516046
 20
2.9502921748
 11
16.5012516046
 21
2.9502921748
  0
LINE
  5
40C
100
AcDbEntity
  8
CONTINUOUS
  6
ByLayer
 62
  256
370
   -1
100
AcDbLine
 10
0.626251604621
 20
2.95457317073
 11
0.501251604621
 21
2.95457317073
  0
LINE
  5
40D
100
AcDbEntity
  8
CONTINUOUS
  6
ByLayer
 62
  256
370
   -1
100
AcDbLine
 10
0.626251604621
 20
5.51707317073
 11
0.559070175518
 21
5.50676505072
  0
LINE
  5
40E
100
AcDbEntity
  8
CONTINUOUS
  6
ByLayer
 62
  256
370
   -1
100
AcDbLine
 10
0.626251604621
 20
5.51707317073
 11
0.559070175518
 21
5.52611132905
  0
LINE
  5
40F
100
AcDbEntity
  8
CONTINUOUS
  6
ByLayer
 62
  256
370
   -1
100
AcDbLine
 10
0.559070175518
 20
5.5410828212
 11
0.559070175518
 21
5.49449464526
  0
LINE
  5
410
100
AcDbEntity
  8
CONTINUOUS
  6
ByLayer
 62
  256
370
   -1
100
AcDbLine
 10
0.626251604621
 20
5.51707317073
 11
0.559070175518
 21
5.49449464526
  0
LINE
  5
411
100
AcDbEntity
  8
CONTINUOUS
  6
ByLayer
 62
  256
370
   -1
100
AcDbLine
 10
0.626251604621
 20
5.51707317073
 11
0.559070175518
 21
5.5410828212
  0
LINE
  5
412
100
AcDbEntity
  8
CONTINUOUS
  6
ByLayer
 62
  256
370
   -1
100
AcDbLine
 10
0.626251604621
 20
5.51707317073
 11
0.501251604621
 21
5.51707317073
  0
LINE
  5
413
100
AcDbEntity
  8
CONTINUOUS
  6
ByLayer
 62
  256
370
   -1
100
AcDbLine
 10
0.626251604621
 20
8.079573170730001
 11
0.501251604621
 21
8.079573170730001
  0
LINE
  5
414
100
AcDbEntity
  8
CONTINUOUS
  6
ByLayer
 62
  256
370
   -1
100
AcDbLine
 10
9.54980206352
 20
2.44962614087
 11
16.3762516046
 21
2.44962614087
  0
LINE
  5
415
100
AcDbEntity
  8
CONTINUOUS
  6
ByLayer
 62
  256
370
   -1
100
AcDbLine
 10
11.5513364013
 20
2.44962614087
 11
11.5513364013
 21
0.392073170732
  0
LINE
  5
416
100
AcDbEntity
  8
CONTINUOUS
  6
ByLayer
 62
  256
370
   -1
100
AcDbLine
 10
13.2432004658
 20
2.44962614087
 11
13.2432004658
 21
0.392073170732
  0
LINE
  5
417
100
AcDbEntity
  8
CONTINUOUS
  6
ByLayer
 62
  256
370
   -1
100
AcDbLine
 10
13.2432004658
 20
0.604959010098
 11
16.3762516046
 21
0.604959010098
  0
LINE
  5
418
100
AcDbEntity
  8
CONTINUOUS
  6
ByLayer
 62
  256
370
   -1
100
AcDbLine
 10
13.2432004658
 20
1.11193624566
 11
16.3762516046
 21
1.11193624566
  0
LINE
  5
419
100
AcDbEntity
  8
CONTINUOUS
  6
ByLayer
 62
  256
370
   -1
100
AcDbLine
 10
13.2432004658
 20
2.07462614087
 11
16.3762516046
 21
2.07462614087
  0
LINE
  5
41A
100
AcDbEntity
  8
CONTINUOUS
  6
ByLayer
 62
  256
370
   -1
100
AcDbLine
 10
13.6596632587
 20
1.11193624566
 11
13.6596632587
 21
0.604959010098
  0
LINE
  5
41B
100
AcDbEntity
  8
CONTINUOUS
  6
ByLayer
 62
  256
370
   -1
100
AcDbLine
 10
14.2861627554
 20
0.604959010098
 11
14.2861627554
 21
0.392073170732
  0
LINE
  5
41C
100
AcDbEntity
  8
CONTINUOUS
  6
ByLayer
 62
  256
370
   -1
100
AcDbLine
 10
15.8043163091
 20
1.11193624566
 11
15.8043163091
 21
0.604959010098
  0
LINE
  5
41D
100
AcDbEntity
  8
CONTINUOUS
  6
ByLayer
 62
  256
370
   -1
100
AcDbLine
 10
15.5189756774
 20
0.604959010098
 11
15.5189756774
 21
0.392073170732
  0
LINE
  5
41E
100
AcDbEntity
  8
CONTINUOUS
  6
ByLayer
 62
  256
370
   -1
100
AcDbLine
 10
11.5513364013
 20
1.88712614087
 11
13.2432004658
 21
1.88712614087
  0
LINE
  5
41F
100
AcDbEntity
  8
CONTINUOUS
  6
ByLayer
 62
  256
370
   -1
100
AcDbLine
 10
11.5513364013
 20
2.07462614087
 11
13.2432004658
 21
2.07462614087
  0
LINE
  5
420
100
AcDbEntity
  8
CONTINUOUS
  6
ByLayer
 62
  256
370
   -1
100
AcDbLine
 10
11.5513364013
 20
2.26212614087
 11
13.2432004658
 21
2.26212614087
  0
LINE
  5
421
100
AcDbEntity
  8
CONTINUOUS
  6
ByLayer
 62
  256
370
   -1
100
AcDbLine
 10
11.5513364013
 20
1.11668767505
 11
13.2432004658
 21
1.11668767505
  0
LINE
  5
422
100
AcDbEntity
  8
CONTINUOUS
  6
ByLayer
 62
  256
370
   -1
100
AcDbLine
 10
12.6404313067
 20
2.44962614087
 11
12.6404313067
 21
1.69962614087
  0
LINE
  5
423
100
AcDbEntity
  8
CONTINUOUS
  6
ByLayer
 62
  256
370
   -1
100
AcDbLine
 10
12.0248227272
 20
2.44962614087
 11
12.0248227272
 21
1.69962614087
  0
LINE
  5
424
100
AcDbEntity
  8
CONTINUOUS
  6
ByLayer
 62
  256
370
   -1
100
AcDbLine
 10
9.54980206352
 20
0.392073170732
 11
9.54980206352
 21
2.44962614087
  0
LINE
  5
425
100
AcDbEntity
  8
CONTINUOUS
  6
ByLayer
 62
  256
370
   -1
100
AcDbLine
 10
11.9625579365
 20
1.42415459873
 11
11.9625579365
 21
1.11668767505
  0
LINE
  5
426
100
AcDbEntity
  8
CONTINUOUS
  6
ByLayer
 62
  256
370
   -1
100
AcDbLine
 10
12.3737128259
 20
1.42415459873
 11
12.3737128259
 21
1.11668767505
  0
LINE
  5
427
100
AcDbEntity
  8
CONTINUOUS
  6
ByLayer
 62
  256
370
   -1
100
AcDbLine
 10
12.8181441331
 20
1.42415459873
 11
12.8181441331
 21
1.11668767505
  0
LINE
  5
428
100
AcDbEntity
  8
CONTINUOUS
  6
ByLayer
 62
  256
370
   -1
100
AcDbLine
 10
11.5513364013
 20
1.42415459873
 11
13.2432004658
 21
1.42415459873
  0
LINE
  5
429
100
AcDbEntity
  8
CONTINUOUS
  6
ByLayer
 62
  256
370
   -1
100
AcDbLine
 10
13.2432004658
 20
1.69962614087
 11
11.5513364013
 21
1.69962614087
  0
LINE
  5
42A
100
AcDbEntity
  8
CONTINUOUS
  6
ByLayer
 62
  256
370
   -1
100
AcDbLine
 10
9.54980206352
 20
1.26508544565
 11
11.5513364013
 21
1.26508544565
  0
LINE
  5
42B
100
AcDbEntity
  8
CONTINUOUS
  6
ByLayer
 62
  256
370
   -1
100
AcDbLine
 10
14.4072516046
 20
0.392073170732
 11
14.4072516046
 21
0.307273964934
  0
LINE
  5
42C
100
AcDbEntity
  8
CONTINUOUS
  6
ByLayer
 62
  256
370
   -1
100
AcDbLine
 10
12.4385016046
 20
0.392073170732
 11
12.4385016046
 21
0.307273964934
  0
LINE
  5
42D
100
AcDbEntity
  8
CONTINUOUS
  6
ByLayer
 62
  256
370
   -1
100
AcDbLine
 10
10.4697516046
 20
0.392073170732
 11
10.4697516046
 21
0.307273964934
  0
LINE
  5
42E
100
AcDbEntity
  8
CONTINUOUS
  6
ByLayer
 62
  256
370
   -1
100
AcDbLine
 10
8.501001604620001
 20
0.392073170732
 11
8.501001604620001
 21
0.307273964934
  0
LINE
  5
42F
100
AcDbEntity
  8
CONTINUOUS
  6
ByLayer
 62
  256
370
   -1
100
AcDbLine
 10
6.53225160462
 20
0.392073170732
 11
6.53225160462
 21
0.307273964934
  0
LINE
  5
430
100
AcDbEntity
  8
CONTINUOUS
  6
ByLayer
 62
  256
370
   -1
100
AcDbLine
 10
4.56350160462
 20
0.392073170732
 11
4.56350160462
 21
0.307273964934
  0
LINE
  5
431
100
AcDbEntity
  8
CONTINUOUS
  6
ByLayer
 62
  256
370
   -1
100
AcDbLine
 10
2.59475160462
 20
0.392073170732
 11
2.59475160462
 21
0.307273964934
  0
LINE
  5
432
100
AcDbEntity
  8
CONTINUOUS
  6
ByLayer
 62
  256
370
   -1
100
AcDbLine
 10
2.59475160462
 20
10.6420731707
 11
2.59475160462
 21
10.7268723765
  0
LINE
  5
433
100
AcDbEntity
  8
CONTINUOUS
  6
ByLayer
 62
  256
370
   -1
100
AcDbLine
 10
4.56350160462
 20
10.6420731707
 11
4.56350160462
 21
10.7268723765
  0
LINE
  5
434
100
AcDbEntity
  8
CONTINUOUS
  6
ByLayer
 62
  256
370
   -1
100
AcDbLine
 10
6.53225160462
 20
10.6420731707
 11
6.53225160462
 21
10.7268723765
  0
LINE
  5
435
100
AcDbEntity
  8
CONTINUOUS
  6
ByLayer
 62
  256
370
   -1
100
AcDbLine
 10
8.501001604620001
 20
10.6420731707
 11
8.501001604620001
 21
10.7268723765
  0
LINE
  5
436
100
AcDbEntity
  8
CONTINUOUS
  6
ByLayer
 62
  256
370
   -1
100
AcDbLine
 10
10.4697516046
 20
10.6420731707
 11
10.4697516046
 21
10.7268723765
  0
LINE
  5
437
100
AcDbEntity
  8
CONTINUOUS
  6
ByLayer
 62
  256
370
   -1
100
AcDbLine
 10
12.4385016046
 20
10.6420731707
 11
12.4385016046
 21
10.7268723765
  0
LINE
  5
438
100
AcDbEntity
  8
CONTINUOUS
  6
ByLayer
 62
  256
370
   -1
100
AcDbLine
 10
14.4072516046
 20
10.6420731707
 11
14.4072516046
 21
10.7268723765
  0
LINE
  5
439
100
AcDbEntity
  8
CONTINUOUS
  6
ByLayer
 62
  256
370
   -1
100
AcDbLine
 10
8.501001604620001
 20
10.6420731707
 11
8.48775048715
 21
10.6840054626
  0
LINE
  5
43A
100
AcDbEntity
  8
CONTINUOUS
  6
ByLayer
 62
  256
370
   -1
100
AcDbLine
 10
8.501001604620001
 20
10.6420731707
 11
8.513556578459999
 21
10.6840054626
  0
LINE
  5
43B
100
AcDbEntity
  8
CONTINUOUS
  6
ByLayer
 62
  256
370
   -1
100
AcDbLine
 10
8.513556578459999
 20
10.6840054626
 11
8.48775048715
 21
10.6840054626
  0
LINE
  5
43C
100
AcDbEntity
  8
CONTINUOUS
  6
ByLayer
 62
  256
370
   -1
100
AcDbLine
 10
8.49396306469
 20
10.6840054626
 11
8.501001604620001
 21
10.6420731707
  0
LINE
  5
43D
100
AcDbEntity
  8
CONTINUOUS
  6
ByLayer
 62
  256
370
   -1
100
AcDbLine
 10
8.505910329180001
 20
10.6840054626
 11
8.501001604620001
 21
10.6420731707
  0
LINE
  5
43E
100
AcDbEntity
  8
CONTINUOUS
  6
ByLayer
 62
  256
370
   -1
100
AcDbLine
 10
8.501001604620001
 20
0.392073170732
 11
8.513556578459999
 21
0.3575
  0
LINE
  5
43F
100
AcDbEntity
  8
CONTINUOUS
  6
ByLayer
 62
  256
370
   -1
100
AcDbLine
 10
8.513556578459999
 20
0.3575
 11
8.48775048715
 21
0.3575
  0
LINE
  5
440
100
AcDbEntity
  8
CONTINUOUS
  6
ByLayer
 62
  256
370
   -1
100
AcDbLine
 10
8.48775048715
 20
0.3575
 11
8.501001604620001
 21
0.392073170732
  0
INSERT
  5
441
100
AcDbEntity
  8
0
  6
ByLayer
 62
  256
370
   -1
100
AcDbBlockReference
  2
BLOCK4
 10
-0.37302643846
 20
0.0594801148978
 30
0
 41
1
 42
1
 43
0
 50
0
 70
    1
 71
    1
 44
0
 45
0
  0
INSERT
  5
442
100
AcDbEntity
  8
0
  6
ByLayer
 62
  256
370
   -1
100
AcDbBlockReference
  2
BLOCK5
 10
11.7562826626
 20
1.56976492583
 30
0
 41
1
 42
1
 43
0
 50
0
 70
    1
 71
    1
 44
0
 45
0
  0
MTEXT
  5
443
100
AcDbEntity
  8
CONTINUOUS
  6
ByLayer
 62
  256
370
   -1
100
AcDbMText
 10
13.2990559431
 20
2.44278324028
 30
0
 40
0.0804353834124
 41
0.9026637471836051
 71
    1
 72
    1
  1
\C7;PROJECT:\C7;
  7
standard
210
0
220
0
230
1
 50
0
 73
    1
 44
1
  0
MTEXT
  5
444
100
AcDbEntity
  8
CONTINUOUS
  6
ByLayer
 62
  256
370
   -1
100
AcDbMText
 10
12.8420705227
 20
2.40448810286
 30
0
 40
0.0536235889416
 41
0.4647377708272033
 71
    1
 72
    1
  1
\C7;DATE\C7;
  7
standard
210
0
220
0
230
1
 50
0
 73
    1
 44
1
  0
MTEXT
  5
445
100
AcDbEntity
  8
CONTINUOUS
  6
ByLayer
 62
  256
370
   -1
100
AcDbMText
 10
9.704144788860001
 20
1.0281170059
 30
0
 40
0.044686324118
 41
1.748973046086493
 71
    1
 72
    1
  1
\C7;ALL INFORMATION IS RELEASED UNDER THE OSE \C7;
  7
standard
210
0
220
0
230
1
 50
0
 73
    1
 44
1
  0
MTEXT
  5
446
100
AcDbEntity
  8
CONTINUOUS
  6
ByLayer
 62
  256
370
   -1
100
AcDbMText
 10
9.46429872495
 20
10.8654638765
 30
0
 40
0.07149811858879999
 41
0.4289887115328
 71
    1
 72
    1
  1
\C7;4\C7;
  7
standard
210
0
220
0
230
1
 50
0
 73
    1
 44
1
  0
MTEXT
  5
447
100
AcDbEntity
  8
CONTINUOUS
  6
ByLayer
 62
  256
370
   -1
100
AcDbMText
 10
14.9028603862
 20
0.524457871445
 30
0
 40
0.0775536798368
 41
0.1852671240545778
 71
    4
 72
    1
  1
\C7;
  7
standard
210
0
220
0
230
1
 50
0
 73
    1
 44
1
  0
MTEXT
  5
448
100
AcDbEntity
  8
CONTINUOUS
  6
ByLayer
 62
  256
370
   -1
100
AcDbMText
 10
11.6511163186
 20
1.22914982593
 30
0
 40
0.0732451420681
 41
0.569684438307449
 71
    4
 72
    1
  1
\C7;+-.5\C7;
  7
standard
210
0
220
0
230
1
 50
0
 73
    1
 44
1
  0
MTEXT
  5
449
100
AcDbEntity
  8
CONTINUOUS
  6
ByLayer
 62
  256
370
   -1
100
AcDbMText
 10
0.428610479966
 20
9.487355494719999
 30
0
 40
0.07149811858879999
 41
0.4289887115328044
 71
    1
 72
    1
  1
\C7;D\C7;
  7
standard
210
0
220
0
230
1
 50
0
 73
    1
 44
1
  0
MTEXT
  5
44A
100
AcDbEntity
  8
CONTINUOUS
  6
ByLayer
 62
  256
370
   -1
100
AcDbMText
 10
12.8387210876
 20
1.23131188821
 30
0
 40
0.0732451420681
 41
0.6836213259689379
 71
    4
 72
    1
  1
\C7;+-.005\C7;
  7
standard
210
0
220
0
230
1
 50
0
 73
    1
 44
1
  0
MTEXT
  5
44B
100
AcDbEntity
  8
CONTINUOUS
  6
ByLayer
 62
  256
370
   -1
100
AcDbMText
 10
15.4083167374
 20
0.331180143587
 30
0
 40
0.07149811858879999
 41
0.4051560053365333
 71
    1
 72
    1
  1
\C7;1\C7;
  7
standard
210
0
220
0
230
1
 50
0
 73
    1
 44
1
  0
MTEXT
  5
44C
100
AcDbEntity
  8
CONTINUOUS
  6
ByLayer
 62
  256
370
   -1
100
AcDbMText
 10
1.50908886894
 20
10.8613063881
 30
0
 40
0.07149811858879999
 41
0.4210444761340444
 71
    1
 72
    1
  1
\C7;8\C7;
  7
standard
210
0
220
0
230
1
 50
0
 73
    1
 44
1
  0
MTEXT
  5
44D
100
AcDbEntity
  8
CONTINUOUS
  6
ByLayer
 62
  256
370
   -1
100
AcDbMText
 10
16.4913158734
 20
9.52080834587
 30
0
 40
0.07149811858879999
 41
0.4289887115328044
 71
    1
 72
    1
  1
\C7;D\C7;
  7
standard
210
0
220
0
230
1
 50
0
 73
    1
 44
1
  0
MTEXT
  5
44E
100
AcDbEntity
  8
CONTINUOUS
  6
ByLayer
 62
  256
370
   -1
100
AcDbMText
 10
13.3602911836
 20
1.09582620642
 30
0
 40
0.0804353834124
 41
0.6434830502467259
 71
    1
 72
    1
  1
\C7;SIZE\C7;
  7
standard
210
0
220
0
230
1
 50
0
 73
    1
 44
1
  0
MTEXT
  5
44F
100
AcDbEntity
  8
CONTINUOUS
  6
ByLayer
 62
  256
370
   -1
100
AcDbMText
 10
5.51882523857
 20
0.343463549961
 30
0
 40
0.07149811858879999
 41
0.4210444761340488
 71
    1
 72
    1
  1
\C7;6\C7;
  7
standard
210
0
220
0
230
1
 50
0
 73
    1
 44
1
  0
MTEXT
  5
450
100
AcDbEntity
  8
CONTINUOUS
  6
ByLayer
 62
  256
370
   -1
100
AcDbMText
 10
12.685442046
 20
1.9640694266
 30
0
 40
0.0775536798368
 41
0.1852671240545778
 71
    4
 72
    1
  1
\C7;
  7
standard
210
0
220
0
230
1
 50
0
 73
    1
 44
1
  0
MTEXT
  5
451
100
AcDbEntity
  8
CONTINUOUS
  6
ByLayer
 62
  256
370
   -1
100
AcDbMText
 10
15.4273970005
 20
10.8598767883
 30
0
 40
0.07149811858879999
 41
0.4051560053365333
 71
    1
 72
    1
  1
\C7;1\C7;
  7
standard
210
0
220
0
230
1
 50
0
 73
    1
 44
1
  0
MTEXT
  5
452
100
AcDbEntity
  8
CONTINUOUS
  6
ByLayer
 62
  256
370
   -1
100
AcDbMText
 10
12.5359721151
 20
1.40810952244
 30
0
 40
0.0536235889416
 41
0.3991978287874667
 71
    1
 72
    1
  1
\C7;.XX\C7;
  7
standard
210
0
220
0
230
1
 50
0
 73
    1
 44
1
  0
MTEXT
  5
453
100
AcDbEntity
  8
CONTINUOUS
  6
ByLayer
 62
  256
370
   -1
100
AcDbMText
 10
12.0671141617
 20
2.16915160652
 30
0
 40
0.0732451420681
 41
0.5696844383074444
 71
    4
 72
    1
  1
\C7;RHB\C7;
  7
standard
210
0
220
0
230
1
 50
0
 73
    1
 44
1
  0
MTEXT
  5
454
100
AcDbEntity
  8
CONTINUOUS
  6
ByLayer
 62
  256
370
   -1
100
AcDbMText
 10
16.5114787596
 20
4.40889620723
 30
0
 40
0.07149811858879999
 41
0.4289887115328
 71
    1
 72
    1
  1
\C7;B\C7;
  7
standard
210
0
220
0
230
1
 50
0
 73
    1
 44
1
  0
MTEXT
  5
455
100
AcDbEntity
  8
CONTINUOUS
  6
ByLayer
 62
  256
370
   -1
100
AcDbMText
 10
12.0667861578
 20
1.25640681409
 30
0
 40
0.0732451420681
 41
0.5534077400700889
 71
    4
 72
    1
  1
\C7;+-.1\C7;
  7
standard
210
0
220
0
230
1
 50
0
 73
    1
 44
1
  0
MTEXT
  5
456
100
AcDbEntity
  8
CONTINUOUS
  6
ByLayer
 62
  256
370
   -1
100
AcDbMText
 10
1.52677445274
 20
0.342770883823
 30
0
 40
0.07149811858879999
 41
0.4210444761340444
 71
    1
 72
    1
  1
\C7;8\C7;
  7
standard
210
0
220
0
230
1
 50
0
 73
    1
 44
1
  0
MTEXT
  5
457
100
AcDbEntity
  8
CONTINUOUS
  6
ByLayer
 62
  256
370
   -1
100
AcDbMText
 10
10.194692211
 20
1.18799467965
 30
0
 40
0.044686324118
 41
0.8875200389811256
 71
    1
 72
    1
  1
\C7;LICENSE INFORMATION\C7;
  7
standard
210
0
220
0
230
1
 50
0
 73
    1
 44
1
  0
MTEXT
  5
458
100
AcDbEntity
  8
CONTINUOUS
  6
ByLayer
 62
  256
370
   -1
100
AcDbMText
 10
11.6118920972
 20
0.574023856188
 30
0
 40
0.07149811858879999
 41
1.62459613904552
 71
    1
 72
    1
  1
\C7;THIRD ANGLE PROJECTION\C7;
  7
standard
210
0
220
0
230
1
 50
0
 73
    1
 44
1
  0
MTEXT
  5
459
100
AcDbEntity
  8
CONTINUOUS
  6
ByLayer
 62
  256
370
   -1
100
AcDbMText
 10
13.3681812646
 20
1.00046194544
 30
0
 40
0.205557090943
 41
1.233342545658
 71
    1
 72
    1
  1
\C7;B\C7;
  7
standard
210
0
220
0
230
1
 50
0
 73
    1
 44
1
  0
MTEXT
  5
45A
100
AcDbEntity
  8
CONTINUOUS
  6
ByLayer
 62
  256
370
   -1
100
AcDbMText
 10
13.6876444178
 20
2.24976231733
 30
0
 40
0.137873208599
 41
1.953203730027009
 71
    4
 72
    1
  1
\C7;CEB PRESS 5\C7;
  7
standard
210
0
220
0
230
1
 50
0
 73
    1
 44
1
  0
MTEXT
  5
45B
100
AcDbEntity
  8
CONTINUOUS
  6
ByLayer
 62
  256
370
   -1
100
AcDbMText
 10
13.7021006186
 20
0.878810056551
 30
0
 40
0.155107359674
 41
2.684219029913954
 71
    4
 72
    1
  1
\C7;01-081-00-0 L-Q6\C7;
  7
standard
210
0
220
0
230
1
 50
0
 73
    1
 44
1
  0
MTEXT
  5
45C
100
AcDbEntity
  8
CONTINUOUS
  6
ByLayer
 62
  256
370
   -1
100
AcDbMText
 10
11.5941272892
 20
1.40810952244
 30
0
 40
0.0536235889416
 41
0.5541104076948838
 71
    1
 72
    1
  1
\C7;ANGLES\C7;
  7
standard
210
0
220
0
230
1
 50
0
 73
    1
 44
1
  0
MTEXT
  5
45D
100
AcDbEntity
  8
CONTINUOUS
  6
ByLayer
 62
  256
370
   -1
100
AcDbMText
 10
15.6390693244
 20
0.535415439155
 30
0
 40
0.0775536798368
 41
0.1852671240545778
 71
    4
 72
    1
  1
\C7;
  7
standard
210
0
220
0
230
1
 50
0
 73
    1
 44
1
  0
MTEXT
  5
45E
100
AcDbEntity
  8
CONTINUOUS
  6
ByLayer
 62
  256
370
   -1
100
AcDbMText
 10
13.7722586084
 20
0.493252333694
 30
0
 40
0.0775536798368
 41
0.6635148163815112
 71
    4
 72
    1
  1
\C7;NONE\C7;
  7
standard
210
0
220
0
230
1
 50
0
 73
    1
 44
1
  0
MTEXT
  5
45F
100
AcDbEntity
  8
CONTINUOUS
  6
ByLayer
 62
  256
370
   -1
100
AcDbMText
 10
3.55742667537
 20
0.343069146781
 30
0
 40
0.07149811858879999
 41
0.4210444761340444
 71
    1
 72
    1
  1
\C7;7\C7;
  7
standard
210
0
220
0
230
1
 50
0
 73
    1
 44
1
  0
MTEXT
  5
460
100
AcDbEntity
  8
CONTINUOUS
  6
ByLayer
 62
  256
370
   -1
100
AcDbMText
 10
7.48511555553
 20
0.340394556307
 30
0
 40
0.07149811858879999
 41
0.4210444761340488
 71
    1
 72
    1
  1
\C7;5\C7;
  7
standard
210
0
220
0
230
1
 50
0
 73
    1
 44
1
  0
MTEXT
  5
461
100
AcDbEntity
  8
CONTINUOUS
  6
ByLayer
 62
  256
370
   -1
100
AcDbMText
 10
12.6703334419
 20
1.79787658338
 30
0
 40
0.0775536798368
 41
0.1852671240545778
 71
    4
 72
    1
  1
\C7;
  7
standard
210
0
220
0
230
1
 50
0
 73
    1
 44
1
  0
MTEXT
  5
462
100
AcDbEntity
  8
CONTINUOUS
  6
ByLayer
 62
  256
370
   -1
100
AcDbMText
 10
11.5959805855
 20
2.21550209874
 30
0
 40
0.0536235889416
 41
0.5362358894160032
 71
    1
 72
    1
  1
\C7;DRAWN\C7;
  7
standard
210
0
220
0
230
1
 50
0
 73
    1
 44
1
  0
MTEXT
  5
463
100
AcDbEntity
  8
CONTINUOUS
  6
ByLayer
 62
  256
370
   -1
100
AcDbMText
 10
11.5981115451
 20
2.02314188428
 30
0
 40
0.0536235889416
 41
0.5839013018085366
 71
    1
 72
    1
  1
\C7;CHECKED\C7;
  7
standard
210
0
220
0
230
1
 50
0
 73
    1
 44
1
  0
MTEXT
  5
464
100
AcDbEntity
  8
CONTINUOUS
  6
ByLayer
 62
  256
370
   -1
100
AcDbMText
 10
13.352296777
 20
0.342247266662
 30
0
 40
0.07149811858879999
 41
0.4210444761340444
 71
    1
 72
    1
  1
\C7;2\C7;
  7
standard
210
0
220
0
230
1
 50
0
 73
    1
 44
1
  0
MTEXT
  5
465
100
AcDbEntity
  8
CONTINUOUS
  6
ByLayer
 62
  256
370
   -1
100
AcDbMText
 10
9.704144788860001
 20
0.9287469313309999
 30
0
 40
0.044686324118
 41
1.597536058797713
 71
    1
 72
    1
  1
\C7;LICENSE FOR DISTRIBUTIVE ECONOMICS. FOR \C7;
  7
standard
210
0
220
0
230
1
 50
0
 73
    1
 44
1
  0
MTEXT
  5
466
100
AcDbEntity
  8
CONTINUOUS
  6
ByLayer
 62
  256
370
   -1
100
AcDbMText
 10
12.1967072781
 20
2.41539617384
 30
0
 40
0.0536235889416
 41
0.4706959473762666
 71
    1
 72
    1
  1
\C7;NAME\C7;
  7
standard
210
0
220
0
230
1
 50
0
 73
    1
 44
1
  0
MTEXT
  5
467
100
AcDbEntity
  8
CONTINUOUS
  6
ByLayer
 62
  256
370
   -1
100
AcDbMText
 10
12.1247775615
 20
1.40810952244
 30
0
 40
0.0536235889416
 41
0.3455742398458667
 71
    1
 72
    1
  1
\C7;.X\C7;
  7
standard
210
0
220
0
230
1
 50
0
 73
    1
 44
1
  0
MTEXT
  5
468
100
AcDbEntity
  8
CONTINUOUS
  6
ByLayer
 62
  256
370
   -1
100
AcDbMText
 10
11.5952182844
 20
1.84062215402
 30
0
 40
0.0536235889416
 41
0.4885704770234667
 71
    1
 72
    1
  1
\C7;APPR.\C7;
  7
standard
210
0
220
0
230
1
 50
0
 73
    1
 44
1
  0
MTEXT
  5
469
100
AcDbEntity
  8
CONTINUOUS
  6
ByLayer
 62
  256
370
   -1
100
AcDbMText
 10
12.0671129602
 20
1.79144010769
 30
0
 40
0.0775536798368
 41
0.1852671240545778
 71
    4
 72
    1
  1
\C7;
  7
standard
210
0
220
0
230
1
 50
0
 73
    1
 44
1
  0
MTEXT
  5
46A
100
AcDbEntity
  8
CONTINUOUS
  6
ByLayer
 62
  256
370
   -1
100
AcDbMText
 10
13.4009949841
 20
10.8660102694
 30
0
 40
0.07149811858879999
 41
0.4210444761340444
 71
    1
 72
    1
  1
\C7;2\C7;
  7
standard
210
0
220
0
230
1
 50
0
 73
    1
 44
1
  0
MTEXT
  5
46B
100
AcDbEntity
  8
CONTINUOUS
  6
ByLayer
 62
  256
370
   -1
100
AcDbMText
 10
12.6790060209
 20
2.16159715427
 30
0
 40
0.0775536798368
 41
0.1852671240545778
 71
    4
 72
    1
  1
\C7;
  7
standard
210
0
220
0
230
1
 50
0
 73
    1
 44
1
  0
MTEXT
  5
46C
100
AcDbEntity
  8
CONTINUOUS
  6
ByLayer
 62
  256
370
   -1
100
AcDbMText
 10
13.7070501432
 20
1.11292980944
 30
0
 40
0.0804353834124
 41
0.969693233360605
 71
    1
 72
    1
  1
\C7;DWG.  NO.\C7;
  7
standard
210
0
220
0
230
1
 50
0
 73
    1
 44
1
  0
MTEXT
  5
46D
100
AcDbEntity
  8
CONTINUOUS
  6
ByLayer
 62
  256
370
   -1
100
AcDbMText
 10
9.47012493161
 20
0.343531883398
 30
0
 40
0.07149811858879999
 41
0.4289887115328
 71
    1
 72
    1
  1
\C7;4\C7;
  7
standard
210
0
220
0
230
1
 50
0
 73
    1
 44
1
  0
MTEXT
  5
46E
100
AcDbEntity
  8
CONTINUOUS
  6
ByLayer
 62
  256
370
   -1
100
AcDbMText
 10
14.3543842928
 20
0.583894128255
 30
0
 40
0.0804353834124
 41
0.8401028934184001
 71
    1
 72
    1
  1
\C7;WEIGHT:\C7;
  7
standard
210
0
220
0
230
1
 50
0
 73
    1
 44
1
  0
MTEXT
  5
46F
100
AcDbEntity
  8
CONTINUOUS
  6
ByLayer
 62
  256
370
   -1
100
AcDbMText
 10
11.432728105
 20
10.8593303954
 30
0
 40
0.07149811858879999
 41
0.4210444761340488
 71
    1
 72
    1
  1
\C7;3\C7;
  7
standard
210
0
220
0
230
1
 50
0
 73
    1
 44
1
  0
MTEXT
  5
470
100
AcDbEntity
  8
CONTINUOUS
  6
ByLayer
 62
  256
370
   -1
100
AcDbMText
 10
11.3787703324
 20
0.341427315776
 30
0
 40
0.07149811858879999
 41
0.4210444761340488
 71
    1
 72
    1
  1
\C7;3\C7;
  7
standard
210
0
220
0
230
1
 50
0
 73
    1
 44
1
  0
MTEXT
  5
471
100
AcDbEntity
  8
CONTINUOUS
  6
ByLayer
 62
  256
370
   -1
100
AcDbMText
 10
6.80009196124
 20
1.11928384135
 30
0
 40
0.0775536798368
 41
2.882411767267739
 71
    4
 72
    1
  3
\C7;PLEASE PROCEED AT YOUR OWN RISK!\C7;\PTHESE DRAWINGS ARE MEANT TO DOCUMENT\C7;\PPREVIOUS WORK AND PRESENT IDEAS ONLY\C7;\PTHEY ARE NOT MEANT TO BE A COMPLETE GUIDE.\C7;\PWORKING WITH ANY TOOLS, EQUIPMENT, \C7;\PHYDRAULICS, ELECTRONICS, ETC. MAY \
  1
C7;\PCAUSE SERIOUS INJURY OR DEATH.\C7;\P\C7;
  7
standard
210
0
220
0
230
1
 50
0
 73
    1
 44
1
  0
MTEXT
  5
472
100
AcDbEntity
  8
CONTINUOUS
  6
ByLayer
 62
  256
370
   -1
100
AcDbMText
 10
15.974082703
 20
1.11376163929
 30
0
 40
0.0804353834124
 41
0.625608537652
 71
    1
 72
    1
  1
\C7;REV\C7;
  7
standard
210
0
220
0
230
1
 50
0
 73
    1
 44
1
  0
MTEXT
  5
473
100
AcDbEntity
  8
CONTINUOUS
  6
ByLayer
 62
  256
370
   -1
100
AcDbMText
 10
3.55098702735
 20
10.8584654291
 30
0
 40
0.07149811858879999
 41
0.4210444761340444
 71
    1
 72
    1
  1
\C7;7\C7;
  7
standard
210
0
220
0
230
1
 50
0
 73
    1
 44
1
  0
MTEXT
  5
474
100
AcDbEntity
  8
CONTINUOUS
  6
ByLayer
 62
  256
370
   -1
100
AcDbMText
 10
16.4820809255
 20
1.80243379177
 30
0
 40
0.07149811858879999
 41
0.4369329469315555
 71
    1
 72
    1
  1
\C7;A\C7;
  7
standard
210
0
220
0
230
1
 50
0
 73
    1
 44
1
  0
MTEXT
  5
475
100
AcDbEntity
  8
CONTINUOUS
  6
ByLayer
 62
  256
370
   -1
100
AcDbMText
 10
7.47869468193
 20
10.8670932197
 30
0
 40
0.07149811858879999
 41
0.4210444761340488
 71
    1
 72
    1
  1
\C7;5\C7;
  7
standard
210
0
220
0
230
1
 50
0
 73
    1
 44
1
  0
MTEXT
  5
476
100
AcDbEntity
  8
CONTINUOUS
  6
ByLayer
 62
  256
370
   -1
100
AcDbMText
 10
0.427314415038
 20
6.9401519559
 30
0
 40
0.07149811858879999
 41
0.4210444761340444
 71
    1
 72
    1
  1
\C7;C\C7;
  7
standard
210
0
220
0
230
1
 50
0
 73
    1
 44
1
  0
MTEXT
  5
477
100
AcDbEntity
  8
CONTINUOUS
  6
ByLayer
 62
  256
370
   -1
100
AcDbMText
 10
12.9507724147
 20
1.40810952244
 30
0
 40
0.0536235889416
 41
0.4528214177290666
 71
    1
 72
    1
  1
\C7;.XXX\C7;
  7
standard
210
0
220
0
230
1
 50
0
 73
    1
 44
1
  0
MTEXT
  5
478
100
AcDbEntity
  8
CONTINUOUS
  6
ByLayer
 62
  256
370
   -1
100
AcDbMText
 10
13.6651407077
 20
1.7171682523
 30
0
 40
0.08617075537420001
 41
1.201603311051355
 71
    4
 72
    1
  1
\C7;L-Q6\C7;\H0.95x;
  7
standard
210
0
220
0
230
1
 50
0
 73
    1
 44
1
  0
MTEXT
  5
479
100
AcDbEntity
  8
CONTINUOUS
  6
ByLayer
 62
  256
370
   -1
100
AcDbMText
 10
13.2990559431
 20
2.04849907575
 30
0
 40
0.0804353834124
 41
1.117158085897531
 71
    1
 72
    1
  1
\C7;DESCRIPTION:\C7;
  7
standard
210
0
220
0
230
1
 50
0
 73
    1
 44
1
  0
MTEXT
  5
47A
100
AcDbEntity
  8
CONTINUOUS
  6
ByLayer
 62
  256
370
   -1
100
AcDbMText
 10
16.4711826244
 20
6.93488774165
 30
0
 40
0.07149811858879999
 41
0.4210444761340444
 71
    1
 72
    1
  1
\C7;C\C7;
  7
standard
210
0
220
0
230
1
 50
0
 73
    1
 44
1
  0
MTEXT
  5
47B
100
AcDbEntity
  8
CONTINUOUS
  6
ByLayer
 62
  256
370
   -1
100
AcDbMText
 10
13.3235206706
 20
0.587696530819
 30
0
 40
0.0804353834124
 41
0.7775420226007259
 71
    1
 72
    1
  1
\C7;SCALE:\C7;
  7
standard
210
0
220
0
230
1
 50
0
 73
    1
 44
1
  0
MTEXT
  5
47C
100
AcDbEntity
  8
CONTINUOUS
  6
ByLayer
 62
  256
370
   -1
100
AcDbMText
 10
15.852709192
 20
0.848986032441
 30
0
 40
0.155107359674
 41
0.3705342481101112
 71
    4
 72
    1
  1
\C7;
  7
standard
210
0
220
0
230
1
 50
0
 73
    1
 44
1
  0
MTEXT
  5
47D
100
AcDbEntity
  8
CONTINUOUS
  6
ByLayer
 62
  256
370
   -1
100
AcDbMText
 10
5.49868768611
 20
10.8665566623
 30
0
 40
0.07149811858879999
 41
0.4210444761340488
 71
    1
 72
    1
  1
\C7;6\C7;
  7
standard
210
0
220
0
230
1
 50
0
 73
    1
 44
1
  0
MTEXT
  5
47E
100
AcDbEntity
  8
CONTINUOUS
  6
ByLayer
 62
  256
370
   -1
100
AcDbMText
 10
9.704144788860001
 20
0.829376856762
 30
0
 40
0.044686324118
 41
1.163085713849056
 71
    1
 72
    1
  1
\C7;FURTHER INFORMATION GO TO:\C7;
  7
standard
210
0
220
0
230
1
 50
0
 73
    1
 44
1
  0
MTEXT
  5
47F
100
AcDbEntity
  8
CONTINUOUS
  6
ByLayer
 62
  256
370
   -1
100
AcDbMText
 10
9.704144788860001
 20
0.630636707625
 30
0
 40
0.044686324118
 41
1.473407390165751
 71
    1
 72
    1
  1
\C7;OPENSOURCEECOLOGY.ORG/WIKI/LICENSE \C7;
  7
standard
210
0
220
0
230
1
 50
0
 73
    1
 44
1
  0
MTEXT
  5
480
100
AcDbEntity
  8
CONTINUOUS
  6
ByLayer
 62
  256
370
   -1
100
AcDbMText
 10
12.0746666615
 20
1.98029600729
 30
0
 40
0.0775536798368
 41
0.1852671240545778
 71
    4
 72
    1
  1
\C7;
  7
standard
210
0
220
0
230
1
 50
0
 73
    1
 44
1
  0
MTEXT
  5
481
100
AcDbEntity
  8
CONTINUOUS
  6
ByLayer
 62
  256
370
   -1
100
AcDbMText
 10
12.4654202198
 20
1.24618552801
 30
0
 40
0.0732451420681
 41
0.6266528821381935
 71
    4
 72
    1
  1
\C7;+-.03\C7;
  7
standard
210
0
220
0
230
1
 50
0
 73
    1
 44
1
  0
MTEXT
  5
482
100
AcDbEntity
  8
CONTINUOUS
  6
ByLayer
 62
  256
370
   -1
100
AcDbMText
 10
0.426401731406
 20
4.42305363331
 30
0
 40
0.07149811858879999
 41
0.4289887115328
 71
    1
 72
    1
  1
\C7;B\C7;
  7
standard
210
0
220
0
230
1
 50
0
 73
    1
 44
1
  0
MTEXT
  5
483
100
AcDbEntity
  8
CONTINUOUS
  6
ByLayer
 62
  256
370
   -1
100
AcDbMText
 10
0.426009949526
 20
1.7856582291
 30
0
 40
0.07149811858879999
 41
0.4369329469315555
 71
    1
 72
    1
  1
\C7;A\C7;
  7
standard
210
0
220
0
230
1
 50
0
 73
    1
 44
1
  0
ENDBLK
  5
A1
330
9F
100
AcDbEntity
  8
0
100
AcDbBlockEnd
  0
BLOCK
  5
A3
330
A2
100
AcDbEntity
  8
0
100
AcDbBlockBegin
  2
BLOCK4
 70
    0
 10
0
 20
0
  3
BLOCK4
  1

  0
CIRCLE
  5
484
100
AcDbEntity
  8
0
  6
ByLayer
 62
  256
370
   -1
100
AcDbCircle
 10
12.5727822224
 20
0.77973765604
 40
0.0787401574803
  0
CIRCLE
  5
485
100
AcDbEntity
  8
0
  6
ByLayer
 62
  256
370
   -1
100
AcDbCircle
 10
12.5727822224
 20
0.77973765604
 40
0.157480314961
  0
LINE
  5
486
100
AcDbEntity
  8
0
  6
ByLayer
 62
  256
370
   -1
100
AcDbLine
 10
12.8090026948
 20
0.85847781352
 11
12.8090026948
 21
0.700997498559
  0
LINE
  5
487
100
AcDbEntity
  8
0
  6
ByLayer
 62
  256
370
   -1
100
AcDbLine
 10
12.8090026948
 20
0.700997498559
 11
13.1239633247
 21
0.622257341079
  0
LINE
  5
488
100
AcDbEntity
  8
0
  6
ByLayer
 62
  256
370
   -1
100
AcDbLine
 10
13.1239633247
 20
0.622257341079
 11
13.1239633247
 21
0.937217971
  0
LINE
  5
489
100
AcDbEntity
  8
0
  6
ByLayer
 62
  256
370
   -1
100
AcDbLine
 10
13.1239633247
 20
0.937217971
 11
12.8090026948
 21
0.85847781352
  0
LINE
  5
48A
100
AcDbEntity
  8
0
  6
ByLayer
 62
  256
370
   -1
100
AcDbLine
 10
12.3365617499
 20
0.77973765604
 11
13.2027034822
 21
0.77973765604
  0
LINE
  5
48B
100
AcDbEntity
  8
0
  6
ByLayer
 62
  256
370
   -1
100
AcDbLine
 10
12.5727822224
 20
1.01595812848
 11
12.5727822224
 21
0.543517183599
  0
ENDBLK
  5
A4
330
A2
100
AcDbEntity
  8
0
100
AcDbBlockEnd
  0
BLOCK
  5
A6
330
A5
100
AcDbEntity
  8
0
100
AcDbBlockBegin
  2
BLOCK5
 70
    0
 10
0
 20
0
  3
BLOCK5
  1

  0
MTEXT
  5
48C
100
AcDbEntity
  8
0
  6
ByLayer
 62
  256
370
   -1
100
AcDbMText
 10
0
 20
0.112491480021
 30
0
 40
0.0536235889416
 41
1.379317825635672
 71
    1
 72
    1
  1
\C7;UNLESS OTHERWISE SPECIFIED\C7;
  7
standard
210
0
220
0
230
1
 50
0
 73
    1
 44
1
  0
MTEXT
  5
48D
100
AcDbEntity
  8
0
  6
ByLayer
 62
  256
370
   -1
100
AcDbMText
 10
0
 20
0.00312140263981
 30
0
 40
0.0536235889416
 41
1.304840630140655
 71
    1
 72
    1
  1
\C7; DIMENSIONS ARE IN INCHES\C7;
  7
standard
210
0
220
0
230
1
 50
0
 73
    1
 44
1
  0
ENDBLK
  5
A7
330
A5
100
AcDbEntity
  8
0
100
AcDbBlockEnd
  0
BLOCK
  5
A9
330
A8
100
AcDbEntity
  8
0
100
AcDbBlockBegin
  2
L-Q6
 70
    0
 10
0
 20
0
  3
L-Q6
  1

  0
LINE
  5
48E
100
AcDbEntity
  8
VISIBLE
  6
ByLayer
 62
  256
370
   -1
100
AcDbLine
 10
5.99930683647
 20
4.78042046808
 11
5.99930683647
 21
4.84292046808
  0
LINE
  5
48F
100
AcDbEntity
  8
VISIBLE
  6
ByLayer
 62
  256
370
   -1
100
AcDbLine
 10
5.99930683647
 20
4.84292046808
 11
4.49930683647
 21
4.84292046808
  0
LINE
  5
490
100
AcDbEntity
  8
VISIBLE
  6
ByLayer
 62
  256
370
   -1
100
AcDbLine
 10
4.49930683647
 20
4.78042046808
 11
5.99930683647
 21
4.78042046808
  0
LINE
  5
491
100
AcDbEntity
  8
VISIBLE
  6
ByLayer
 62
  256
370
   -1
100
AcDbLine
 10
4.49930683647
 20
4.78042046808
 11
4.49930683647
 21
4.84292046808
  0
DIMENSION
  5
492
100
AcDbEntity
  8
DIMENSIONS
  6
ByLayer
 62
  256
370
   -1
100
AcDbDimension
 10
0
 20
0
 30
0
 11
8.16489449448
 21
9.17501960167
 31
0
 70
   32
  1
<>
 71
    5
 72
    0
  3
Standard
 53
0
210
0
220
0
230
1
100
AcDbAlignedDimension
 13
4.49930683647
 23
4.78042046808
 33
0
 14
4.49930683647
 24
4.84292046808
 34
0
 50
90
100
AcDbRotatedDimension
  0
LINE
  5
493
100
AcDbEntity
  8
VISIBLE
  6
ByLayer
 62
  256
370
   -1
100
AcDbLine
 10
4.49930683647
 20
5.14910671655
 11
4.49930683647
 21
8.89910671655
  0
LINE
  5
494
100
AcDbEntity
  8
VISIBLE
  6
ByLayer
 62
  256
370
   -1
100
AcDbLine
 10
5.99930683647
 20
5.14910671655
 11
4.49930683647
 21
5.14910671655
  0
LINE
  5
495
100
AcDbEntity
  8
VISIBLE
  6
ByLayer
 62
  256
370
   -1
100
AcDbLine
 10
4.49930683647
 20
8.89910671655
 11
5.99930683647
 21
8.89910671655
  0
LINE
  5
496
100
AcDbEntity
  8
VISIBLE
  6
ByLayer
 62
  256
370
   -1
100
AcDbLine
 10
5.99930683647
 20
8.89910671655
 11
5.99930683647
 21
5.14910671655
  0
DIMENSION
  5
497
100
AcDbEntity
  8
DIMENSIONS
  6
ByLayer
 62
  256
370
   -1
100
AcDbDimension
 10
0
 20
0
 30
0
 11
8.21283923172
 21
12.724017759
 31
0
 70
   32
  1
<>
 71
    5
 72
    0
  3
Standard
 53
0
210
0
220
0
230
1
100
AcDbAlignedDimension
 13
4.49930683647
 23
5.14910671655
 33
0
 14
4.49930683647
 24
8.89910671655
 34
0
 50
90
100
AcDbRotatedDimension
  0
DIMENSION
  5
498
100
AcDbEntity
  8
DIMENSIONS
  6
ByLayer
 62
  256
370
   -1
100
AcDbDimension
 10
0
 20
0
 30
0
 11
9.74861367293
 21
14.5299230786
 31
0
 70
   32
  1
<>
 71
    5
 72
    0
  3
Standard
 53
0
210
0
220
0
230
1
100
AcDbAlignedDimension
 13
4.49930683647
 23
8.89910671655
 33
0
 14
5.99930683647
 24
8.89910671655
 34
0
100
AcDbRotatedDimension
  0
LINE
  5
499
100
AcDbEntity
  8
VISIBLE
  6
ByLayer
 62
  256
370
   -1
100
AcDbLine
 10
6.30549318208
 20
4.78042046808
 11
6.30549318208
 21
4.84292046808
  0
LINE
  5
49A
100
AcDbEntity
  8
VISIBLE
  6
ByLayer
 62
  256
370
   -1
100
AcDbLine
 10
10.0554931821
 20
4.84292046808
 11
6.30549318208
 21
4.84292046808
  0
LINE
  5
49B
100
AcDbEntity
  8
VISIBLE
  6
ByLayer
 62
  256
370
   -1
100
AcDbLine
 10
10.0554931821
 20
4.78042046808
 11
10.0554931821
 21
4.84292046808
  0
LINE
  5
49C
100
AcDbEntity
  8
VISIBLE
  6
ByLayer
 62
  256
370
   -1
100
AcDbLine
 10
6.30549318208
 20
4.78042046808
 11
10.0554931821
 21
4.78042046808
  0
LINE
  5
49D
100
AcDbEntity
  8
VISIBLE
  6
ByLayer
 62
  256
370
   -1
100
AcDbLine
 10
6.32433765619
 20
6.59034290793
 11
8.975988085639999
 21
8.12127399717
  0
LINE
  5
49E
100
AcDbEntity
  8
VISIBLE
  6
ByLayer
 62
  256
370
   -1
100
AcDbLine
 10
7.38499782797
 20
5.92693943592
 11
7.38499782797
 21
5.97797047223
  0
LINE
  5
49F
100
AcDbEntity
  8
VISIBLE
  6
ByLayer
 62
  256
370
   -1
100
AcDbLine
 10
7.38499782797
 20
5.97797047223
 11
6.32433765619
 21
6.59034290793
  0
LINE
  5
4A0
100
AcDbEntity
  8
VISIBLE
  6
ByLayer
 62
  256
370
   -1
100
AcDbLine
 10
6.32433765619
 20
6.53931187162
 11
7.38499782797
 21
5.92693943592
  0
LINE
  5
4A1
100
AcDbEntity
  8
VISIBLE
  6
ByLayer
 62
  256
370
   -1
100
AcDbLine
 10
8.975988085639999
 20
8.12127399717
 11
10.0366482574
 21
7.50890156147
  0
LINE
  5
4A2
100
AcDbEntity
  8
VISIBLE
  6
ByLayer
 62
  256
370
   -1
100
AcDbLine
 10
10.0366482574
 20
7.50890156147
 11
7.38499782797
 21
5.97797047223
  0
LINE
  5
4A3
100
AcDbEntity
  8
VISIBLE
  6
ByLayer
 62
  256
370
   -1
100
AcDbLine
 10
6.32433765619
 20
6.53931187162
 11
6.32433765619
 21
6.59034290793
  0
LINE
  5
4A4
100
AcDbEntity
  8
VISIBLE
  6
ByLayer
 62
  256
370
   -1
100
AcDbLine
 10
10.0366482574
 20
7.45787052516
 11
10.0366482574
 21
7.50890156147
  0
LINE
  5
4A5
100
AcDbEntity
  8
VISIBLE
  6
ByLayer
 62
  256
370
   -1
100
AcDbLine
 10
7.38499782797
 20
5.92693943592
 11
10.0366482574
 21
7.45787052516
  0
LINE
  5
4A6
100
AcDbEntity
  8
HIDDEN
  6
ByLayer
 62
  256
370
   -1
100
AcDbLine
 10
8.975988085639999
 20
8.12127399717
 11
8.975988085639999
 21
8.07024296086
  0
LINE
  5
4A7
100
AcDbEntity
  8
HIDDEN
  6
ByLayer
 62
  256
370
   -1
100
AcDbLine
 10
8.975988085639999
 20
8.07024296086
 11
6.32433765619
 21
6.53931187162
  0
LINE
  5
4A8
100
AcDbEntity
  8
HIDDEN
  6
ByLayer
 62
  256
370
   -1
100
AcDbLine
 10
10.0366482574
 20
7.45787052516
 11
8.975988085639999
 21
8.07024296086
  0
INSERT
  5
4A9
100
AcDbEntity
  8
CONTINUOUS
  6
ByLayer
 62
  256
370
   -1
100
AcDbBlockReference
  2
BLOCK3
 10
0
 20
0
 30
0
 41
1
 42
1
 43
0
 50
0
 70
    1
 71
    1
 44
0
 45
0
  0
ENDBLK
  5
AA
330
A8
100
AcDbEntity
  8
0
100
AcDbBlockEnd
  0
BLOCK
  5
AC
330
AB
100
AcDbEntity
  8
0
100
AcDbBlockBegin
  2
D7
 70
    0
 10
0
 20
0
  3
D7
  1

  0
MTEXT
  5
4AA
100
AcDbEntity
  8
DIMENSIONS
  6
ByLayer
 62
  256
370
   -1
100
AcDbMText
 10
6.6361488883
 20
7.20043459464
 30
0
 40
0.103404906449
 41
0.2987252852971175
 71
    5
 72
    1
  1
1.500
  7
standard
210
0
220
0
230
1
 50
0
 73
    1
 44
1
  0
MTEXT
  5
4AB
100
AcDbEntity
  8
DIMENSIONS
  6
ByLayer
 62
  256
370
   -1
100
AcDbMText
 10
6.6361488883
 20
7.20043459464
 30
0
 40
0.103404906449
 41
0
 71
    5
 72
    1
  1

  7
standard
210
0
220
0
230
1
 50
0
 73
    1
 44
1
  0
MTEXT
  5
4AC
100
AcDbEntity
  8
DIMENSIONS
  6
ByLayer
 62
  256
370
   -1
100
AcDbMText
 10
6.6361488883
 20
7.20043459464
 30
0
 40
0.103404906449
 41
0
 71
    5
 72
    1
  1

  7
standard
210
0
220
0
230
1
 50
0
 73
    1
 44
1
  0
LINE
  5
4AD
100
AcDbEntity
  8
DIMENSIONS
  6
ByLayer
 62
  256
370
   -1
100
AcDbLine
 10
6.86669452547
 20
7.45043459464
 11
6.5736488883
 21
7.45043459464
  0
LINE
  5
4AE
100
AcDbEntity
  8
DIMENSIONS
  6
ByLayer
 62
  256
370
   -1
100
AcDbLine
 10
7.36669452547
 20
6.95043459464
 11
6.5736488883
 21
6.95043459464
  0
LWPOLYLINE
  5
4AF
100
AcDbEntity
  8
DIMENSIONS
  6
ByLayer
 62
  256
370
   -1
100
AcDbPolyline
 90
    4
 70
    0
 43
0
 10
6.6361488883
 20
7.45043459464
 10
6.6486488883
 20
7.39043459464
 10
6.6236488883
 20
7.39043459464
 10
6.6361488883
 20
7.45043459464
  0
LINE
  5
4B0
100
AcDbEntity
  8
DIMENSIONS
  6
ByLayer
 62
  256
370
   -1
100
AcDbLine
 10
6.6361488883
 20
7.39043459464
 11
6.63614888079
 21
7.34626788793
  0
LWPOLYLINE
  5
4B1
100
AcDbEntity
  8
DIMENSIONS
  6
ByLayer
 62
  256
370
   -1
100
AcDbPolyline
 90
    4
 70
    0
 43
0
 10
6.6361488883
 20
6.95043459464
 10
6.6236488883
 20
7.01043459464
 10
6.6486488883
 20
7.01043459464
 10
6.6361488883
 20
6.95043459464
  0
LINE
  5
4B2
100
AcDbEntity
  8
DIMENSIONS
  6
ByLayer
 62
  256
370
   -1
100
AcDbLine
 10
6.6361488883
 20
7.01043459464
 11
6.63614888079
 21
7.05460126131
  0
ENDBLK
  5
AD
330
AB
100
AcDbEntity
  8
0
100
AcDbBlockEnd
  0
BLOCK
  5
AF
330
AE
100
AcDbEntity
  8
0
100
AcDbBlockBegin
  2
D8
 70
    0
 10
0
 20
0
  3
D8
  1

  0
MTEXT
  5
4B3
100
AcDbEntity
  8
DIMENSIONS
  6
ByLayer
 62
  256
370
   -1
100
AcDbMText
 10
5.85308225136
 20
6.88292555922
 30
0
 40
0.103404906449
 41
0.3331935874467842
 71
    5
 72
    1
  1
4.500
  7
standard
210
0
220
0
230
1
 50
0
 73
    1
 44
1
  0
MTEXT
  5
4B4
100
AcDbEntity
  8
DIMENSIONS
  6
ByLayer
 62
  256
370
   -1
100
AcDbMText
 10
5.85308225136
 20
6.88292555922
 30
0
 40
0.103404906449
 41
0
 71
    5
 72
    1
  1

  7
standard
210
0
220
0
230
1
 50
0
 73
    1
 44
1
  0
MTEXT
  5
4B5
100
AcDbEntity
  8
DIMENSIONS
  6
ByLayer
 62
  256
370
   -1
100
AcDbMText
 10
5.85308225136
 20
6.88292555922
 30
0
 40
0.103404906449
 41
0
 71
    5
 72
    1
  1

  7
standard
210
0
220
0
230
1
 50
0
 73
    1
 44
1
  0
LINE
  5
4B6
100
AcDbEntity
  8
DIMENSIONS
  6
ByLayer
 62
  256
370
   -1
100
AcDbLine
 10
6.86669452547
 20
7.45043459464
 11
5.79058225136
 21
7.45043459464
  0
LINE
  5
4B7
100
AcDbEntity
  8
DIMENSIONS
  6
ByLayer
 62
  256
370
   -1
100
AcDbLine
 10
7.36669452547
 20
5.95043459464
 11
5.79058225136
 21
5.95043459464
  0
LWPOLYLINE
  5
4B8
100
AcDbEntity
  8
DIMENSIONS
  6
ByLayer
 62
  256
370
   -1
100
AcDbPolyline
 90
    4
 70
    0
 43
0
 10
5.85308225136
 20
7.45043459464
 10
5.86558225136
 20
7.39043459464
 10
5.84058225136
 20
7.39043459464
 10
5.85308225136
 20
7.45043459464
  0
LINE
  5
4B9
100
AcDbEntity
  8
DIMENSIONS
  6
ByLayer
 62
  256
370
   -1
100
AcDbLine
 10
5.85308225136
 20
7.39043459464
 11
5.85308224385
 21
7.02875881996
  0
LWPOLYLINE
  5
4BA
100
AcDbEntity
  8
DIMENSIONS
  6
ByLayer
 62
  256
370
   -1
100
AcDbPolyline
 90
    4
 70
    0
 43
0
 10
5.85308225136
 20
5.95043459464
 10
5.84058225136
 20
6.01043459464
 10
5.86558225136
 20
6.01043459464
 10
5.85308225136
 20
5.95043459464
  0
LINE
  5
4BB
100
AcDbEntity
  8
DIMENSIONS
  6
ByLayer
 62
  256
370
   -1
100
AcDbLine
 10
5.85308225136
 20
6.01043459464
 11
5.85308224385
 21
6.73709219334
  0
ENDBLK
  5
B0
330
AE
100
AcDbEntity
  8
0
100
AcDbBlockEnd
  0
BLOCK
  5
B2
330
B1
100
AcDbEntity
  8
0
100
AcDbBlockBegin
  2
BLOCK9
 70
    0
 10
0
 20
0
  3
BLOCK9
  1

  0
LINE
  5
4BC
100
AcDbEntity
  8
CONTINUOUS
  6
ByLayer
 62
  256
370
   -1
100
AcDbLine
 10
0.626251604621
 20
10.6420731707
 11
16.3762516046
 21
10.6420731707
  0
LINE
  5
4BD
100
AcDbEntity
  8
CONTINUOUS
  6
ByLayer
 62
  256
370
   -1
100
AcDbLine
 10
0.626251604621
 20
10.6420731707
 11
0.626251604621
 21
0.392073170732
  0
LINE
  5
4BE
100
AcDbEntity
  8
CONTINUOUS
  6
ByLayer
 62
  256
370
   -1
100
AcDbLine
 10
16.3762516046
 20
0.392073170732
 11
0.626251604621
 21
0.392073170732
  0
LINE
  5
4BF
100
AcDbEntity
  8
CONTINUOUS
  6
ByLayer
 62
  256
370
   -1
100
AcDbLine
 10
16.3762516046
 20
0.392073170732
 11
16.3762516046
 21
10.6420731707
  0
LINE
  5
4C0
100
AcDbEntity
  8
CONTINUOUS
  6
ByLayer
 62
  256
370
   -1
100
AcDbLine
 10
16.3762516046
 20
8.0752921748
 11
16.5012516046
 21
8.0752921748
  0
LINE
  5
4C1
100
AcDbEntity
  8
CONTINUOUS
  6
ByLayer
 62
  256
370
   -1
100
AcDbLine
 10
16.3762516046
 20
5.5127921748
 11
16.5012516046
 21
5.5127921748
  0
LINE
  5
4C2
100
AcDbEntity
  8
CONTINUOUS
  6
ByLayer
 62
  256
370
   -1
100
AcDbLine
 10
16.3762516046
 20
5.5127921748
 11
16.4434330337
 21
5.53680182526
  0
LINE
  5
4C3
100
AcDbEntity
  8
CONTINUOUS
  6
ByLayer
 62
  256
370
   -1
100
AcDbLine
 10
16.3762516046
 20
5.5127921748
 11
16.4434330337
 21
5.49021364932
  0
LINE
  5
4C4
100
AcDbEntity
  8
CONTINUOUS
  6
ByLayer
 62
  256
370
   -1
100
AcDbLine
 10
16.4434330337
 20
5.53680182526
 11
16.4434330337
 21
5.49021364932
  0
LINE
  5
4C5
100
AcDbEntity
  8
CONTINUOUS
  6
ByLayer
 62
  256
370
   -1
100
AcDbLine
 10
16.3762516046
 20
5.5127921748
 11
16.4434330337
 21
5.52183033312
  0
LINE
  5
4C6
100
AcDbEntity
  8
CONTINUOUS
  6
ByLayer
 62
  256
370
   -1
100
AcDbLine
 10
16.3762516046
 20
5.5127921748
 11
16.4434330337
 21
5.50248405478
  0
LINE
  5
4C7
100
AcDbEntity
  8
CONTINUOUS
  6
ByLayer
 62
  256
370
   -1
100
AcDbLine
 10
16.3762516046
 20
2.9502921748
 11
16.5012516046
 21
2.9502921748
  0
LINE
  5
4C8
100
AcDbEntity
  8
CONTINUOUS
  6
ByLayer
 62
  256
370
   -1
100
AcDbLine
 10
0.626251604621
 20
2.95457317073
 11
0.501251604621
 21
2.95457317073
  0
LINE
  5
4C9
100
AcDbEntity
  8
CONTINUOUS
  6
ByLayer
 62
  256
370
   -1
100
AcDbLine
 10
0.626251604621
 20
5.51707317073
 11
0.559070175518
 21
5.50676505072
  0
LINE
  5
4CA
100
AcDbEntity
  8
CONTINUOUS
  6
ByLayer
 62
  256
370
   -1
100
AcDbLine
 10
0.626251604621
 20
5.51707317073
 11
0.559070175518
 21
5.52611132905
  0
LINE
  5
4CB
100
AcDbEntity
  8
CONTINUOUS
  6
ByLayer
 62
  256
370
   -1
100
AcDbLine
 10
0.559070175518
 20
5.5410828212
 11
0.559070175518
 21
5.49449464526
  0
LINE
  5
4CC
100
AcDbEntity
  8
CONTINUOUS
  6
ByLayer
 62
  256
370
   -1
100
AcDbLine
 10
0.626251604621
 20
5.51707317073
 11
0.559070175518
 21
5.49449464526
  0
LINE
  5
4CD
100
AcDbEntity
  8
CONTINUOUS
  6
ByLayer
 62
  256
370
   -1
100
AcDbLine
 10
0.626251604621
 20
5.51707317073
 11
0.559070175518
 21
5.5410828212
  0
LINE
  5
4CE
100
AcDbEntity
  8
CONTINUOUS
  6
ByLayer
 62
  256
370
   -1
100
AcDbLine
 10
0.626251604621
 20
5.51707317073
 11
0.501251604621
 21
5.51707317073
  0
LINE
  5
4CF
100
AcDbEntity
  8
CONTINUOUS
  6
ByLayer
 62
  256
370
   -1
100
AcDbLine
 10
0.626251604621
 20
8.079573170730001
 11
0.501251604621
 21
8.079573170730001
  0
LINE
  5
4D0
100
AcDbEntity
  8
CONTINUOUS
  6
ByLayer
 62
  256
370
   -1
100
AcDbLine
 10
9.54980206352
 20
2.44962614087
 11
16.3762516046
 21
2.44962614087
  0
LINE
  5
4D1
100
AcDbEntity
  8
CONTINUOUS
  6
ByLayer
 62
  256
370
   -1
100
AcDbLine
 10
11.5513364013
 20
2.44962614087
 11
11.5513364013
 21
0.392073170732
  0
LINE
  5
4D2
100
AcDbEntity
  8
CONTINUOUS
  6
ByLayer
 62
  256
370
   -1
100
AcDbLine
 10
13.2432004658
 20
2.44962614087
 11
13.2432004658
 21
0.392073170732
  0
LINE
  5
4D3
100
AcDbEntity
  8
CONTINUOUS
  6
ByLayer
 62
  256
370
   -1
100
AcDbLine
 10
13.2432004658
 20
0.604959010098
 11
16.3762516046
 21
0.604959010098
  0
LINE
  5
4D4
100
AcDbEntity
  8
CONTINUOUS
  6
ByLayer
 62
  256
370
   -1
100
AcDbLine
 10
13.2432004658
 20
1.11193624566
 11
16.3762516046
 21
1.11193624566
  0
LINE
  5
4D5
100
AcDbEntity
  8
CONTINUOUS
  6
ByLayer
 62
  256
370
   -1
100
AcDbLine
 10
13.2432004658
 20
2.07462614087
 11
16.3762516046
 21
2.07462614087
  0
LINE
  5
4D6
100
AcDbEntity
  8
CONTINUOUS
  6
ByLayer
 62
  256
370
   -1
100
AcDbLine
 10
13.6596632587
 20
1.11193624566
 11
13.6596632587
 21
0.604959010098
  0
LINE
  5
4D7
100
AcDbEntity
  8
CONTINUOUS
  6
ByLayer
 62
  256
370
   -1
100
AcDbLine
 10
14.2861627554
 20
0.604959010098
 11
14.2861627554
 21
0.392073170732
  0
LINE
  5
4D8
100
AcDbEntity
  8
CONTINUOUS
  6
ByLayer
 62
  256
370
   -1
100
AcDbLine
 10
15.8043163091
 20
1.11193624566
 11
15.8043163091
 21
0.604959010098
  0
LINE
  5
4D9
100
AcDbEntity
  8
CONTINUOUS
  6
ByLayer
 62
  256
370
   -1
100
AcDbLine
 10
15.5189756774
 20
0.604959010098
 11
15.5189756774
 21
0.392073170732
  0
LINE
  5
4DA
100
AcDbEntity
  8
CONTINUOUS
  6
ByLayer
 62
  256
370
   -1
100
AcDbLine
 10
11.5513364013
 20
1.88712614087
 11
13.2432004658
 21
1.88712614087
  0
LINE
  5
4DB
100
AcDbEntity
  8
CONTINUOUS
  6
ByLayer
 62
  256
370
   -1
100
AcDbLine
 10
11.5513364013
 20
2.07462614087
 11
13.2432004658
 21
2.07462614087
  0
LINE
  5
4DC
100
AcDbEntity
  8
CONTINUOUS
  6
ByLayer
 62
  256
370
   -1
100
AcDbLine
 10
11.5513364013
 20
2.26212614087
 11
13.2432004658
 21
2.26212614087
  0
LINE
  5
4DD
100
AcDbEntity
  8
CONTINUOUS
  6
ByLayer
 62
  256
370
   -1
100
AcDbLine
 10
11.5513364013
 20
1.11668767505
 11
13.2432004658
 21
1.11668767505
  0
LINE
  5
4DE
100
AcDbEntity
  8
CONTINUOUS
  6
ByLayer
 62
  256
370
   -1
100
AcDbLine
 10
12.6404313067
 20
2.44962614087
 11
12.6404313067
 21
1.69962614087
  0
LINE
  5
4DF
100
AcDbEntity
  8
CONTINUOUS
  6
ByLayer
 62
  256
370
   -1
100
AcDbLine
 10
12.0248227272
 20
2.44962614087
 11
12.0248227272
 21
1.69962614087
  0
LINE
  5
4E0
100
AcDbEntity
  8
CONTINUOUS
  6
ByLayer
 62
  256
370
   -1
100
AcDbLine
 10
9.54980206352
 20
0.392073170732
 11
9.54980206352
 21
2.44962614087
  0
LINE
  5
4E1
100
AcDbEntity
  8
CONTINUOUS
  6
ByLayer
 62
  256
370
   -1
100
AcDbLine
 10
11.9625579365
 20
1.42415459873
 11
11.9625579365
 21
1.11668767505
  0
LINE
  5
4E2
100
AcDbEntity
  8
CONTINUOUS
  6
ByLayer
 62
  256
370
   -1
100
AcDbLine
 10
12.3737128259
 20
1.42415459873
 11
12.3737128259
 21
1.11668767505
  0
LINE
  5
4E3
100
AcDbEntity
  8
CONTINUOUS
  6
ByLayer
 62
  256
370
   -1
100
AcDbLine
 10
12.8181441331
 20
1.42415459873
 11
12.8181441331
 21
1.11668767505
  0
LINE
  5
4E4
100
AcDbEntity
  8
CONTINUOUS
  6
ByLayer
 62
  256
370
   -1
100
AcDbLine
 10
11.5513364013
 20
1.42415459873
 11
13.2432004658
 21
1.42415459873
  0
LINE
  5
4E5
100
AcDbEntity
  8
CONTINUOUS
  6
ByLayer
 62
  256
370
   -1
100
AcDbLine
 10
13.2432004658
 20
1.69962614087
 11
11.5513364013
 21
1.69962614087
  0
LINE
  5
4E6
100
AcDbEntity
  8
CONTINUOUS
  6
ByLayer
 62
  256
370
   -1
100
AcDbLine
 10
9.54980206352
 20
1.26508544565
 11
11.5513364013
 21
1.26508544565
  0
LINE
  5
4E7
100
AcDbEntity
  8
CONTINUOUS
  6
ByLayer
 62
  256
370
   -1
100
AcDbLine
 10
14.4072516046
 20
0.392073170732
 11
14.4072516046
 21
0.307273964934
  0
LINE
  5
4E8
100
AcDbEntity
  8
CONTINUOUS
  6
ByLayer
 62
  256
370
   -1
100
AcDbLine
 10
12.4385016046
 20
0.392073170732
 11
12.4385016046
 21
0.307273964934
  0
LINE
  5
4E9
100
AcDbEntity
  8
CONTINUOUS
  6
ByLayer
 62
  256
370
   -1
100
AcDbLine
 10
10.4697516046
 20
0.392073170732
 11
10.4697516046
 21
0.307273964934
  0
LINE
  5
4EA
100
AcDbEntity
  8
CONTINUOUS
  6
ByLayer
 62
  256
370
   -1
100
AcDbLine
 10
8.501001604620001
 20
0.392073170732
 11
8.501001604620001
 21
0.307273964934
  0
LINE
  5
4EB
100
AcDbEntity
  8
CONTINUOUS
  6
ByLayer
 62
  256
370
   -1
100
AcDbLine
 10
6.53225160462
 20
0.392073170732
 11
6.53225160462
 21
0.307273964934
  0
LINE
  5
4EC
100
AcDbEntity
  8
CONTINUOUS
  6
ByLayer
 62
  256
370
   -1
100
AcDbLine
 10
4.56350160462
 20
0.392073170732
 11
4.56350160462
 21
0.307273964934
  0
LINE
  5
4ED
100
AcDbEntity
  8
CONTINUOUS
  6
ByLayer
 62
  256
370
   -1
100
AcDbLine
 10
2.59475160462
 20
0.392073170732
 11
2.59475160462
 21
0.307273964934
  0
LINE
  5
4EE
100
AcDbEntity
  8
CONTINUOUS
  6
ByLayer
 62
  256
370
   -1
100
AcDbLine
 10
2.59475160462
 20
10.6420731707
 11
2.59475160462
 21
10.7268723765
  0
LINE
  5
4EF
100
AcDbEntity
  8
CONTINUOUS
  6
ByLayer
 62
  256
370
   -1
100
AcDbLine
 10
4.56350160462
 20
10.6420731707
 11
4.56350160462
 21
10.7268723765
  0
LINE
  5
4F0
100
AcDbEntity
  8
CONTINUOUS
  6
ByLayer
 62
  256
370
   -1
100
AcDbLine
 10
6.53225160462
 20
10.6420731707
 11
6.53225160462
 21
10.7268723765
  0
LINE
  5
4F1
100
AcDbEntity
  8
CONTINUOUS
  6
ByLayer
 62
  256
370
   -1
100
AcDbLine
 10
8.501001604620001
 20
10.6420731707
 11
8.501001604620001
 21
10.7268723765
  0
LINE
  5
4F2
100
AcDbEntity
  8
CONTINUOUS
  6
ByLayer
 62
  256
370
   -1
100
AcDbLine
 10
10.4697516046
 20
10.6420731707
 11
10.4697516046
 21
10.7268723765
  0
LINE
  5
4F3
100
AcDbEntity
  8
CONTINUOUS
  6
ByLayer
 62
  256
370
   -1
100
AcDbLine
 10
12.4385016046
 20
10.6420731707
 11
12.4385016046
 21
10.7268723765
  0
LINE
  5
4F4
100
AcDbEntity
  8
CONTINUOUS
  6
ByLayer
 62
  256
370
   -1
100
AcDbLine
 10
14.4072516046
 20
10.6420731707
 11
14.4072516046
 21
10.7268723765
  0
LINE
  5
4F5
100
AcDbEntity
  8
CONTINUOUS
  6
ByLayer
 62
  256
370
   -1
100
AcDbLine
 10
8.501001604620001
 20
10.6420731707
 11
8.48775048715
 21
10.6840054626
  0
LINE
  5
4F6
100
AcDbEntity
  8
CONTINUOUS
  6
ByLayer
 62
  256
370
   -1
100
AcDbLine
 10
8.501001604620001
 20
10.6420731707
 11
8.513556578459999
 21
10.6840054626
  0
LINE
  5
4F7
100
AcDbEntity
  8
CONTINUOUS
  6
ByLayer
 62
  256
370
   -1
100
AcDbLine
 10
8.513556578459999
 20
10.6840054626
 11
8.48775048715
 21
10.6840054626
  0
LINE
  5
4F8
100
AcDbEntity
  8
CONTINUOUS
  6
ByLayer
 62
  256
370
   -1
100
AcDbLine
 10
8.49396306469
 20
10.6840054626
 11
8.501001604620001
 21
10.6420731707
  0
LINE
  5
4F9
100
AcDbEntity
  8
CONTINUOUS
  6
ByLayer
 62
  256
370
   -1
100
AcDbLine
 10
8.505910329180001
 20
10.6840054626
 11
8.501001604620001
 21
10.6420731707
  0
LINE
  5
4FA
100
AcDbEntity
  8
CONTINUOUS
  6
ByLayer
 62
  256
370
   -1
100
AcDbLine
 10
8.501001604620001
 20
0.392073170732
 11
8.513556578459999
 21
0.3575
  0
LINE
  5
4FB
100
AcDbEntity
  8
CONTINUOUS
  6
ByLayer
 62
  256
370
   -1
100
AcDbLine
 10
8.513556578459999
 20
0.3575
 11
8.48775048715
 21
0.3575
  0
LINE
  5
4FC
100
AcDbEntity
  8
CONTINUOUS
  6
ByLayer
 62
  256
370
   -1
100
AcDbLine
 10
8.48775048715
 20
0.3575
 11
8.501001604620001
 21
0.392073170732
  0
INSERT
  5
4FD
100
AcDbEntity
  8
0
  6
ByLayer
 62
  256
370
   -1
100
AcDbBlockReference
  2
BLOCK10
 10
-0.37302643846
 20
0.0594801148978
 30
0
 41
1
 42
1
 43
0
 50
0
 70
    1
 71
    1
 44
0
 45
0
  0
INSERT
  5
4FE
100
AcDbEntity
  8
0
  6
ByLayer
 62
  256
370
   -1
100
AcDbBlockReference
  2
BLOCK11
 10
11.7562826626
 20
1.56976492583
 30
0
 41
1
 42
1
 43
0
 50
0
 70
    1
 71
    1
 44
0
 45
0
  0
MTEXT
  5
4FF
100
AcDbEntity
  8
CONTINUOUS
  6
ByLayer
 62
  256
370
   -1
100
AcDbMText
 10
12.9507724147
 20
1.40810952244
 30
0
 40
0.0536235889416
 41
0.4528214177290666
 71
    1
 72
    1
  1
\C7;.XXX\C7;
  7
standard
210
0
220
0
230
1
 50
0
 73
    1
 44
1
  0
MTEXT
  5
500
100
AcDbEntity
  8
CONTINUOUS
  6
ByLayer
 62
  256
370
   -1
100
AcDbMText
 10
13.6876444178
 20
2.24976231733
 30
0
 40
0.137873208599
 41
1.953203730027009
 71
    4
 72
    1
  1
\C7;CEB PRESS 5\C7;
  7
standard
210
0
220
0
230
1
 50
0
 73
    1
 44
1
  0
MTEXT
  5
501
100
AcDbEntity
  8
CONTINUOUS
  6
ByLayer
 62
  256
370
   -1
100
AcDbMText
 10
7.47869468193
 20
10.8670932197
 30
0
 40
0.07149811858879999
 41
0.4210444761340488
 71
    1
 72
    1
  1
\C7;5\C7;
  7
standard
210
0
220
0
230
1
 50
0
 73
    1
 44
1
  0
MTEXT
  5
502
100
AcDbEntity
  8
CONTINUOUS
  6
ByLayer
 62
  256
370
   -1
100
AcDbMText
 10
13.6651407077
 20
1.7171682523
 30
0
 40
0.08617075537420001
 41
1.20160331105135
 71
    4
 72
    1
  1
\C7;L-Q7\C7;\H0.95x;
  7
standard
210
0
220
0
230
1
 50
0
 73
    1
 44
1
  0
MTEXT
  5
503
100
AcDbEntity
  8
CONTINUOUS
  6
ByLayer
 62
  256
370
   -1
100
AcDbMText
 10
0.426401731406
 20
4.42305363331
 30
0
 40
0.07149811858879999
 41
0.4289887115328
 71
    1
 72
    1
  1
\C7;B\C7;
  7
standard
210
0
220
0
230
1
 50
0
 73
    1
 44
1
  0
MTEXT
  5
504
100
AcDbEntity
  8
CONTINUOUS
  6
ByLayer
 62
  256
370
   -1
100
AcDbMText
 10
13.3602911836
 20
1.09582620642
 30
0
 40
0.0804353834124
 41
0.6434830502467259
 71
    1
 72
    1
  1
\C7;SIZE\C7;
  7
standard
210
0
220
0
230
1
 50
0
 73
    1
 44
1
  0
MTEXT
  5
505
100
AcDbEntity
  8
CONTINUOUS
  6
ByLayer
 62
  256
370
   -1
100
AcDbMText
 10
12.1967072781
 20
2.41539617384
 30
0
 40
0.0536235889416
 41
0.4706959473762666
 71
    1
 72
    1
  1
\C7;NAME\C7;
  7
standard
210
0
220
0
230
1
 50
0
 73
    1
 44
1
  0
MTEXT
  5
506
100
AcDbEntity
  8
CONTINUOUS
  6
ByLayer
 62
  256
370
   -1
100
AcDbMText
 10
16.5114787596
 20
4.40889620723
 30
0
 40
0.07149811858879999
 41
0.4289887115328
 71
    1
 72
    1
  1
\C7;B\C7;
  7
standard
210
0
220
0
230
1
 50
0
 73
    1
 44
1
  0
MTEXT
  5
507
100
AcDbEntity
  8
CONTINUOUS
  6
ByLayer
 62
  256
370
   -1
100
AcDbMText
 10
12.6703334419
 20
1.79787658338
 30
0
 40
0.0775536798368
 41
0.1852671240545778
 71
    4
 72
    1
  1
\C7;
  7
standard
210
0
220
0
230
1
 50
0
 73
    1
 44
1
  0
MTEXT
  5
508
100
AcDbEntity
  8
CONTINUOUS
  6
ByLayer
 62
  256
370
   -1
100
AcDbMText
 10
5.49868768611
 20
10.8665566623
 30
0
 40
0.07149811858879999
 41
0.4210444761340488
 71
    1
 72
    1
  1
\C7;6\C7;
  7
standard
210
0
220
0
230
1
 50
0
 73
    1
 44
1
  0
MTEXT
  5
509
100
AcDbEntity
  8
CONTINUOUS
  6
ByLayer
 62
  256
370
   -1
100
AcDbMText
 10
12.0746666615
 20
1.98029600729
 30
0
 40
0.0775536798368
 41
0.1852671240545778
 71
    4
 72
    1
  1
\C7;
  7
standard
210
0
220
0
230
1
 50
0
 73
    1
 44
1
  0
MTEXT
  5
50A
100
AcDbEntity
  8
CONTINUOUS
  6
ByLayer
 62
  256
370
   -1
100
AcDbMText
 10
11.3787703324
 20
0.341427315776
 30
0
 40
0.07149811858879999
 41
0.4210444761340488
 71
    1
 72
    1
  1
\C7;3\C7;
  7
standard
210
0
220
0
230
1
 50
0
 73
    1
 44
1
  0
MTEXT
  5
50B
100
AcDbEntity
  8
CONTINUOUS
  6
ByLayer
 62
  256
370
   -1
100
AcDbMText
 10
9.704144788860001
 20
0.9287469313309999
 30
0
 40
0.044686324118
 41
1.597536058797713
 71
    1
 72
    1
  1
\C7;LICENSE FOR DISTRIBUTIVE ECONOMICS. FOR \C7;
  7
standard
210
0
220
0
230
1
 50
0
 73
    1
 44
1
  0
MTEXT
  5
50C
100
AcDbEntity
  8
CONTINUOUS
  6
ByLayer
 62
  256
370
   -1
100
AcDbMText
 10
12.5359721151
 20
1.40810952244
 30
0
 40
0.0536235889416
 41
0.3991978287874667
 71
    1
 72
    1
  1
\C7;.XX\C7;
  7
standard
210
0
220
0
230
1
 50
0
 73
    1
 44
1
  0
MTEXT
  5
50D
100
AcDbEntity
  8
CONTINUOUS
  6
ByLayer
 62
  256
370
   -1
100
AcDbMText
 10
6.80009196124
 20
1.11928384135
 30
0
 40
0.0775536798368
 41
2.882411767267739
 71
    4
 72
    1
  3
\C7;PLEASE PROCEED AT YOUR OWN RISK!\C7;\PTHESE DRAWINGS ARE MEANT TO DOCUMENT\C7;\PPREVIOUS WORK AND PRESENT IDEAS ONLY\C7;\PTHEY ARE NOT MEANT TO BE A COMPLETE GUIDE.\C7;\PWORKING WITH ANY TOOLS, EQUIPMENT, \C7;\PHYDRAULICS, ELECTRONICS, ETC. MAY \
  1
C7;\PCAUSE SERIOUS INJURY OR DEATH.\C7;\P\C7;
  7
standard
210
0
220
0
230
1
 50
0
 73
    1
 44
1
  0
MTEXT
  5
50E
100
AcDbEntity
  8
CONTINUOUS
  6
ByLayer
 62
  256
370
   -1
100
AcDbMText
 10
12.6790060209
 20
2.16159715427
 30
0
 40
0.0775536798368
 41
0.1852671240545778
 71
    4
 72
    1
  1
\C7;
  7
standard
210
0
220
0
230
1
 50
0
 73
    1
 44
1
  0
MTEXT
  5
50F
100
AcDbEntity
  8
CONTINUOUS
  6
ByLayer
 62
  256
370
   -1
100
AcDbMText
 10
12.8420705227
 20
2.40448810286
 30
0
 40
0.0536235889416
 41
0.4647377708272033
 71
    1
 72
    1
  1
\C7;DATE\C7;
  7
standard
210
0
220
0
230
1
 50
0
 73
    1
 44
1
  0
MTEXT
  5
510
100
AcDbEntity
  8
CONTINUOUS
  6
ByLayer
 62
  256
370
   -1
100
AcDbMText
 10
3.55098702735
 20
10.8584654291
 30
0
 40
0.07149811858879999
 41
0.4210444761340444
 71
    1
 72
    1
  1
\C7;7\C7;
  7
standard
210
0
220
0
230
1
 50
0
 73
    1
 44
1
  0
MTEXT
  5
511
100
AcDbEntity
  8
CONTINUOUS
  6
ByLayer
 62
  256
370
   -1
100
AcDbMText
 10
1.52677445274
 20
0.342770883823
 30
0
 40
0.07149811858879999
 41
0.4210444761340444
 71
    1
 72
    1
  1
\C7;8\C7;
  7
standard
210
0
220
0
230
1
 50
0
 73
    1
 44
1
  0
MTEXT
  5
512
100
AcDbEntity
  8
CONTINUOUS
  6
ByLayer
 62
  256
370
   -1
100
AcDbMText
 10
13.3235206706
 20
0.587696530819
 30
0
 40
0.0804353834124
 41
0.7775420226007259
 71
    1
 72
    1
  1
\C7;SCALE:\C7;
  7
standard
210
0
220
0
230
1
 50
0
 73
    1
 44
1
  0
MTEXT
  5
513
100
AcDbEntity
  8
CONTINUOUS
  6
ByLayer
 62
  256
370
   -1
100
AcDbMText
 10
16.4913158734
 20
9.52080834587
 30
0
 40
0.07149811858879999
 41
0.4289887115328044
 71
    1
 72
    1
  1
\C7;D\C7;
  7
standard
210
0
220
0
230
1
 50
0
 73
    1
 44
1
  0
MTEXT
  5
514
100
AcDbEntity
  8
CONTINUOUS
  6
ByLayer
 62
  256
370
   -1
100
AcDbMText
 10
12.685442046
 20
1.9640694266
 30
0
 40
0.0775536798368
 41
0.1852671240545778
 71
    4
 72
    1
  1
\C7;
  7
standard
210
0
220
0
230
1
 50
0
 73
    1
 44
1
  0
MTEXT
  5
515
100
AcDbEntity
  8
CONTINUOUS
  6
ByLayer
 62
  256
370
   -1
100
AcDbMText
 10
12.0671141617
 20
2.16915160652
 30
0
 40
0.0732451420681
 41
0.5696844383074444
 71
    4
 72
    1
  1
\C7;RHB\C7;
  7
standard
210
0
220
0
230
1
 50
0
 73
    1
 44
1
  0
MTEXT
  5
516
100
AcDbEntity
  8
CONTINUOUS
  6
ByLayer
 62
  256
370
   -1
100
AcDbMText
 10
12.8387210876
 20
1.23131188821
 30
0
 40
0.0732451420681
 41
0.6836213259689379
 71
    4
 72
    1
  1
\C7;+-.005\C7;
  7
standard
210
0
220
0
230
1
 50
0
 73
    1
 44
1
  0
MTEXT
  5
517
100
AcDbEntity
  8
CONTINUOUS
  6
ByLayer
 62
  256
370
   -1
100
AcDbMText
 10
9.46429872495
 20
10.8654638765
 30
0
 40
0.07149811858879999
 41
0.4289887115328
 71
    1
 72
    1
  1
\C7;4\C7;
  7
standard
210
0
220
0
230
1
 50
0
 73
    1
 44
1
  0
MTEXT
  5
518
100
AcDbEntity
  8
CONTINUOUS
  6
ByLayer
 62
  256
370
   -1
100
AcDbMText
 10
13.7070501432
 20
1.11292980944
 30
0
 40
0.0804353834124
 41
0.969693233360605
 71
    1
 72
    1
  1
\C7;DWG.  NO.\C7;
  7
standard
210
0
220
0
230
1
 50
0
 73
    1
 44
1
  0
MTEXT
  5
519
100
AcDbEntity
  8
CONTINUOUS
  6
ByLayer
 62
  256
370
   -1
100
AcDbMText
 10
13.7722586084
 20
0.493252333694
 30
0
 40
0.0775536798368
 41
0.6635148163815112
 71
    4
 72
    1
  1
\C7;NONE\C7;
  7
standard
210
0
220
0
230
1
 50
0
 73
    1
 44
1
  0
MTEXT
  5
51A
100
AcDbEntity
  8
CONTINUOUS
  6
ByLayer
 62
  256
370
   -1
100
AcDbMText
 10
9.47012493161
 20
0.343531883398
 30
0
 40
0.07149811858879999
 41
0.4289887115328
 71
    1
 72
    1
  1
\C7;4\C7;
  7
standard
210
0
220
0
230
1
 50
0
 73
    1
 44
1
  0
MTEXT
  5
51B
100
AcDbEntity
  8
CONTINUOUS
  6
ByLayer
 62
  256
370
   -1
100
AcDbMText
 10
11.432728105
 20
10.8593303954
 30
0
 40
0.07149811858879999
 41
0.4210444761340488
 71
    1
 72
    1
  1
\C7;3\C7;
  7
standard
210
0
220
0
230
1
 50
0
 73
    1
 44
1
  0
MTEXT
  5
51C
100
AcDbEntity
  8
CONTINUOUS
  6
ByLayer
 62
  256
370
   -1
100
AcDbMText
 10
15.852709192
 20
0.848986032441
 30
0
 40
0.155107359674
 41
0.3705342481101112
 71
    4
 72
    1
  1
\C7;
  7
standard
210
0
220
0
230
1
 50
0
 73
    1
 44
1
  0
MTEXT
  5
51D
100
AcDbEntity
  8
CONTINUOUS
  6
ByLayer
 62
  256
370
   -1
100
AcDbMText
 10
0.427314415038
 20
6.9401519559
 30
0
 40
0.07149811858879999
 41
0.4210444761340444
 71
    1
 72
    1
  1
\C7;C\C7;
  7
standard
210
0
220
0
230
1
 50
0
 73
    1
 44
1
  0
MTEXT
  5
51E
100
AcDbEntity
  8
CONTINUOUS
  6
ByLayer
 62
  256
370
   -1
100
AcDbMText
 10
15.4083167374
 20
0.331180143587
 30
0
 40
0.07149811858879999
 41
0.4051560053365333
 71
    1
 72
    1
  1
\C7;1\C7;
  7
standard
210
0
220
0
230
1
 50
0
 73
    1
 44
1
  0
MTEXT
  5
51F
100
AcDbEntity
  8
CONTINUOUS
  6
ByLayer
 62
  256
370
   -1
100
AcDbMText
 10
13.2990559431
 20
2.44278324028
 30
0
 40
0.0804353834124
 41
0.9026637471836051
 71
    1
 72
    1
  1
\C7;PROJECT:\C7;
  7
standard
210
0
220
0
230
1
 50
0
 73
    1
 44
1
  0
MTEXT
  5
520
100
AcDbEntity
  8
CONTINUOUS
  6
ByLayer
 62
  256
370
   -1
100
AcDbMText
 10
14.9028603862
 20
0.524457871445
 30
0
 40
0.0775536798368
 41
0.1852671240545778
 71
    4
 72
    1
  1
\C7;
  7
standard
210
0
220
0
230
1
 50
0
 73
    1
 44
1
  0
MTEXT
  5
521
100
AcDbEntity
  8
CONTINUOUS
  6
ByLayer
 62
  256
370
   -1
100
AcDbMText
 10
0.426009949526
 20
1.7856582291
 30
0
 40
0.07149811858879999
 41
0.4369329469315555
 71
    1
 72
    1
  1
\C7;A\C7;
  7
standard
210
0
220
0
230
1
 50
0
 73
    1
 44
1
  0
MTEXT
  5
522
100
AcDbEntity
  8
CONTINUOUS
  6
ByLayer
 62
  256
370
   -1
100
AcDbMText
 10
1.50908886894
 20
10.8613063881
 30
0
 40
0.07149811858879999
 41
0.4210444761340444
 71
    1
 72
    1
  1
\C7;8\C7;
  7
standard
210
0
220
0
230
1
 50
0
 73
    1
 44
1
  0
MTEXT
  5
523
100
AcDbEntity
  8
CONTINUOUS
  6
ByLayer
 62
  256
370
   -1
100
AcDbMText
 10
0.428610479966
 20
9.487355494719999
 30
0
 40
0.07149811858879999
 41
0.4289887115328044
 71
    1
 72
    1
  1
\C7;D\C7;
  7
standard
210
0
220
0
230
1
 50
0
 73
    1
 44
1
  0
MTEXT
  5
524
100
AcDbEntity
  8
CONTINUOUS
  6
ByLayer
 62
  256
370
   -1
100
AcDbMText
 10
15.6390693244
 20
0.535415439155
 30
0
 40
0.0775536798368
 41
0.1852671240545778
 71
    4
 72
    1
  1
\C7;
  7
standard
210
0
220
0
230
1
 50
0
 73
    1
 44
1
  0
MTEXT
  5
525
100
AcDbEntity
  8
CONTINUOUS
  6
ByLayer
 62
  256
370
   -1
100
AcDbMText
 10
13.3681812646
 20
1.00046194544
 30
0
 40
0.205557090943
 41
1.233342545658
 71
    1
 72
    1
  1
\C7;B\C7;
  7
standard
210
0
220
0
230
1
 50
0
 73
    1
 44
1
  0
MTEXT
  5
526
100
AcDbEntity
  8
CONTINUOUS
  6
ByLayer
 62
  256
370
   -1
100
AcDbMText
 10
13.2990559431
 20
2.04849907575
 30
0
 40
0.0804353834124
 41
1.117158085897531
 71
    1
 72
    1
  1
\C7;DESCRIPTION:\C7;
  7
standard
210
0
220
0
230
1
 50
0
 73
    1
 44
1
  0
MTEXT
  5
527
100
AcDbEntity
  8
CONTINUOUS
  6
ByLayer
 62
  256
370
   -1
100
AcDbMText
 10
3.55742667537
 20
0.343069146781
 30
0
 40
0.07149811858879999
 41
0.4210444761340444
 71
    1
 72
    1
  1
\C7;7\C7;
  7
standard
210
0
220
0
230
1
 50
0
 73
    1
 44
1
  0
MTEXT
  5
528
100
AcDbEntity
  8
CONTINUOUS
  6
ByLayer
 62
  256
370
   -1
100
AcDbMText
 10
11.6511163186
 20
1.22914982593
 30
0
 40
0.0732451420681
 41
0.569684438307449
 71
    4
 72
    1
  1
\C7;+-.5\C7;
  7
standard
210
0
220
0
230
1
 50
0
 73
    1
 44
1
  0
MTEXT
  5
529
100
AcDbEntity
  8
CONTINUOUS
  6
ByLayer
 62
  256
370
   -1
100
AcDbMText
 10
16.4820809255
 20
1.80243379177
 30
0
 40
0.07149811858879999
 41
0.4369329469315555
 71
    1
 72
    1
  1
\C7;A\C7;
  7
standard
210
0
220
0
230
1
 50
0
 73
    1
 44
1
  0
MTEXT
  5
52A
100
AcDbEntity
  8
CONTINUOUS
  6
ByLayer
 62
  256
370
   -1
100
AcDbMText
 10
7.48511555553
 20
0.340394556307
 30
0
 40
0.07149811858879999
 41
0.4210444761340488
 71
    1
 72
    1
  1
\C7;5\C7;
  7
standard
210
0
220
0
230
1
 50
0
 73
    1
 44
1
  0
MTEXT
  5
52B
100
AcDbEntity
  8
CONTINUOUS
  6
ByLayer
 62
  256
370
   -1
100
AcDbMText
 10
9.704144788860001
 20
0.829376856762
 30
0
 40
0.044686324118
 41
1.163085713849056
 71
    1
 72
    1
  1
\C7;FURTHER INFORMATION GO TO:\C7;
  7
standard
210
0
220
0
230
1
 50
0
 73
    1
 44
1
  0
MTEXT
  5
52C
100
AcDbEntity
  8
CONTINUOUS
  6
ByLayer
 62
  256
370
   -1
100
AcDbMText
 10
11.5981115451
 20
2.02314188428
 30
0
 40
0.0536235889416
 41
0.5839013018085366
 71
    1
 72
    1
  1
\C7;CHECKED\C7;
  7
standard
210
0
220
0
230
1
 50
0
 73
    1
 44
1
  0
MTEXT
  5
52D
100
AcDbEntity
  8
CONTINUOUS
  6
ByLayer
 62
  256
370
   -1
100
AcDbMText
 10
13.352296777
 20
0.342247266662
 30
0
 40
0.07149811858879999
 41
0.4210444761340444
 71
    1
 72
    1
  1
\C7;2\C7;
  7
standard
210
0
220
0
230
1
 50
0
 73
    1
 44
1
  0
MTEXT
  5
52E
100
AcDbEntity
  8
CONTINUOUS
  6
ByLayer
 62
  256
370
   -1
100
AcDbMText
 10
9.704144788860001
 20
1.0281170059
 30
0
 40
0.044686324118
 41
1.748973046086493
 71
    1
 72
    1
  1
\C7;ALL INFORMATION IS RELEASED UNDER THE OSE \C7;
  7
standard
210
0
220
0
230
1
 50
0
 73
    1
 44
1
  0
MTEXT
  5
52F
100
AcDbEntity
  8
CONTINUOUS
  6
ByLayer
 62
  256
370
   -1
100
AcDbMText
 10
12.0671129602
 20
1.79144010769
 30
0
 40
0.0775536798368
 41
0.1852671240545778
 71
    4
 72
    1
  1
\C7;
  7
standard
210
0
220
0
230
1
 50
0
 73
    1
 44
1
  0
MTEXT
  5
530
100
AcDbEntity
  8
CONTINUOUS
  6
ByLayer
 62
  256
370
   -1
100
AcDbMText
 10
13.7021006186
 20
0.878810056551
 30
0
 40
0.155107359674
 41
2.718687332063732
 71
    4
 72
    1
  1
\C7;01-083-00-0 L-Q7\C7;
  7
standard
210
0
220
0
230
1
 50
0
 73
    1
 44
1
  0
MTEXT
  5
531
100
AcDbEntity
  8
CONTINUOUS
  6
ByLayer
 62
  256
370
   -1
100
AcDbMText
 10
12.1247775615
 20
1.40810952244
 30
0
 40
0.0536235889416
 41
0.3455742398458667
 71
    1
 72
    1
  1
\C7;.X\C7;
  7
standard
210
0
220
0
230
1
 50
0
 73
    1
 44
1
  0
MTEXT
  5
532
100
AcDbEntity
  8
CONTINUOUS
  6
ByLayer
 62
  256
370
   -1
100
AcDbMText
 10
12.0667861578
 20
1.25640681409
 30
0
 40
0.0732451420681
 41
0.5534077400700889
 71
    4
 72
    1
  1
\C7;+-.1\C7;
  7
standard
210
0
220
0
230
1
 50
0
 73
    1
 44
1
  0
MTEXT
  5
533
100
AcDbEntity
  8
CONTINUOUS
  6
ByLayer
 62
  256
370
   -1
100
AcDbMText
 10
5.51882523857
 20
0.343463549961
 30
0
 40
0.07149811858879999
 41
0.4210444761340488
 71
    1
 72
    1
  1
\C7;6\C7;
  7
standard
210
0
220
0
230
1
 50
0
 73
    1
 44
1
  0
MTEXT
  5
534
100
AcDbEntity
  8
CONTINUOUS
  6
ByLayer
 62
  256
370
   -1
100
AcDbMText
 10
15.4273970005
 20
10.8598767883
 30
0
 40
0.07149811858879999
 41
0.4051560053365333
 71
    1
 72
    1
  1
\C7;1\C7;
  7
standard
210
0
220
0
230
1
 50
0
 73
    1
 44
1
  0
MTEXT
  5
535
100
AcDbEntity
  8
CONTINUOUS
  6
ByLayer
 62
  256
370
   -1
100
AcDbMText
 10
10.194692211
 20
1.18799467965
 30
0
 40
0.044686324118
 41
0.8875200389811256
 71
    1
 72
    1
  1
\C7;LICENSE INFORMATION\C7;
  7
standard
210
0
220
0
230
1
 50
0
 73
    1
 44
1
  0
MTEXT
  5
536
100
AcDbEntity
  8
CONTINUOUS
  6
ByLayer
 62
  256
370
   -1
100
AcDbMText
 10
11.5952182844
 20
1.84062215402
 30
0
 40
0.0536235889416
 41
0.4885704770234667
 71
    1
 72
    1
  1
\C7;APPR.\C7;
  7
standard
210
0
220
0
230
1
 50
0
 73
    1
 44
1
  0
MTEXT
  5
537
100
AcDbEntity
  8
CONTINUOUS
  6
ByLayer
 62
  256
370
   -1
100
AcDbMText
 10
15.974082703
 20
1.11376163929
 30
0
 40
0.0804353834124
 41
0.625608537652
 71
    1
 72
    1
  1
\C7;REV\C7;
  7
standard
210
0
220
0
230
1
 50
0
 73
    1
 44
1
  0
MTEXT
  5
538
100
AcDbEntity
  8
CONTINUOUS
  6
ByLayer
 62
  256
370
   -1
100
AcDbMText
 10
14.3543842928
 20
0.583894128255
 30
0
 40
0.0804353834124
 41
0.8401028934184001
 71
    1
 72
    1
  1
\C7;WEIGHT:\C7;
  7
standard
210
0
220
0
230
1
 50
0
 73
    1
 44
1
  0
MTEXT
  5
539
100
AcDbEntity
  8
CONTINUOUS
  6
ByLayer
 62
  256
370
   -1
100
AcDbMText
 10
11.5959805855
 20
2.21550209874
 30
0
 40
0.0536235889416
 41
0.5362358894160032
 71
    1
 72
    1
  1
\C7;DRAWN\C7;
  7
standard
210
0
220
0
230
1
 50
0
 73
    1
 44
1
  0
MTEXT
  5
53A
100
AcDbEntity
  8
CONTINUOUS
  6
ByLayer
 62
  256
370
   -1
100
AcDbMText
 10
12.4654202198
 20
1.24618552801
 30
0
 40
0.0732451420681
 41
0.6266528821381935
 71
    4
 72
    1
  1
\C7;+-.03\C7;
  7
standard
210
0
220
0
230
1
 50
0
 73
    1
 44
1
  0
MTEXT
  5
53B
100
AcDbEntity
  8
CONTINUOUS
  6
ByLayer
 62
  256
370
   -1
100
AcDbMText
 10
13.4009949841
 20
10.8660102694
 30
0
 40
0.07149811858879999
 41
0.4210444761340444
 71
    1
 72
    1
  1
\C7;2\C7;
  7
standard
210
0
220
0
230
1
 50
0
 73
    1
 44
1
  0
MTEXT
  5
53C
100
AcDbEntity
  8
CONTINUOUS
  6
ByLayer
 62
  256
370
   -1
100
AcDbMText
 10
11.6118920972
 20
0.574023856188
 30
0
 40
0.07149811858879999
 41
1.62459613904552
 71
    1
 72
    1
  1
\C7;THIRD ANGLE PROJECTION\C7;
  7
standard
210
0
220
0
230
1
 50
0
 73
    1
 44
1
  0
MTEXT
  5
53D
100
AcDbEntity
  8
CONTINUOUS
  6
ByLayer
 62
  256
370
   -1
100
AcDbMText
 10
9.704144788860001
 20
0.630636707625
 30
0
 40
0.044686324118
 41
1.473407390165751
 71
    1
 72
    1
  1
\C7;OPENSOURCEECOLOGY.ORG/WIKI/LICENSE \C7;
  7
standard
210
0
220
0
230
1
 50
0
 73
    1
 44
1
  0
MTEXT
  5
53E
100
AcDbEntity
  8
CONTINUOUS
  6
ByLayer
 62
  256
370
   -1
100
AcDbMText
 10
11.5941272892
 20
1.40810952244
 30
0
 40
0.0536235889416
 41
0.5541104076948838
 71
    1
 72
    1
  1
\C7;ANGLES\C7;
  7
standard
210
0
220
0
230
1
 50
0
 73
    1
 44
1
  0
MTEXT
  5
53F
100
AcDbEntity
  8
CONTINUOUS
  6
ByLayer
 62
  256
370
   -1
100
AcDbMText
 10
16.4711826244
 20
6.93488774165
 30
0
 40
0.07149811858879999
 41
0.4210444761340444
 71
    1
 72
    1
  1
\C7;C\C7;
  7
standard
210
0
220
0
230
1
 50
0
 73
    1
 44
1
  0
ENDBLK
  5
B3
330
B1
100
AcDbEntity
  8
0
100
AcDbBlockEnd
  0
BLOCK
  5
B5
330
B4
100
AcDbEntity
  8
0
100
AcDbBlockBegin
  2
BLOCK10
 70
    0
 10
0
 20
0
  3
BLOCK10
  1

  0
CIRCLE
  5
540
100
AcDbEntity
  8
0
  6
ByLayer
 62
  256
370
   -1
100
AcDbCircle
 10
12.5727822224
 20
0.77973765604
 40
0.0787401574803
  0
CIRCLE
  5
541
100
AcDbEntity
  8
0
  6
ByLayer
 62
  256
370
   -1
100
AcDbCircle
 10
12.5727822224
 20
0.77973765604
 40
0.157480314961
  0
LINE
  5
542
100
AcDbEntity
  8
0
  6
ByLayer
 62
  256
370
   -1
100
AcDbLine
 10
12.8090026948
 20
0.85847781352
 11
12.8090026948
 21
0.700997498559
  0
LINE
  5
543
100
AcDbEntity
  8
0
  6
ByLayer
 62
  256
370
   -1
100
AcDbLine
 10
12.8090026948
 20
0.700997498559
 11
13.1239633247
 21
0.622257341079
  0
LINE
  5
544
100
AcDbEntity
  8
0
  6
ByLayer
 62
  256
370
   -1
100
AcDbLine
 10
13.1239633247
 20
0.622257341079
 11
13.1239633247
 21
0.937217971
  0
LINE
  5
545
100
AcDbEntity
  8
0
  6
ByLayer
 62
  256
370
   -1
100
AcDbLine
 10
13.1239633247
 20
0.937217971
 11
12.8090026948
 21
0.85847781352
  0
LINE
  5
546
100
AcDbEntity
  8
0
  6
ByLayer
 62
  256
370
   -1
100
AcDbLine
 10
12.3365617499
 20
0.77973765604
 11
13.2027034822
 21
0.77973765604
  0
LINE
  5
547
100
AcDbEntity
  8
0
  6
ByLayer
 62
  256
370
   -1
100
AcDbLine
 10
12.5727822224
 20
1.01595812848
 11
12.5727822224
 21
0.543517183599
  0
ENDBLK
  5
B6
330
B4
100
AcDbEntity
  8
0
100
AcDbBlockEnd
  0
BLOCK
  5
B8
330
B7
100
AcDbEntity
  8
0
100
AcDbBlockBegin
  2
BLOCK11
 70
    0
 10
0
 20
0
  3
BLOCK11
  1

  0
MTEXT
  5
548
100
AcDbEntity
  8
0
  6
ByLayer
 62
  256
370
   -1
100
AcDbMText
 10
0
 20
0.112491480021
 30
0
 40
0.0536235889416
 41
1.379317825635672
 71
    1
 72
    1
  1
\C7;UNLESS OTHERWISE SPECIFIED\C7;
  7
standard
210
0
220
0
230
1
 50
0
 73
    1
 44
1
  0
MTEXT
  5
549
100
AcDbEntity
  8
0
  6
ByLayer
 62
  256
370
   -1
100
AcDbMText
 10
0
 20
0.00312140263981
 30
0
 40
0.0536235889416
 41
1.304840630140655
 71
    1
 72
    1
  1
\C7; DIMENSIONS ARE IN INCHES\C7;
  7
standard
210
0
220
0
230
1
 50
0
 73
    1
 44
1
  0
ENDBLK
  5
B9
330
B7
100
AcDbEntity
  8
0
100
AcDbBlockEnd
  0
BLOCK
  5
BB
330
BA
100
AcDbEntity
  8
0
100
AcDbBlockBegin
  2
L-Q7
 70
    0
 10
0
 20
0
  3
L-Q7
  1

  0
LINE
  5
54A
100
AcDbEntity
  8
VISIBLE
  6
ByLayer
 62
  256
370
   -1
100
AcDbLine
 10
7.92919452547
 20
5.16175945193
 11
6.92919452547
 21
5.16175945193
  0
LINE
  5
54B
100
AcDbEntity
  8
VISIBLE
  6
ByLayer
 62
  256
370
   -1
100
AcDbLine
 10
7.92919452547
 20
5.0784261186
 11
6.92919452547
 21
5.0784261186
  0
LINE
  5
54C
100
AcDbEntity
  8
VISIBLE
  6
ByLayer
 62
  256
370
   -1
100
AcDbLine
 10
6.92919452547
 20
5.0784261186
 11
6.92919452547
 21
5.16175945193
  0
LINE
  5
54D
100
AcDbEntity
  8
VISIBLE
  6
ByLayer
 62
  256
370
   -1
100
AcDbLine
 10
7.92919452547
 20
5.0784261186
 11
7.92919452547
 21
5.16175945193
  0
LINE
  5
54E
100
AcDbEntity
  8
HIDDEN
  6
ByLayer
 62
  256
370
   -1
100
AcDbLine
 10
7.56544452547
 20
5.0784261186
 11
7.56544452547
 21
5.16175945193
  0
LINE
  5
54F
100
AcDbEntity
  8
HIDDEN
  6
ByLayer
 62
  256
370
   -1
100
AcDbLine
 10
7.29294452547
 20
5.0784261186
 11
7.29294452547
 21
5.16175945193
  0
LINE
  5
550
100
AcDbEntity
  8
HIDDEN
  6
ByLayer
 62
  256
370
   -1
100
AcDbLine
 10
7.42919452547
 20
5.0784261186
 11
7.42919452547
 21
5.16175945193
  0
DIMENSION
  5
551
100
AcDbEntity
  8
DIMENSIONS
  6
ByLayer
 62
  256
370
   -1
100
AcDbDimension
 10
0
 20
0
 30
0
 11
13.0066242293
 21
9.82104669187
 31
0
 70
   32
  1
<>
 71
    5
 72
    0
  3
Standard
 53
0
210
0
220
0
230
1
100
AcDbAlignedDimension
 13
6.92919452547
 23
5.16175945193
 33
0
 14
6.92919452547
 24
5.0784261186
 34
0
 50
270
100
AcDbRotatedDimension
  0
ARC
  5
552
100
AcDbEntity
  8
VISIBLE
  6
ByLayer
 62
  256
370
   -1
100
AcDbCircle
 10
7.42919452547
 20
6.95043459464
 40
0.13625
100
AcDbArc
 50
90.0000000006
 51
270
  0
LINE
  5
553
100
AcDbEntity
  8
VISIBLE
  6
ByLayer
 62
  256
370
   -1
100
AcDbLine
 10
7.92919452547
 20
5.45043459464
 11
6.92919452547
 21
5.45043459464
  0
LINE
  5
554
100
AcDbEntity
  8
VISIBLE
  6
ByLayer
 62
  256
370
   -1
100
AcDbLine
 10
6.92919452547
 20
7.45043459464
 11
7.92919452547
 21
7.45043459464
  0
LINE
  5
555
100
AcDbEntity
  8
VISIBLE
  6
ByLayer
 62
  256
370
   -1
100
AcDbLine
 10
7.92919452547
 20
5.45043459464
 11
7.92919452547
 21
7.45043459464
  0
LINE
  5
556
100
AcDbEntity
  8
VISIBLE
  6
ByLayer
 62
  256
370
   -1
100
AcDbLine
 10
6.92919452547
 20
5.45043459464
 11
6.92919452547
 21
7.45043459464
  0
ARC
  5
557
100
AcDbEntity
  8
VISIBLE
  6
ByLayer
 62
  256
370
   -1
100
AcDbCircle
 10
7.42919452547
 20
5.95043459464
 40
0.13625
100
AcDbArc
 50
90.0000000006
 51
270
  0
ARC
  5
558
100
AcDbEntity
  8
VISIBLE
  6
ByLayer
 62
  256
370
   -1
100
AcDbCircle
 10
7.42919452547
 20
6.95043459464
 40
0.13625
100
AcDbArc
 50
270
 51
90.0000000006
  0
ARC
  5
559
100
AcDbEntity
  8
VISIBLE
  6
ByLayer
 62
  256
370
   -1
100
AcDbCircle
 10
7.42919452547
 20
5.95043459464
 40
0.13625
100
AcDbArc
 50
270
 51
90.0000000006
  0
DIMENSION
  5
55A
100
AcDbEntity
  8
DIMENSIONS
  6
ByLayer
 62
  256
370
   -1
100
AcDbDimension
 10
0
 20
0
 30
0
 11
14.3583890509
 21
13.6166597577
 31
0
 70
   32
  1
<>
 71
    5
 72
    0
  3
Standard
 53
0
210
0
220
0
230
1
100
AcDbAlignedDimension
 13
6.92919452547
 23
7.45043459464
 33
0
 14
7.92919452547
 24
7.45043459464
 34
0
100
AcDbRotatedDimension
  0
DIMENSION
  5
55B
100
AcDbEntity
  8
DIMENSIONS
  6
ByLayer
 62
  256
370
   -1
100
AcDbDimension
 10
0
 20
0
 30
0
 11
11.657181079
 21
12.378363369
 31
0
 70
   32
  1
<>
 71
    5
 72
    0
  3
Standard
 53
0
210
0
220
0
230
1
100
AcDbAlignedDimension
 13
6.92919452547
 23
5.45043459464
 33
0
 14
6.92919452547
 24
7.45043459464
 34
0
 50
90
100
AcDbRotatedDimension
  0
DIMENSION
  5
55C
100
AcDbEntity
  8
DIMENSIONS
  6
ByLayer
 62
  256
370
   -1
100
AcDbDimension
 10
0
 20
0
 30
0
 11
13.5034101516
 21
11.9008691893
 31
0
 70
   32
  1
<>
 71
    5
 72
    0
  3
Standard
 53
0
210
0
220
0
230
1
100
AcDbAlignedDimension
 13
7.42919452547
 23
6.95043459464
 33
0
 14
7.42919452547
 24
5.95043459464
 34
0
 50
270
100
AcDbRotatedDimension
  0
DIMENSION
  5
55D
100
AcDbEntity
  8
DIMENSIONS
  6
ByLayer
 62
  256
370
   -1
100
AcDbDimension
 10
0
 20
0
 30
0
 11
15.6768900879
 21
13.0093635574
 31
0
 70
   32
  1
<>
 71
    5
 72
    0
  3
Standard
 53
0
210
0
220
0
230
1
100
AcDbAlignedDimension
 13
7.42919452547
 23
7.08668459464
 33
0
 14
7.42919452547
 24
6.81418459464
 34
0
 50
270
100
AcDbRotatedDimension
  0
DIMENSION
  5
55E
100
AcDbEntity
  8
DIMENSIONS
  6
ByLayer
 62
  256
370
   -1
100
AcDbDimension
 10
0
 20
0
 30
0
 11
14.1083890509
 21
13.2244349878
 31
0
 70
   32
  1
<>
 71
    5
 72
    0
  3
Standard
 53
0
210
0
220
0
230
1
100
AcDbAlignedDimension
 13
7.42919452547
 23
6.95043459464
 33
0
 14
6.92919452547
 24
7.45043459464
 34
0
 50
180
100
AcDbRotatedDimension
  0
DIMENSION
  5
55F
100
AcDbEntity
  8
DIMENSIONS
  6
ByLayer
 62
  256
370
   -1
100
AcDbDimension
 10
0
 20
0
 30
0
 11
13.5653434138
 21
12.6508691893
 31
0
 70
   32
  1
<>
 71
    5
 72
    0
  3
Standard
 53
0
210
0
220
0
230
1
100
AcDbAlignedDimension
 13
6.92919452547
 23
7.45043459464
 33
0
 14
7.42919452547
 24
6.95043459464
 34
0
 50
90
100
AcDbRotatedDimension
  0
DIMENSION
  5
560
100
AcDbEntity
  8
DIMENSIONS
  6
ByLayer
 62
  256
370
   -1
100
AcDbDimension
 10
0
 20
0
 30
0
 11
12.7822767768
 21
12.3333601539
 31
0
 70
   32
  1
<>
 71
    5
 72
    0
  3
Standard
 53
0
210
0
220
0
230
1
100
AcDbAlignedDimension
 13
6.92919452547
 23
7.45043459464
 33
0
 14
7.42919452547
 24
5.95043459464
 34
0
 50
90
100
AcDbRotatedDimension
  0
LINE
  5
561
100
AcDbEntity
  8
VISIBLE
  6
ByLayer
 62
  256
370
   -1
100
AcDbLine
 10
8.217869691020001
 20
5.16175945193
 11
10.217869691
 21
5.16175945193
  0
LINE
  5
562
100
AcDbEntity
  8
VISIBLE
  6
ByLayer
 62
  256
370
   -1
100
AcDbLine
 10
10.217869691
 20
5.16175945193
 11
10.217869691
 21
5.0784261186
  0
LINE
  5
563
100
AcDbEntity
  8
VISIBLE
  6
ByLayer
 62
  256
370
   -1
100
AcDbLine
 10
10.217869691
 20
5.0784261186
 11
8.217869691020001
 21
5.0784261186
  0
LINE
  5
564
100
AcDbEntity
  8
VISIBLE
  6
ByLayer
 62
  256
370
   -1
100
AcDbLine
 10
8.217869691020001
 20
5.0784261186
 11
8.217869691020001
 21
5.16175945193
  0
LINE
  5
565
100
AcDbEntity
  8
HIDDEN
  6
ByLayer
 62
  256
370
   -1
100
AcDbLine
 10
9.58161969102
 20
5.0784261186
 11
9.58161969102
 21
5.16175945193
  0
LINE
  5
566
100
AcDbEntity
  8
HIDDEN
  6
ByLayer
 62
  256
370
   -1
100
AcDbLine
 10
8.58161969102
 20
5.0784261186
 11
8.58161969102
 21
5.16175945193
  0
LINE
  5
567
100
AcDbEntity
  8
HIDDEN
  6
ByLayer
 62
  256
370
   -1
100
AcDbLine
 10
8.854119691019999
 20
5.0784261186
 11
8.854119691019999
 21
5.16175945193
  0
LINE
  5
568
100
AcDbEntity
  8
HIDDEN
  6
ByLayer
 62
  256
370
   -1
100
AcDbLine
 10
9.854119691019999
 20
5.0784261186
 11
9.854119691019999
 21
5.16175945193
  0
ELLIPSE
  5
569
100
AcDbEntity
  8
VISIBLE
  6
ByLayer
 62
  256
370
   -1
100
AcDbEllipse
 10
9.57142311916
 20
6.6885793932
 30
0
 11
0.13625
 21
0
 31
0
 40
0.57735026919
 41
3.14159265359
 42
3.92699081699
  0
ELLIPSE
  5
56A
100
AcDbEntity
  8
VISIBLE
  6
ByLayer
 62
  256
370
   -1
100
AcDbEllipse
 10
9.57142311916
 20
6.6885793932
 30
0
 11
0.13625
 21
0
 31
0
 40
0.57735026919
 41
0.785398163407
 42
3.14159265359
  0
ELLIPSE
  5
56B
100
AcDbEntity
  8
VISIBLE
  6
ByLayer
 62
  256
370
   -1
100
AcDbEllipse
 10
9.57142311916
 20
6.62053801146
 30
0
 11
0.13625
 21
0
 31
0
 40
0.57735026919
 41
0.7853981633879999
 42
2.6943498086
  0
ELLIPSE
  5
56C
100
AcDbEntity
  8
VISIBLE
  6
ByLayer
 62
  256
370
   -1
100
AcDbEllipse
 10
9.57142311916
 20
6.62053801146
 30
0
 11
0.13625
 21
0
 31
0
 40
0.57735026919
 41
0.44724284499
 42
0.7853981633879999
  0
LINE
  5
56D
100
AcDbEntity
  8
VISIBLE
  6
ByLayer
 62
  256
370
   -1
100
AcDbLine
 10
8.86431633798
 20
5.87208281227
 11
8.157209556790001
 21
6.28033110274
  0
LINE
  5
56E
100
AcDbEntity
  8
VISIBLE
  6
ByLayer
 62
  256
370
   -1
100
AcDbLine
 10
9.57142311916
 20
7.09682768366
 11
10.2785299003
 21
6.6885793932
  0
LINE
  5
56F
100
AcDbEntity
  8
VISIBLE
  6
ByLayer
 62
  256
370
   -1
100
AcDbLine
 10
8.86431633798
 20
5.87208281227
 11
10.2785299003
 21
6.6885793932
  0
ELLIPSE
  5
570
100
AcDbEntity
  8
VISIBLE
  6
ByLayer
 62
  256
370
   -1
100
AcDbEllipse
 10
8.86431633798
 20
6.21228972099
 30
0
 11
0.13625
 21
0
 31
0
 40
0.57735026919
 41
0.7853981633879999
 42
2.6943498086
  0
LINE
  5
571
100
AcDbEntity
  8
VISIBLE
  6
ByLayer
 62
  256
370
   -1
100
AcDbLine
 10
8.86431633798
 20
5.80404143053
 11
8.157209556790001
 21
6.21228972099
  0
LINE
  5
572
100
AcDbEntity
  8
VISIBLE
  6
ByLayer
 62
  256
370
   -1
100
AcDbLine
 10
8.157209556790001
 20
6.28033110274
 11
9.57142311916
 21
7.09682768366
  0
LINE
  5
573
100
AcDbEntity
  8
VISIBLE
  6
ByLayer
 62
  256
370
   -1
100
AcDbLine
 10
10.2785299003
 20
6.6885793932
 11
10.2785299003
 21
6.62053801146
  0
ELLIPSE
  5
574
100
AcDbEntity
  8
VISIBLE
  6
ByLayer
 62
  256
370
   -1
100
AcDbEllipse
 10
8.86431633798
 20
6.28033110274
 30
0
 11
0.13625
 21
0
 31
0
 40
0.57735026919
 41
3.14159265359
 42
3.92699081699
  0
ELLIPSE
  5
575
100
AcDbEntity
  8
VISIBLE
  6
ByLayer
 62
  256
370
   -1
100
AcDbEllipse
 10
8.86431633798
 20
6.28033110274
 30
0
 11
0.13625
 21
0
 31
0
 40
0.57735026919
 41
0.785398163407
 42
3.14159265359
  0
LINE
  5
576
100
AcDbEntity
  8
VISIBLE
  6
ByLayer
 62
  256
370
   -1
100
AcDbLine
 10
10.2785299003
 20
6.62053801146
 11
8.86431633798
 21
5.80404143053
  0
ELLIPSE
  5
577
100
AcDbEntity
  8
VISIBLE
  6
ByLayer
 62
  256
370
   -1
100
AcDbEllipse
 10
9.57142311916
 20
6.6885793932
 30
0
 11
0.13625
 21
0
 31
0
 40
0.57735026919
 41
0
 42
0.785398163407
  0
ELLIPSE
  5
578
100
AcDbEntity
  8
VISIBLE
  6
ByLayer
 62
  256
370
   -1
100
AcDbEllipse
 10
9.57142311916
 20
6.6885793932
 30
0
 11
0.13625
 21
0
 31
0
 40
0.57735026919
 41
3.92699081699
 42
6.28318530718
  0
ELLIPSE
  5
579
100
AcDbEntity
  8
VISIBLE
  6
ByLayer
 62
  256
370
   -1
100
AcDbEllipse
 10
8.86431633798
 20
6.28033110274
 30
0
 11
0.13625
 21
0
 31
0
 40
0.57735026919
 41
0
 42
0.785398163407
  0
ELLIPSE
  5
57A
100
AcDbEntity
  8
VISIBLE
  6
ByLayer
 62
  256
370
   -1
100
AcDbEllipse
 10
8.86431633798
 20
6.28033110274
 30
0
 11
0.13625
 21
0
 31
0
 40
0.57735026919
 41
3.92699081699
 42
6.28318530718
  0
LINE
  5
57B
100
AcDbEntity
  8
VISIBLE
  6
ByLayer
 62
  256
370
   -1
100
AcDbLine
 10
8.157209556790001
 20
6.21228972099
 11
8.157209556790001
 21
6.28033110274
  0
LINE
  5
57C
100
AcDbEntity
  8
VISIBLE
  6
ByLayer
 62
  256
370
   -1
100
AcDbLine
 10
8.86431633798
 20
5.80404143053
 11
8.86431633798
 21
5.87208281227
  0
ELLIPSE
  5
57D
100
AcDbEntity
  8
VISIBLE
  6
ByLayer
 62
  256
370
   -1
100
AcDbEllipse
 10
8.86431633798
 20
6.21228972099
 30
0
 11
0.13625
 21
0
 31
0
 40
0.57735026919
 41
0.44724284499
 42
0.7853981633879999
  0
ELLIPSE
  5
57E
100
AcDbEntity
  8
HIDDEN
  6
ByLayer
 62
  256
370
   -1
100
AcDbEllipse
 10
9.57142311916
 20
6.62053801146
 30
0
 11
0.13625
 21
0
 31
0
 40
0.57735026919
 41
2.6943498086
 42
3.14159265359
  0
ELLIPSE
  5
57F
100
AcDbEntity
  8
HIDDEN
  6
ByLayer
 62
  256
370
   -1
100
AcDbEllipse
 10
9.57142311916
 20
6.62053801146
 30
0
 11
0.13625
 21
0
 31
0
 40
0.57735026919
 41
3.14159265359
 42
3.92699081699
  0
ELLIPSE
  5
580
100
AcDbEntity
  8
HIDDEN
  6
ByLayer
 62
  256
370
   -1
100
AcDbEllipse
 10
9.57142311916
 20
6.62053801146
 30
0
 11
0.13625
 21
0
 31
0
 40
0.57735026919
 41
3.92699081699
 42
6.28318530718
  0
ELLIPSE
  5
581
100
AcDbEntity
  8
HIDDEN
  6
ByLayer
 62
  256
370
   -1
100
AcDbEllipse
 10
9.57142311916
 20
6.62053801146
 30
0
 11
0.13625
 21
0
 31
0
 40
0.57735026919
 41
6.28318530718
 42
6.73042815217
  0
LINE
  5
582
100
AcDbEntity
  8
HIDDEN
  6
ByLayer
 62
  256
370
   -1
100
AcDbLine
 10
9.57142311916
 20
7.02878630192
 11
8.157209556790001
 21
6.21228972099
  0
ELLIPSE
  5
583
100
AcDbEntity
  8
HIDDEN
  6
ByLayer
 62
  256
370
   -1
100
AcDbEllipse
 10
8.86431633798
 20
6.21228972099
 30
0
 11
0.13625
 21
0
 31
0
 40
0.57735026919
 41
2.6943498086
 42
3.14159265359
  0
ELLIPSE
  5
584
100
AcDbEntity
  8
HIDDEN
  6
ByLayer
 62
  256
370
   -1
100
AcDbEllipse
 10
8.86431633798
 20
6.21228972099
 30
0
 11
0.13625
 21
0
 31
0
 40
0.57735026919
 41
3.14159265359
 42
3.92699081699
  0
LINE
  5
585
100
AcDbEntity
  8
HIDDEN
  6
ByLayer
 62
  256
370
   -1
100
AcDbLine
 10
9.57142311916
 20
7.09682768366
 11
9.57142311916
 21
7.02878630192
  0
LINE
  5
586
100
AcDbEntity
  8
HIDDEN
  6
ByLayer
 62
  256
370
   -1
100
AcDbLine
 10
10.2785299003
 20
6.62053801146
 11
9.57142311916
 21
7.02878630192
  0
ELLIPSE
  5
587
100
AcDbEntity
  8
HIDDEN
  6
ByLayer
 62
  256
370
   -1
100
AcDbEllipse
 10
8.86431633798
 20
6.21228972099
 30
0
 11
0.13625
 21
0
 31
0
 40
0.57735026919
 41
3.92699081699
 42
6.28318530718
  0
ELLIPSE
  5
588
100
AcDbEntity
  8
HIDDEN
  6
ByLayer
 62
  256
370
   -1
100
AcDbEllipse
 10
8.86431633798
 20
6.21228972099
 30
0
 11
0.13625
 21
0
 31
0
 40
0.57735026919
 41
0
 42
0.44724284499
  0
LINE
  5
589
100
AcDbEntity
  8
HIDDEN
  6
ByLayer
 62
  256
370
   -1
100
AcDbLine
 10
8.72806633798
 20
6.21228972099
 11
8.72806633798
 21
6.28033110274
  0
LINE
  5
58A
100
AcDbEntity
  8
HIDDEN
  6
ByLayer
 62
  256
370
   -1
100
AcDbLine
 10
9.707673119160001
 20
6.62053801146
 11
9.707673119160001
 21
6.6885793932
  0
LINE
  5
58B
100
AcDbEntity
  8
HIDDEN
  6
ByLayer
 62
  256
370
   -1
100
AcDbLine
 10
9.43517311916
 20
6.62053801146
 11
9.43517311916
 21
6.6885793932
  0
LINE
  5
58C
100
AcDbEntity
  8
HIDDEN
  6
ByLayer
 62
  256
370
   -1
100
AcDbLine
 10
9.00056633798
 20
6.21228972099
 11
9.00056633798
 21
6.28033110274
  0
LINE
  5
58D
100
AcDbEntity
  8
TANGENT EDGES
  6
ByLayer
 62
  256
370
   -1
100
AcDbLine
 10
8.96065963691
 20
6.26791355057
 11
8.96065963691
 21
6.33595493231
  0
LINE
  5
58E
100
AcDbEntity
  8
TANGENT EDGES
  6
ByLayer
 62
  256
370
   -1
100
AcDbLine
 10
9.667766418099999
 20
6.67616184103
 11
9.667766418099999
 21
6.74420322278
  0
LINE
  5
58F
100
AcDbEntity
  8
HIDDEN
  6
ByLayer
 62
  256
370
   -1
100
AcDbLine
 10
9.47507982022
 20
6.56491418188
 11
9.47507982023
 21
6.63295556362
  0
LINE
  5
590
100
AcDbEntity
  8
HIDDEN
  6
ByLayer
 62
  256
370
   -1
100
AcDbLine
 10
8.767973039039999
 20
6.15666589142
 11
8.767973039039999
 21
6.22470727316
  0
INSERT
  5
591
100
AcDbEntity
  8
CONTINUOUS
  6
ByLayer
 62
  256
370
   -1
100
AcDbBlockReference
  2
BLOCK9
 10
0
 20
0
 30
0
 41
1
 42
1
 43
0
 50
0
 70
    1
 71
    1
 44
0
 45
0
  0
ENDBLK
  5
BC
330
BA
100
AcDbEntity
  8
0
100
AcDbBlockEnd
  0
BLOCK
  5
BE
330
BD
100
AcDbEntity
  8
0
100
AcDbBlockBegin
  2
BLOCK6
 70
    0
 10
0
 20
0
  3
BLOCK6
  1

  0
LINE
  5
592
100
AcDbEntity
  8
CONTINUOUS
  6
ByLayer
 62
  256
370
   -1
100
AcDbLine
 10
0.626251604621
 20
10.6420731707
 11
16.3762516046
 21
10.6420731707
  0
LINE
  5
593
100
AcDbEntity
  8
CONTINUOUS
  6
ByLayer
 62
  256
370
   -1
100
AcDbLine
 10
0.626251604621
 20
10.6420731707
 11
0.626251604621
 21
0.392073170732
  0
LINE
  5
594
100
AcDbEntity
  8
CONTINUOUS
  6
ByLayer
 62
  256
370
   -1
100
AcDbLine
 10
16.3762516046
 20
0.392073170732
 11
0.626251604621
 21
0.392073170732
  0
LINE
  5
595
100
AcDbEntity
  8
CONTINUOUS
  6
ByLayer
 62
  256
370
   -1
100
AcDbLine
 10
16.3762516046
 20
0.392073170732
 11
16.3762516046
 21
10.6420731707
  0
LINE
  5
596
100
AcDbEntity
  8
CONTINUOUS
  6
ByLayer
 62
  256
370
   -1
100
AcDbLine
 10
16.3762516046
 20
8.0752921748
 11
16.5012516046
 21
8.0752921748
  0
LINE
  5
597
100
AcDbEntity
  8
CONTINUOUS
  6
ByLayer
 62
  256
370
   -1
100
AcDbLine
 10
16.3762516046
 20
5.5127921748
 11
16.5012516046
 21
5.5127921748
  0
LINE
  5
598
100
AcDbEntity
  8
CONTINUOUS
  6
ByLayer
 62
  256
370
   -1
100
AcDbLine
 10
16.3762516046
 20
5.5127921748
 11
16.4434330337
 21
5.53680182526
  0
LINE
  5
599
100
AcDbEntity
  8
CONTINUOUS
  6
ByLayer
 62
  256
370
   -1
100
AcDbLine
 10
16.3762516046
 20
5.5127921748
 11
16.4434330337
 21
5.49021364932
  0
LINE
  5
59A
100
AcDbEntity
  8
CONTINUOUS
  6
ByLayer
 62
  256
370
   -1
100
AcDbLine
 10
16.4434330337
 20
5.53680182526
 11
16.4434330337
 21
5.49021364932
  0
LINE
  5
59B
100
AcDbEntity
  8
CONTINUOUS
  6
ByLayer
 62
  256
370
   -1
100
AcDbLine
 10
16.3762516046
 20
5.5127921748
 11
16.4434330337
 21
5.52183033312
  0
LINE
  5
59C
100
AcDbEntity
  8
CONTINUOUS
  6
ByLayer
 62
  256
370
   -1
100
AcDbLine
 10
16.3762516046
 20
5.5127921748
 11
16.4434330337
 21
5.50248405478
  0
LINE
  5
59D
100
AcDbEntity
  8
CONTINUOUS
  6
ByLayer
 62
  256
370
   -1
100
AcDbLine
 10
16.3762516046
 20
2.9502921748
 11
16.5012516046
 21
2.9502921748
  0
LINE
  5
59E
100
AcDbEntity
  8
CONTINUOUS
  6
ByLayer
 62
  256
370
   -1
100
AcDbLine
 10
0.626251604621
 20
2.95457317073
 11
0.501251604621
 21
2.95457317073
  0
LINE
  5
59F
100
AcDbEntity
  8
CONTINUOUS
  6
ByLayer
 62
  256
370
   -1
100
AcDbLine
 10
0.626251604621
 20
5.51707317073
 11
0.559070175518
 21
5.50676505072
  0
LINE
  5
5A0
100
AcDbEntity
  8
CONTINUOUS
  6
ByLayer
 62
  256
370
   -1
100
AcDbLine
 10
0.626251604621
 20
5.51707317073
 11
0.559070175518
 21
5.52611132905
  0
LINE
  5
5A1
100
AcDbEntity
  8
CONTINUOUS
  6
ByLayer
 62
  256
370
   -1
100
AcDbLine
 10
0.559070175518
 20
5.5410828212
 11
0.559070175518
 21
5.49449464526
  0
LINE
  5
5A2
100
AcDbEntity
  8
CONTINUOUS
  6
ByLayer
 62
  256
370
   -1
100
AcDbLine
 10
0.626251604621
 20
5.51707317073
 11
0.559070175518
 21
5.49449464526
  0
LINE
  5
5A3
100
AcDbEntity
  8
CONTINUOUS
  6
ByLayer
 62
  256
370
   -1
100
AcDbLine
 10
0.626251604621
 20
5.51707317073
 11
0.559070175518
 21
5.5410828212
  0
LINE
  5
5A4
100
AcDbEntity
  8
CONTINUOUS
  6
ByLayer
 62
  256
370
   -1
100
AcDbLine
 10
0.626251604621
 20
5.51707317073
 11
0.501251604621
 21
5.51707317073
  0
LINE
  5
5A5
100
AcDbEntity
  8
CONTINUOUS
  6
ByLayer
 62
  256
370
   -1
100
AcDbLine
 10
0.626251604621
 20
8.079573170730001
 11
0.501251604621
 21
8.079573170730001
  0
LINE
  5
5A6
100
AcDbEntity
  8
CONTINUOUS
  6
ByLayer
 62
  256
370
   -1
100
AcDbLine
 10
9.54980206352
 20
2.44962614087
 11
16.3762516046
 21
2.44962614087
  0
LINE
  5
5A7
100
AcDbEntity
  8
CONTINUOUS
  6
ByLayer
 62
  256
370
   -1
100
AcDbLine
 10
11.5513364013
 20
2.44962614087
 11
11.5513364013
 21
0.392073170732
  0
LINE
  5
5A8
100
AcDbEntity
  8
CONTINUOUS
  6
ByLayer
 62
  256
370
   -1
100
AcDbLine
 10
13.2432004658
 20
2.44962614087
 11
13.2432004658
 21
0.392073170732
  0
LINE
  5
5A9
100
AcDbEntity
  8
CONTINUOUS
  6
ByLayer
 62
  256
370
   -1
100
AcDbLine
 10
13.2432004658
 20
0.604959010098
 11
16.3762516046
 21
0.604959010098
  0
LINE
  5
5AA
100
AcDbEntity
  8
CONTINUOUS
  6
ByLayer
 62
  256
370
   -1
100
AcDbLine
 10
13.2432004658
 20
1.11193624566
 11
16.3762516046
 21
1.11193624566
  0
LINE
  5
5AB
100
AcDbEntity
  8
CONTINUOUS
  6
ByLayer
 62
  256
370
   -1
100
AcDbLine
 10
13.2432004658
 20
2.07462614087
 11
16.3762516046
 21
2.07462614087
  0
LINE
  5
5AC
100
AcDbEntity
  8
CONTINUOUS
  6
ByLayer
 62
  256
370
   -1
100
AcDbLine
 10
13.6596632587
 20
1.11193624566
 11
13.6596632587
 21
0.604959010098
  0
LINE
  5
5AD
100
AcDbEntity
  8
CONTINUOUS
  6
ByLayer
 62
  256
370
   -1
100
AcDbLine
 10
14.2861627554
 20
0.604959010098
 11
14.2861627554
 21
0.392073170732
  0
LINE
  5
5AE
100
AcDbEntity
  8
CONTINUOUS
  6
ByLayer
 62
  256
370
   -1
100
AcDbLine
 10
15.8043163091
 20
1.11193624566
 11
15.8043163091
 21
0.604959010098
  0
LINE
  5
5AF
100
AcDbEntity
  8
CONTINUOUS
  6
ByLayer
 62
  256
370
   -1
100
AcDbLine
 10
15.5189756774
 20
0.604959010098
 11
15.5189756774
 21
0.392073170732
  0
LINE
  5
5B0
100
AcDbEntity
  8
CONTINUOUS
  6
ByLayer
 62
  256
370
   -1
100
AcDbLine
 10
11.5513364013
 20
1.88712614087
 11
13.2432004658
 21
1.88712614087
  0
LINE
  5
5B1
100
AcDbEntity
  8
CONTINUOUS
  6
ByLayer
 62
  256
370
   -1
100
AcDbLine
 10
11.5513364013
 20
2.07462614087
 11
13.2432004658
 21
2.07462614087
  0
LINE
  5
5B2
100
AcDbEntity
  8
CONTINUOUS
  6
ByLayer
 62
  256
370
   -1
100
AcDbLine
 10
11.5513364013
 20
2.26212614087
 11
13.2432004658
 21
2.26212614087
  0
LINE
  5
5B3
100
AcDbEntity
  8
CONTINUOUS
  6
ByLayer
 62
  256
370
   -1
100
AcDbLine
 10
11.5513364013
 20
1.11668767505
 11
13.2432004658
 21
1.11668767505
  0
LINE
  5
5B4
100
AcDbEntity
  8
CONTINUOUS
  6
ByLayer
 62
  256
370
   -1
100
AcDbLine
 10
12.6404313067
 20
2.44962614087
 11
12.6404313067
 21
1.69962614087
  0
LINE
  5
5B5
100
AcDbEntity
  8
CONTINUOUS
  6
ByLayer
 62
  256
370
   -1
100
AcDbLine
 10
12.0248227272
 20
2.44962614087
 11
12.0248227272
 21
1.69962614087
  0
LINE
  5
5B6
100
AcDbEntity
  8
CONTINUOUS
  6
ByLayer
 62
  256
370
   -1
100
AcDbLine
 10
9.54980206352
 20
0.392073170732
 11
9.54980206352
 21
2.44962614087
  0
LINE
  5
5B7
100
AcDbEntity
  8
CONTINUOUS
  6
ByLayer
 62
  256
370
   -1
100
AcDbLine
 10
11.9625579365
 20
1.42415459873
 11
11.9625579365
 21
1.11668767505
  0
LINE
  5
5B8
100
AcDbEntity
  8
CONTINUOUS
  6
ByLayer
 62
  256
370
   -1
100
AcDbLine
 10
12.3737128259
 20
1.42415459873
 11
12.3737128259
 21
1.11668767505
  0
LINE
  5
5B9
100
AcDbEntity
  8
CONTINUOUS
  6
ByLayer
 62
  256
370
   -1
100
AcDbLine
 10
12.8181441331
 20
1.42415459873
 11
12.8181441331
 21
1.11668767505
  0
LINE
  5
5BA
100
AcDbEntity
  8
CONTINUOUS
  6
ByLayer
 62
  256
370
   -1
100
AcDbLine
 10
11.5513364013
 20
1.42415459873
 11
13.2432004658
 21
1.42415459873
  0
LINE
  5
5BB
100
AcDbEntity
  8
CONTINUOUS
  6
ByLayer
 62
  256
370
   -1
100
AcDbLine
 10
13.2432004658
 20
1.69962614087
 11
11.5513364013
 21
1.69962614087
  0
LINE
  5
5BC
100
AcDbEntity
  8
CONTINUOUS
  6
ByLayer
 62
  256
370
   -1
100
AcDbLine
 10
9.54980206352
 20
1.26508544565
 11
11.5513364013
 21
1.26508544565
  0
LINE
  5
5BD
100
AcDbEntity
  8
CONTINUOUS
  6
ByLayer
 62
  256
370
   -1
100
AcDbLine
 10
14.4072516046
 20
0.392073170732
 11
14.4072516046
 21
0.307273964934
  0
LINE
  5
5BE
100
AcDbEntity
  8
CONTINUOUS
  6
ByLayer
 62
  256
370
   -1
100
AcDbLine
 10
12.4385016046
 20
0.392073170732
 11
12.4385016046
 21
0.307273964934
  0
LINE
  5
5BF
100
AcDbEntity
  8
CONTINUOUS
  6
ByLayer
 62
  256
370
   -1
100
AcDbLine
 10
10.4697516046
 20
0.392073170732
 11
10.4697516046
 21
0.307273964934
  0
LINE
  5
5C0
100
AcDbEntity
  8
CONTINUOUS
  6
ByLayer
 62
  256
370
   -1
100
AcDbLine
 10
8.501001604620001
 20
0.392073170732
 11
8.501001604620001
 21
0.307273964934
  0
LINE
  5
5C1
100
AcDbEntity
  8
CONTINUOUS
  6
ByLayer
 62
  256
370
   -1
100
AcDbLine
 10
6.53225160462
 20
0.392073170732
 11
6.53225160462
 21
0.307273964934
  0
LINE
  5
5C2
100
AcDbEntity
  8
CONTINUOUS
  6
ByLayer
 62
  256
370
   -1
100
AcDbLine
 10
4.56350160462
 20
0.392073170732
 11
4.56350160462
 21
0.307273964934
  0
LINE
  5
5C3
100
AcDbEntity
  8
CONTINUOUS
  6
ByLayer
 62
  256
370
   -1
100
AcDbLine
 10
2.59475160462
 20
0.392073170732
 11
2.59475160462
 21
0.307273964934
  0
LINE
  5
5C4
100
AcDbEntity
  8
CONTINUOUS
  6
ByLayer
 62
  256
370
   -1
100
AcDbLine
 10
2.59475160462
 20
10.6420731707
 11
2.59475160462
 21
10.7268723765
  0
LINE
  5
5C5
100
AcDbEntity
  8
CONTINUOUS
  6
ByLayer
 62
  256
370
   -1
100
AcDbLine
 10
4.56350160462
 20
10.6420731707
 11
4.56350160462
 21
10.7268723765
  0
LINE
  5
5C6
100
AcDbEntity
  8
CONTINUOUS
  6
ByLayer
 62
  256
370
   -1
100
AcDbLine
 10
6.53225160462
 20
10.6420731707
 11
6.53225160462
 21
10.7268723765
  0
LINE
  5
5C7
100
AcDbEntity
  8
CONTINUOUS
  6
ByLayer
 62
  256
370
   -1
100
AcDbLine
 10
8.501001604620001
 20
10.6420731707
 11
8.501001604620001
 21
10.7268723765
  0
LINE
  5
5C8
100
AcDbEntity
  8
CONTINUOUS
  6
ByLayer
 62
  256
370
   -1
100
AcDbLine
 10
10.4697516046
 20
10.6420731707
 11
10.4697516046
 21
10.7268723765
  0
LINE
  5
5C9
100
AcDbEntity
  8
CONTINUOUS
  6
ByLayer
 62
  256
370
   -1
100
AcDbLine
 10
12.4385016046
 20
10.6420731707
 11
12.4385016046
 21
10.7268723765
  0
LINE
  5
5CA
100
AcDbEntity
  8
CONTINUOUS
  6
ByLayer
 62
  256
370
   -1
100
AcDbLine
 10
14.4072516046
 20
10.6420731707
 11
14.4072516046
 21
10.7268723765
  0
LINE
  5
5CB
100
AcDbEntity
  8
CONTINUOUS
  6
ByLayer
 62
  256
370
   -1
100
AcDbLine
 10
8.501001604620001
 20
10.6420731707
 11
8.48775048715
 21
10.6840054626
  0
LINE
  5
5CC
100
AcDbEntity
  8
CONTINUOUS
  6
ByLayer
 62
  256
370
   -1
100
AcDbLine
 10
8.501001604620001
 20
10.6420731707
 11
8.513556578459999
 21
10.6840054626
  0
LINE
  5
5CD
100
AcDbEntity
  8
CONTINUOUS
  6
ByLayer
 62
  256
370
   -1
100
AcDbLine
 10
8.513556578459999
 20
10.6840054626
 11
8.48775048715
 21
10.6840054626
  0
LINE
  5
5CE
100
AcDbEntity
  8
CONTINUOUS
  6
ByLayer
 62
  256
370
   -1
100
AcDbLine
 10
8.49396306469
 20
10.6840054626
 11
8.501001604620001
 21
10.6420731707
  0
LINE
  5
5CF
100
AcDbEntity
  8
CONTINUOUS
  6
ByLayer
 62
  256
370
   -1
100
AcDbLine
 10
8.505910329180001
 20
10.6840054626
 11
8.501001604620001
 21
10.6420731707
  0
LINE
  5
5D0
100
AcDbEntity
  8
CONTINUOUS
  6
ByLayer
 62
  256
370
   -1
100
AcDbLine
 10
8.501001604620001
 20
0.392073170732
 11
8.513556578459999
 21
0.3575
  0
LINE
  5
5D1
100
AcDbEntity
  8
CONTINUOUS
  6
ByLayer
 62
  256
370
   -1
100
AcDbLine
 10
8.513556578459999
 20
0.3575
 11
8.48775048715
 21
0.3575
  0
LINE
  5
5D2
100
AcDbEntity
  8
CONTINUOUS
  6
ByLayer
 62
  256
370
   -1
100
AcDbLine
 10
8.48775048715
 20
0.3575
 11
8.501001604620001
 21
0.392073170732
  0
INSERT
  5
5D3
100
AcDbEntity
  8
0
  6
ByLayer
 62
  256
370
   -1
100
AcDbBlockReference
  2
BLOCK7
 10
-0.37302643846
 20
0.0594801148978
 30
0
 41
1
 42
1
 43
0
 50
0
 70
    1
 71
    1
 44
0
 45
0
  0
INSERT
  5
5D4
100
AcDbEntity
  8
0
  6
ByLayer
 62
  256
370
   -1
100
AcDbBlockReference
  2
BLOCK8
 10
11.7562826626
 20
1.56976492583
 30
0
 41
1
 42
1
 43
0
 50
0
 70
    1
 71
    1
 44
0
 45
0
  0
MTEXT
  5
5D5
100
AcDbEntity
  8
CONTINUOUS
  6
ByLayer
 62
  256
370
   -1
100
AcDbMText
 10
12.0667861578
 20
1.25640681409
 30
0
 40
0.0732451420681
 41
0.5534077400700889
 71
    4
 72
    1
  1
\C7;+-.1\C7;
  7
standard
210
0
220
0
230
1
 50
0
 73
    1
 44
1
  0
MTEXT
  5
5D6
100
AcDbEntity
  8
CONTINUOUS
  6
ByLayer
 62
  256
370
   -1
100
AcDbMText
 10
13.7722586084
 20
0.493252333694
 30
0
 40
0.0775536798368
 41
0.6635148163815112
 71
    4
 72
    1
  1
\C7;NONE\C7;
  7
standard
210
0
220
0
230
1
 50
0
 73
    1
 44
1
  0
MTEXT
  5
5D7
100
AcDbEntity
  8
CONTINUOUS
  6
ByLayer
 62
  256
370
   -1
100
AcDbMText
 10
9.704144788860001
 20
1.0281170059
 30
0
 40
0.044686324118
 41
1.748973046086493
 71
    1
 72
    1
  1
\C7;ALL INFORMATION IS RELEASED UNDER THE OSE \C7;
  7
standard
210
0
220
0
230
1
 50
0
 73
    1
 44
1
  0
MTEXT
  5
5D8
100
AcDbEntity
  8
CONTINUOUS
  6
ByLayer
 62
  256
370
   -1
100
AcDbMText
 10
11.6511163186
 20
1.22914982593
 30
0
 40
0.0732451420681
 41
0.569684438307449
 71
    4
 72
    1
  1
\C7;+-.5\C7;
  7
standard
210
0
220
0
230
1
 50
0
 73
    1
 44
1
  0
MTEXT
  5
5D9
100
AcDbEntity
  8
CONTINUOUS
  6
ByLayer
 62
  256
370
   -1
100
AcDbMText
 10
16.4820809255
 20
1.80243379177
 30
0
 40
0.07149811858879999
 41
0.4369329469315555
 71
    1
 72
    1
  1
\C7;A\C7;
  7
standard
210
0
220
0
230
1
 50
0
 73
    1
 44
1
  0
MTEXT
  5
5DA
100
AcDbEntity
  8
CONTINUOUS
  6
ByLayer
 62
  256
370
   -1
100
AcDbMText
 10
13.3602911836
 20
1.09582620642
 30
0
 40
0.0804353834124
 41
0.6434830502467259
 71
    1
 72
    1
  1
\C7;SIZE\C7;
  7
standard
210
0
220
0
230
1
 50
0
 73
    1
 44
1
  0
MTEXT
  5
5DB
100
AcDbEntity
  8
CONTINUOUS
  6
ByLayer
 62
  256
370
   -1
100
AcDbMText
 10
16.4711826244
 20
6.93488774165
 30
0
 40
0.07149811858879999
 41
0.4210444761340444
 71
    1
 72
    1
  1
\C7;C\C7;
  7
standard
210
0
220
0
230
1
 50
0
 73
    1
 44
1
  0
MTEXT
  5
5DC
100
AcDbEntity
  8
CONTINUOUS
  6
ByLayer
 62
  256
370
   -1
100
AcDbMText
 10
9.47012493161
 20
0.343531883398
 30
0
 40
0.07149811858879999
 41
0.4289887115328
 71
    1
 72
    1
  1
\C7;4\C7;
  7
standard
210
0
220
0
230
1
 50
0
 73
    1
 44
1
  0
MTEXT
  5
5DD
100
AcDbEntity
  8
CONTINUOUS
  6
ByLayer
 62
  256
370
   -1
100
AcDbMText
 10
11.5941272892
 20
1.40810952244
 30
0
 40
0.0536235889416
 41
0.5541104076948838
 71
    1
 72
    1
  1
\C7;ANGLES\C7;
  7
standard
210
0
220
0
230
1
 50
0
 73
    1
 44
1
  0
MTEXT
  5
5DE
100
AcDbEntity
  8
CONTINUOUS
  6
ByLayer
 62
  256
370
   -1
100
AcDbMText
 10
14.9028603862
 20
0.524457871445
 30
0
 40
0.0775536798368
 41
0.1852671240545778
 71
    4
 72
    1
  1
\C7;
  7
standard
210
0
220
0
230
1
 50
0
 73
    1
 44
1
  0
MTEXT
  5
5DF
100
AcDbEntity
  8
CONTINUOUS
  6
ByLayer
 62
  256
370
   -1
100
AcDbMText
 10
12.0671129602
 20
1.79144010769
 30
0
 40
0.0775536798368
 41
0.1852671240545778
 71
    4
 72
    1
  1
\C7;
  7
standard
210
0
220
0
230
1
 50
0
 73
    1
 44
1
  0
MTEXT
  5
5E0
100
AcDbEntity
  8
CONTINUOUS
  6
ByLayer
 62
  256
370
   -1
100
AcDbMText
 10
12.8387210876
 20
1.23131188821
 30
0
 40
0.0732451420681
 41
0.6836213259689379
 71
    4
 72
    1
  1
\C7;+-.005\C7;
  7
standard
210
0
220
0
230
1
 50
0
 73
    1
 44
1
  0
MTEXT
  5
5E1
100
AcDbEntity
  8
CONTINUOUS
  6
ByLayer
 62
  256
370
   -1
100
AcDbMText
 10
13.2990559431
 20
2.04849907575
 30
0
 40
0.0804353834124
 41
1.117158085897531
 71
    1
 72
    1
  1
\C7;DESCRIPTION:\C7;
  7
standard
210
0
220
0
230
1
 50
0
 73
    1
 44
1
  0
MTEXT
  5
5E2
100
AcDbEntity
  8
CONTINUOUS
  6
ByLayer
 62
  256
370
   -1
100
AcDbMText
 10
12.5359721151
 20
1.40810952244
 30
0
 40
0.0536235889416
 41
0.3991978287874667
 71
    1
 72
    1
  1
\C7;.XX\C7;
  7
standard
210
0
220
0
230
1
 50
0
 73
    1
 44
1
  0
MTEXT
  5
5E3
100
AcDbEntity
  8
CONTINUOUS
  6
ByLayer
 62
  256
370
   -1
100
AcDbMText
 10
10.194692211
 20
1.18799467965
 30
0
 40
0.044686324118
 41
0.8875200389811256
 71
    1
 72
    1
  1
\C7;LICENSE INFORMATION\C7;
  7
standard
210
0
220
0
230
1
 50
0
 73
    1
 44
1
  0
MTEXT
  5
5E4
100
AcDbEntity
  8
CONTINUOUS
  6
ByLayer
 62
  256
370
   -1
100
AcDbMText
 10
13.3235206706
 20
0.587696530819
 30
0
 40
0.0804353834124
 41
0.7775420226007259
 71
    1
 72
    1
  1
\C7;SCALE:\C7;
  7
standard
210
0
220
0
230
1
 50
0
 73
    1
 44
1
  0
MTEXT
  5
5E5
100
AcDbEntity
  8
CONTINUOUS
  6
ByLayer
 62
  256
370
   -1
100
AcDbMText
 10
9.704144788860001
 20
0.9287469313309999
 30
0
 40
0.044686324118
 41
1.597536058797713
 71
    1
 72
    1
  1
\C7;LICENSE FOR DISTRIBUTIVE ECONOMICS. FOR \C7;
  7
standard
210
0
220
0
230
1
 50
0
 73
    1
 44
1
  0
MTEXT
  5
5E6
100
AcDbEntity
  8
CONTINUOUS
  6
ByLayer
 62
  256
370
   -1
100
AcDbMText
 10
15.974082703
 20
1.11376163929
 30
0
 40
0.0804353834124
 41
0.625608537652
 71
    1
 72
    1
  1
\C7;REV\C7;
  7
standard
210
0
220
0
230
1
 50
0
 73
    1
 44
1
  0
MTEXT
  5
5E7
100
AcDbEntity
  8
CONTINUOUS
  6
ByLayer
 62
  256
370
   -1
100
AcDbMText
 10
3.55098702735
 20
10.8584654291
 30
0
 40
0.07149811858879999
 41
0.4210444761340444
 71
    1
 72
    1
  1
\C7;7\C7;
  7
standard
210
0
220
0
230
1
 50
0
 73
    1
 44
1
  0
MTEXT
  5
5E8
100
AcDbEntity
  8
CONTINUOUS
  6
ByLayer
 62
  256
370
   -1
100
AcDbMText
 10
9.704144788860001
 20
0.829376856762
 30
0
 40
0.044686324118
 41
1.163085713849056
 71
    1
 72
    1
  1
\C7;FURTHER INFORMATION GO TO:\C7;
  7
standard
210
0
220
0
230
1
 50
0
 73
    1
 44
1
  0
MTEXT
  5
5E9
100
AcDbEntity
  8
CONTINUOUS
  6
ByLayer
 62
  256
370
   -1
100
AcDbMText
 10
9.46429872495
 20
10.8654638765
 30
0
 40
0.07149811858879999
 41
0.4289887115328
 71
    1
 72
    1
  1
\C7;4\C7;
  7
standard
210
0
220
0
230
1
 50
0
 73
    1
 44
1
  0
MTEXT
  5
5EA
100
AcDbEntity
  8
CONTINUOUS
  6
ByLayer
 62
  256
370
   -1
100
AcDbMText
 10
12.1247775615
 20
1.40810952244
 30
0
 40
0.0536235889416
 41
0.3455742398458667
 71
    1
 72
    1
  1
\C7;.X\C7;
  7
standard
210
0
220
0
230
1
 50
0
 73
    1
 44
1
  0
MTEXT
  5
5EB
100
AcDbEntity
  8
CONTINUOUS
  6
ByLayer
 62
  256
370
   -1
100
AcDbMText
 10
14.3543842928
 20
0.583894128255
 30
0
 40
0.0804353834124
 41
0.8401028934184001
 71
    1
 72
    1
  1
\C7;WEIGHT:\C7;
  7
standard
210
0
220
0
230
1
 50
0
 73
    1
 44
1
  0
MTEXT
  5
5EC
100
AcDbEntity
  8
CONTINUOUS
  6
ByLayer
 62
  256
370
   -1
100
AcDbMText
 10
12.1967072781
 20
2.41539617384
 30
0
 40
0.0536235889416
 41
0.4706959473762666
 71
    1
 72
    1
  1
\C7;NAME\C7;
  7
standard
210
0
220
0
230
1
 50
0
 73
    1
 44
1
  0
MTEXT
  5
5ED
100
AcDbEntity
  8
CONTINUOUS
  6
ByLayer
 62
  256
370
   -1
100
AcDbMText
 10
7.47869468193
 20
10.8670932197
 30
0
 40
0.07149811858879999
 41
0.4210444761340488
 71
    1
 72
    1
  1
\C7;5\C7;
  7
standard
210
0
220
0
230
1
 50
0
 73
    1
 44
1
  0
MTEXT
  5
5EE
100
AcDbEntity
  8
CONTINUOUS
  6
ByLayer
 62
  256
370
   -1
100
AcDbMText
 10
5.49868768611
 20
10.8665566623
 30
0
 40
0.07149811858879999
 41
0.4210444761340488
 71
    1
 72
    1
  1
\C7;6\C7;
  7
standard
210
0
220
0
230
1
 50
0
 73
    1
 44
1
  0
MTEXT
  5
5EF
100
AcDbEntity
  8
CONTINUOUS
  6
ByLayer
 62
  256
370
   -1
100
AcDbMText
 10
13.6876444178
 20
2.24976231733
 30
0
 40
0.137873208599
 41
1.953203730027009
 71
    4
 72
    1
  1
\C7;CEB PRESS 5\C7;
  7
standard
210
0
220
0
230
1
 50
0
 73
    1
 44
1
  0
MTEXT
  5
5F0
100
AcDbEntity
  8
CONTINUOUS
  6
ByLayer
 62
  256
370
   -1
100
AcDbMText
 10
13.4009949841
 20
10.8660102694
 30
0
 40
0.07149811858879999
 41
0.4210444761340444
 71
    1
 72
    1
  1
\C7;2\C7;
  7
standard
210
0
220
0
230
1
 50
0
 73
    1
 44
1
  0
MTEXT
  5
5F1
100
AcDbEntity
  8
CONTINUOUS
  6
ByLayer
 62
  256
370
   -1
100
AcDbMText
 10
15.6390693244
 20
0.535415439155
 30
0
 40
0.0775536798368
 41
0.1852671240545778
 71
    4
 72
    1
  1
\C7;
  7
standard
210
0
220
0
230
1
 50
0
 73
    1
 44
1
  0
MTEXT
  5
5F2
100
AcDbEntity
  8
CONTINUOUS
  6
ByLayer
 62
  256
370
   -1
100
AcDbMText
 10
0.426009949526
 20
1.7856582291
 30
0
 40
0.07149811858879999
 41
0.4369329469315555
 71
    1
 72
    1
  1
\C7;A\C7;
  7
standard
210
0
220
0
230
1
 50
0
 73
    1
 44
1
  0
MTEXT
  5
5F3
100
AcDbEntity
  8
CONTINUOUS
  6
ByLayer
 62
  256
370
   -1
100
AcDbMText
 10
1.50908886894
 20
10.8613063881
 30
0
 40
0.07149811858879999
 41
0.4210444761340444
 71
    1
 72
    1
  1
\C7;8\C7;
  7
standard
210
0
220
0
230
1
 50
0
 73
    1
 44
1
  0
MTEXT
  5
5F4
100
AcDbEntity
  8
CONTINUOUS
  6
ByLayer
 62
  256
370
   -1
100
AcDbMText
 10
15.852709192
 20
0.848986032441
 30
0
 40
0.155107359674
 41
0.3705342481101112
 71
    4
 72
    1
  1
\C7;
  7
standard
210
0
220
0
230
1
 50
0
 73
    1
 44
1
  0
MTEXT
  5
5F5
100
AcDbEntity
  8
CONTINUOUS
  6
ByLayer
 62
  256
370
   -1
100
AcDbMText
 10
12.8420705227
 20
2.40448810286
 30
0
 40
0.0536235889416
 41
0.4647377708272033
 71
    1
 72
    1
  1
\C7;DATE\C7;
  7
standard
210
0
220
0
230
1
 50
0
 73
    1
 44
1
  0
MTEXT
  5
5F6
100
AcDbEntity
  8
CONTINUOUS
  6
ByLayer
 62
  256
370
   -1
100
AcDbMText
 10
13.7021006186
 20
0.878810056551
 30
0
 40
0.155107359674
 41
2.718687332063722
 71
    4
 72
    1
  1
\C7;01-082-00-0 L-Q8\C7;
  7
standard
210
0
220
0
230
1
 50
0
 73
    1
 44
1
  0
MTEXT
  5
5F7
100
AcDbEntity
  8
CONTINUOUS
  6
ByLayer
 62
  256
370
   -1
100
AcDbMText
 10
13.6651407077
 20
1.7171682523
 30
0
 40
0.08617075537420001
 41
1.20160331105135
 71
    4
 72
    1
  1
\C7;L-Q8\C7;\H0.95x;
  7
standard
210
0
220
0
230
1
 50
0
 73
    1
 44
1
  0
MTEXT
  5
5F8
100
AcDbEntity
  8
CONTINUOUS
  6
ByLayer
 62
  256
370
   -1
100
AcDbMText
 10
15.4083167374
 20
0.331180143587
 30
0
 40
0.07149811858879999
 41
0.4051560053365333
 71
    1
 72
    1
  1
\C7;1\C7;
  7
standard
210
0
220
0
230
1
 50
0
 73
    1
 44
1
  0
MTEXT
  5
5F9
100
AcDbEntity
  8
CONTINUOUS
  6
ByLayer
 62
  256
370
   -1
100
AcDbMText
 10
16.4913158734
 20
9.52080834587
 30
0
 40
0.07149811858879999
 41
0.4289887115328044
 71
    1
 72
    1
  1
\C7;D\C7;
  7
standard
210
0
220
0
230
1
 50
0
 73
    1
 44
1
  0
MTEXT
  5
5FA
100
AcDbEntity
  8
CONTINUOUS
  6
ByLayer
 62
  256
370
   -1
100
AcDbMText
 10
12.0671141617
 20
2.16915160652
 30
0
 40
0.0732451420681
 41
0.5696844383074444
 71
    4
 72
    1
  1
\C7;RHB\C7;
  7
standard
210
0
220
0
230
1
 50
0
 73
    1
 44
1
  0
MTEXT
  5
5FB
100
AcDbEntity
  8
CONTINUOUS
  6
ByLayer
 62
  256
370
   -1
100
AcDbMText
 10
11.5959805855
 20
2.21550209874
 30
0
 40
0.0536235889416
 41
0.5362358894160032
 71
    1
 72
    1
  1
\C7;DRAWN\C7;
  7
standard
210
0
220
0
230
1
 50
0
 73
    1
 44
1
  0
MTEXT
  5
5FC
100
AcDbEntity
  8
CONTINUOUS
  6
ByLayer
 62
  256
370
   -1
100
AcDbMText
 10
12.4654202198
 20
1.24618552801
 30
0
 40
0.0732451420681
 41
0.6266528821381935
 71
    4
 72
    1
  1
\C7;+-.03\C7;
  7
standard
210
0
220
0
230
1
 50
0
 73
    1
 44
1
  0
MTEXT
  5
5FD
100
AcDbEntity
  8
CONTINUOUS
  6
ByLayer
 62
  256
370
   -1
100
AcDbMText
 10
16.5114787596
 20
4.40889620723
 30
0
 40
0.07149811858879999
 41
0.4289887115328
 71
    1
 72
    1
  1
\C7;B\C7;
  7
standard
210
0
220
0
230
1
 50
0
 73
    1
 44
1
  0
MTEXT
  5
5FE
100
AcDbEntity
  8
CONTINUOUS
  6
ByLayer
 62
  256
370
   -1
100
AcDbMText
 10
6.80009196124
 20
1.11928384135
 30
0
 40
0.0775536798368
 41
2.882411767267739
 71
    4
 72
    1
  3
\C7;PLEASE PROCEED AT YOUR OWN RISK!\C7;\PTHESE DRAWINGS ARE MEANT TO DOCUMENT\C7;\PPREVIOUS WORK AND PRESENT IDEAS ONLY\C7;\PTHEY ARE NOT MEANT TO BE A COMPLETE GUIDE.\C7;\PWORKING WITH ANY TOOLS, EQUIPMENT, \C7;\PHYDRAULICS, ELECTRONICS, ETC. MAY \
  1
C7;\PCAUSE SERIOUS INJURY OR DEATH.\C7;\P\C7;
  7
standard
210
0
220
0
230
1
 50
0
 73
    1
 44
1
  0
MTEXT
  5
5FF
100
AcDbEntity
  8
CONTINUOUS
  6
ByLayer
 62
  256
370
   -1
100
AcDbMText
 10
13.3681812646
 20
1.00046194544
 30
0
 40
0.205557090943
 41
1.233342545658
 71
    1
 72
    1
  1
\C7;B\C7;
  7
standard
210
0
220
0
230
1
 50
0
 73
    1
 44
1
  0
MTEXT
  5
600
100
AcDbEntity
  8
CONTINUOUS
  6
ByLayer
 62
  256
370
   -1
100
AcDbMText
 10
9.704144788860001
 20
0.630636707625
 30
0
 40
0.044686324118
 41
1.473407390165751
 71
    1
 72
    1
  1
\C7;OPENSOURCEECOLOGY.ORG/WIKI/LICENSE \C7;
  7
standard
210
0
220
0
230
1
 50
0
 73
    1
 44
1
  0
MTEXT
  5
601
100
AcDbEntity
  8
CONTINUOUS
  6
ByLayer
 62
  256
370
   -1
100
AcDbMText
 10
0.428610479966
 20
9.487355494719999
 30
0
 40
0.07149811858879999
 41
0.4289887115328044
 71
    1
 72
    1
  1
\C7;D\C7;
  7
standard
210
0
220
0
230
1
 50
0
 73
    1
 44
1
  0
MTEXT
  5
602
100
AcDbEntity
  8
CONTINUOUS
  6
ByLayer
 62
  256
370
   -1
100
AcDbMText
 10
15.4273970005
 20
10.8598767883
 30
0
 40
0.07149811858879999
 41
0.4051560053365333
 71
    1
 72
    1
  1
\C7;1\C7;
  7
standard
210
0
220
0
230
1
 50
0
 73
    1
 44
1
  0
MTEXT
  5
603
100
AcDbEntity
  8
CONTINUOUS
  6
ByLayer
 62
  256
370
   -1
100
AcDbMText
 10
11.3787703324
 20
0.341427315776
 30
0
 40
0.07149811858879999
 41
0.4210444761340488
 71
    1
 72
    1
  1
\C7;3\C7;
  7
standard
210
0
220
0
230
1
 50
0
 73
    1
 44
1
  0
MTEXT
  5
604
100
AcDbEntity
  8
CONTINUOUS
  6
ByLayer
 62
  256
370
   -1
100
AcDbMText
 10
11.6118920972
 20
0.574023856188
 30
0
 40
0.07149811858879999
 41
1.62459613904552
 71
    1
 72
    1
  1
\C7;THIRD ANGLE PROJECTION\C7;
  7
standard
210
0
220
0
230
1
 50
0
 73
    1
 44
1
  0
MTEXT
  5
605
100
AcDbEntity
  8
CONTINUOUS
  6
ByLayer
 62
  256
370
   -1
100
AcDbMText
 10
12.9507724147
 20
1.40810952244
 30
0
 40
0.0536235889416
 41
0.4528214177290666
 71
    1
 72
    1
  1
\C7;.XXX\C7;
  7
standard
210
0
220
0
230
1
 50
0
 73
    1
 44
1
  0
MTEXT
  5
606
100
AcDbEntity
  8
CONTINUOUS
  6
ByLayer
 62
  256
370
   -1
100
AcDbMText
 10
12.6790060209
 20
2.16159715427
 30
0
 40
0.0775536798368
 41
0.1852671240545778
 71
    4
 72
    1
  1
\C7;
  7
standard
210
0
220
0
230
1
 50
0
 73
    1
 44
1
  0
MTEXT
  5
607
100
AcDbEntity
  8
CONTINUOUS
  6
ByLayer
 62
  256
370
   -1
100
AcDbMText
 10
11.432728105
 20
10.8593303954
 30
0
 40
0.07149811858879999
 41
0.4210444761340488
 71
    1
 72
    1
  1
\C7;3\C7;
  7
standard
210
0
220
0
230
1
 50
0
 73
    1
 44
1
  0
MTEXT
  5
608
100
AcDbEntity
  8
CONTINUOUS
  6
ByLayer
 62
  256
370
   -1
100
AcDbMText
 10
1.52677445274
 20
0.342770883823
 30
0
 40
0.07149811858879999
 41
0.4210444761340444
 71
    1
 72
    1
  1
\C7;8\C7;
  7
standard
210
0
220
0
230
1
 50
0
 73
    1
 44
1
  0
MTEXT
  5
609
100
AcDbEntity
  8
CONTINUOUS
  6
ByLayer
 62
  256
370
   -1
100
AcDbMText
 10
12.6703334419
 20
1.79787658338
 30
0
 40
0.0775536798368
 41
0.1852671240545778
 71
    4
 72
    1
  1
\C7;
  7
standard
210
0
220
0
230
1
 50
0
 73
    1
 44
1
  0
MTEXT
  5
60A
100
AcDbEntity
  8
CONTINUOUS
  6
ByLayer
 62
  256
370
   -1
100
AcDbMText
 10
12.0746666615
 20
1.98029600729
 30
0
 40
0.0775536798368
 41
0.1852671240545778
 71
    4
 72
    1
  1
\C7;
  7
standard
210
0
220
0
230
1
 50
0
 73
    1
 44
1
  0
MTEXT
  5
60B
100
AcDbEntity
  8
CONTINUOUS
  6
ByLayer
 62
  256
370
   -1
100
AcDbMText
 10
13.2990559431
 20
2.44278324028
 30
0
 40
0.0804353834124
 41
0.9026637471836051
 71
    1
 72
    1
  1
\C7;PROJECT:\C7;
  7
standard
210
0
220
0
230
1
 50
0
 73
    1
 44
1
  0
MTEXT
  5
60C
100
AcDbEntity
  8
CONTINUOUS
  6
ByLayer
 62
  256
370
   -1
100
AcDbMText
 10
13.352296777
 20
0.342247266662
 30
0
 40
0.07149811858879999
 41
0.4210444761340444
 71
    1
 72
    1
  1
\C7;2\C7;
  7
standard
210
0
220
0
230
1
 50
0
 73
    1
 44
1
  0
MTEXT
  5
60D
100
AcDbEntity
  8
CONTINUOUS
  6
ByLayer
 62
  256
370
   -1
100
AcDbMText
 10
7.48511555553
 20
0.340394556307
 30
0
 40
0.07149811858879999
 41
0.4210444761340488
 71
    1
 72
    1
  1
\C7;5\C7;
  7
standard
210
0
220
0
230
1
 50
0
 73
    1
 44
1
  0
MTEXT
  5
60E
100
AcDbEntity
  8
CONTINUOUS
  6
ByLayer
 62
  256
370
   -1
100
AcDbMText
 10
13.7070501432
 20
1.11292980944
 30
0
 40
0.0804353834124
 41
0.969693233360605
 71
    1
 72
    1
  1
\C7;DWG.  NO.\C7;
  7
standard
210
0
220
0
230
1
 50
0
 73
    1
 44
1
  0
MTEXT
  5
60F
100
AcDbEntity
  8
CONTINUOUS
  6
ByLayer
 62
  256
370
   -1
100
AcDbMText
 10
11.5952182844
 20
1.84062215402
 30
0
 40
0.0536235889416
 41
0.4885704770234667
 71
    1
 72
    1
  1
\C7;APPR.\C7;
  7
standard
210
0
220
0
230
1
 50
0
 73
    1
 44
1
  0
MTEXT
  5
610
100
AcDbEntity
  8
CONTINUOUS
  6
ByLayer
 62
  256
370
   -1
100
AcDbMText
 10
0.427314415038
 20
6.9401519559
 30
0
 40
0.07149811858879999
 41
0.4210444761340444
 71
    1
 72
    1
  1
\C7;C\C7;
  7
standard
210
0
220
0
230
1
 50
0
 73
    1
 44
1
  0
MTEXT
  5
611
100
AcDbEntity
  8
CONTINUOUS
  6
ByLayer
 62
  256
370
   -1
100
AcDbMText
 10
12.685442046
 20
1.9640694266
 30
0
 40
0.0775536798368
 41
0.1852671240545778
 71
    4
 72
    1
  1
\C7;
  7
standard
210
0
220
0
230
1
 50
0
 73
    1
 44
1
  0
MTEXT
  5
612
100
AcDbEntity
  8
CONTINUOUS
  6
ByLayer
 62
  256
370
   -1
100
AcDbMText
 10
3.55742667537
 20
0.343069146781
 30
0
 40
0.07149811858879999
 41
0.4210444761340444
 71
    1
 72
    1
  1
\C7;7\C7;
  7
standard
210
0
220
0
230
1
 50
0
 73
    1
 44
1
  0
MTEXT
  5
613
100
AcDbEntity
  8
CONTINUOUS
  6
ByLayer
 62
  256
370
   -1
100
AcDbMText
 10
11.5981115451
 20
2.02314188428
 30
0
 40
0.0536235889416
 41
0.5839013018085366
 71
    1
 72
    1
  1
\C7;CHECKED\C7;
  7
standard
210
0
220
0
230
1
 50
0
 73
    1
 44
1
  0
MTEXT
  5
614
100
AcDbEntity
  8
CONTINUOUS
  6
ByLayer
 62
  256
370
   -1
100
AcDbMText
 10
0.426401731406
 20
4.42305363331
 30
0
 40
0.07149811858879999
 41
0.4289887115328
 71
    1
 72
    1
  1
\C7;B\C7;
  7
standard
210
0
220
0
230
1
 50
0
 73
    1
 44
1
  0
MTEXT
  5
615
100
AcDbEntity
  8
CONTINUOUS
  6
ByLayer
 62
  256
370
   -1
100
AcDbMText
 10
5.51882523857
 20
0.343463549961
 30
0
 40
0.07149811858879999
 41
0.4210444761340488
 71
    1
 72
    1
  1
\C7;6\C7;
  7
standard
210
0
220
0
230
1
 50
0
 73
    1
 44
1
  0
ENDBLK
  5
BF
330
BD
100
AcDbEntity
  8
0
100
AcDbBlockEnd
  0
BLOCK
  5
C1
330
C0
100
AcDbEntity
  8
0
100
AcDbBlockBegin
  2
BLOCK7
 70
    0
 10
0
 20
0
  3
BLOCK7
  1

  0
CIRCLE
  5
616
100
AcDbEntity
  8
0
  6
ByLayer
 62
  256
370
   -1
100
AcDbCircle
 10
12.5727822224
 20
0.77973765604
 40
0.0787401574803
  0
CIRCLE
  5
617
100
AcDbEntity
  8
0
  6
ByLayer
 62
  256
370
   -1
100
AcDbCircle
 10
12.5727822224
 20
0.77973765604
 40
0.157480314961
  0
LINE
  5
618
100
AcDbEntity
  8
0
  6
ByLayer
 62
  256
370
   -1
100
AcDbLine
 10
12.8090026948
 20
0.85847781352
 11
12.8090026948
 21
0.700997498559
  0
LINE
  5
619
100
AcDbEntity
  8
0
  6
ByLayer
 62
  256
370
   -1
100
AcDbLine
 10
12.8090026948
 20
0.700997498559
 11
13.1239633247
 21
0.622257341079
  0
LINE
  5
61A
100
AcDbEntity
  8
0
  6
ByLayer
 62
  256
370
   -1
100
AcDbLine
 10
13.1239633247
 20
0.622257341079
 11
13.1239633247
 21
0.937217971
  0
LINE
  5
61B
100
AcDbEntity
  8
0
  6
ByLayer
 62
  256
370
   -1
100
AcDbLine
 10
13.1239633247
 20
0.937217971
 11
12.8090026948
 21
0.85847781352
  0
LINE
  5
61C
100
AcDbEntity
  8
0
  6
ByLayer
 62
  256
370
   -1
100
AcDbLine
 10
12.3365617499
 20
0.77973765604
 11
13.2027034822
 21
0.77973765604
  0
LINE
  5
61D
100
AcDbEntity
  8
0
  6
ByLayer
 62
  256
370
   -1
100
AcDbLine
 10
12.5727822224
 20
1.01595812848
 11
12.5727822224
 21
0.543517183599
  0
ENDBLK
  5
C2
330
C0
100
AcDbEntity
  8
0
100
AcDbBlockEnd
  0
BLOCK
  5
C4
330
C3
100
AcDbEntity
  8
0
100
AcDbBlockBegin
  2
BLOCK8
 70
    0
 10
0
 20
0
  3
BLOCK8
  1

  0
MTEXT
  5
61E
100
AcDbEntity
  8
0
  6
ByLayer
 62
  256
370
   -1
100
AcDbMText
 10
0
 20
0.112491480021
 30
0
 40
0.0536235889416
 41
1.379317825635672
 71
    1
 72
    1
  1
\C7;UNLESS OTHERWISE SPECIFIED\C7;
  7
standard
210
0
220
0
230
1
 50
0
 73
    1
 44
1
  0
MTEXT
  5
61F
100
AcDbEntity
  8
0
  6
ByLayer
 62
  256
370
   -1
100
AcDbMText
 10
0
 20
0.00312140263981
 30
0
 40
0.0536235889416
 41
1.304840630140655
 71
    1
 72
    1
  1
\C7; DIMENSIONS ARE IN INCHES\C7;
  7
standard
210
0
220
0
230
1
 50
0
 73
    1
 44
1
  0
ENDBLK
  5
C5
330
C3
100
AcDbEntity
  8
0
100
AcDbBlockEnd
  0
BLOCK
  5
C7
330
C6
100
AcDbEntity
  8
0
100
AcDbBlockBegin
  2
L-Q8
 70
    0
 10
0
 20
0
  3
L-Q8
  1

  0
LINE
  5
620
100
AcDbEntity
  8
VISIBLE
  6
ByLayer
 62
  256
370
   -1
100
AcDbLine
 10
6.50977096783
 20
5.10825495035
 11
6.50977096783
 21
5.17075495035
  0
LINE
  5
621
100
AcDbEntity
  8
VISIBLE
  6
ByLayer
 62
  256
370
   -1
100
AcDbLine
 10
7.00977096783
 20
5.10825495035
 11
7.00977096783
 21
5.17075495035
  0
LINE
  5
622
100
AcDbEntity
  8
VISIBLE
  6
ByLayer
 62
  256
370
   -1
100
AcDbLine
 10
7.00977096783
 20
5.17075495035
 11
6.50977096783
 21
5.17075495035
  0
LINE
  5
623
100
AcDbEntity
  8
VISIBLE
  6
ByLayer
 62
  256
370
   -1
100
AcDbLine
 10
6.50977096783
 20
5.10825495035
 11
7.00977096783
 21
5.10825495035
  0
DIMENSION
  5
624
100
AcDbEntity
  8
DIMENSIONS
  6
ByLayer
 62
  256
370
   -1
100
AcDbDimension
 10
0
 20
0
 30
0
 11
12.2529496884
 21
9.934353414949999
 31
0
 70
   32
  1
<>
 71
    5
 72
    0
  3
Standard
 53
0
210
0
220
0
230
1
100
AcDbAlignedDimension
 13
6.50977096783
 23
5.10825495035
 33
0
 14
6.50977096783
 24
5.17075495035
 34
0
 50
90
100
AcDbRotatedDimension
  0
LINE
  5
625
100
AcDbEntity
  8
VISIBLE
  6
ByLayer
 62
  256
370
   -1
100
AcDbLine
 10
6.50977096783
 20
5.34753160777
 11
6.50977096783
 21
8.34753160777
  0
LINE
  5
626
100
AcDbEntity
  8
VISIBLE
  6
ByLayer
 62
  256
370
   -1
100
AcDbLine
 10
6.50977096783
 20
8.34753160777
 11
7.00977096783
 21
8.34753160777
  0
LINE
  5
627
100
AcDbEntity
  8
VISIBLE
  6
ByLayer
 62
  256
370
   -1
100
AcDbLine
 10
7.00977096783
 20
5.34753160777
 11
6.50977096783
 21
5.34753160777
  0
LINE
  5
628
100
AcDbEntity
  8
VISIBLE
  6
ByLayer
 62
  256
370
   -1
100
AcDbLine
 10
7.00977096783
 20
8.34753160777
 11
7.00977096783
 21
5.34753160777
  0
DIMENSION
  5
629
100
AcDbEntity
  8
DIMENSIONS
  6
ByLayer
 62
  256
370
   -1
100
AcDbDimension
 10
0
 20
0
 30
0
 11
12.2369688102
 21
12.5069241974
 31
0
 70
   32
  1
<>
 71
    5
 72
    0
  3
Standard
 53
0
210
0
220
0
230
1
100
AcDbAlignedDimension
 13
6.50977096783
 23
5.34753160777
 33
0
 14
6.50977096783
 24
8.34753160777
 34
0
 50
90
100
AcDbRotatedDimension
  0
DIMENSION
  5
62A
100
AcDbEntity
  8
DIMENSIONS
  6
ByLayer
 62
  256
370
   -1
100
AcDbDimension
 10
0
 20
0
 30
0
 11
12.6045422254
 21
14.2648856809
 31
0
 70
   32
  1
<>
 71
    5
 72
    0
  3
Standard
 53
0
210
0
220
0
230
1
100
AcDbAlignedDimension
 13
6.50977096783
 23
8.34753160777
 33
0
 14
7.00977096783
 24
8.34753160777
 34
0
100
AcDbRotatedDimension
  0
LINE
  5
62B
100
AcDbEntity
  8
VISIBLE
  6
ByLayer
 62
  256
370
   -1
100
AcDbLine
 10
10.1865475422
 20
5.10825495035
 11
10.1865475422
 21
5.17075495035
  0
LINE
  5
62C
100
AcDbEntity
  8
VISIBLE
  6
ByLayer
 62
  256
370
   -1
100
AcDbLine
 10
7.18654754218
 20
5.10825495035
 11
7.18654754218
 21
5.17075495035
  0
LINE
  5
62D
100
AcDbEntity
  8
VISIBLE
  6
ByLayer
 62
  256
370
   -1
100
AcDbLine
 10
7.18654754218
 20
5.10825495035
 11
10.1865475422
 21
5.10825495035
  0
LINE
  5
62E
100
AcDbEntity
  8
VISIBLE
  6
ByLayer
 62
  256
370
   -1
100
AcDbLine
 10
10.1865475422
 20
5.17075495035
 11
7.18654754218
 21
5.17075495035
  0
LINE
  5
62F
100
AcDbEntity
  8
VISIBLE
  6
ByLayer
 62
  256
370
   -1
100
AcDbLine
 10
7.44911078774
 20
6.36273681916
 11
9.570431131299999
 21
7.58748169056
  0
LINE
  5
630
100
AcDbEntity
  8
VISIBLE
  6
ByLayer
 62
  256
370
   -1
100
AcDbLine
 10
9.570431131299999
 20
7.58748169056
 11
9.9239845219
 21
7.38335754532
  0
LINE
  5
631
100
AcDbEntity
  8
VISIBLE
  6
ByLayer
 62
  256
370
   -1
100
AcDbLine
 10
7.44911078774
 20
6.31170578286
 11
7.44911078774
 21
6.36273681916
  0
LINE
  5
632
100
AcDbEntity
  8
VISIBLE
  6
ByLayer
 62
  256
370
   -1
100
AcDbLine
 10
9.9239845219
 20
7.33232650902
 11
9.9239845219
 21
7.38335754532
  0
LINE
  5
633
100
AcDbEntity
  8
VISIBLE
  6
ByLayer
 62
  256
370
   -1
100
AcDbLine
 10
7.80266417834
 20
6.10758163762
 11
7.80266417834
 21
6.15861267393
  0
LINE
  5
634
100
AcDbEntity
  8
VISIBLE
  6
ByLayer
 62
  256
370
   -1
100
AcDbLine
 10
7.80266417834
 20
6.10758163762
 11
9.9239845219
 21
7.33232650902
  0
LINE
  5
635
100
AcDbEntity
  8
VISIBLE
  6
ByLayer
 62
  256
370
   -1
100
AcDbLine
 10
7.80266417834
 20
6.15861267393
 11
7.44911078774
 21
6.36273681916
  0
LINE
  5
636
100
AcDbEntity
  8
VISIBLE
  6
ByLayer
 62
  256
370
   -1
100
AcDbLine
 10
9.9239845219
 20
7.38335754532
 11
7.80266417834
 21
6.15861267393
  0
LINE
  5
637
100
AcDbEntity
  8
VISIBLE
  6
ByLayer
 62
  256
370
   -1
100
AcDbLine
 10
7.44911078774
 20
6.31170578286
 11
7.80266417834
 21
6.10758163762
  0
LINE
  5
638
100
AcDbEntity
  8
HIDDEN
  6
ByLayer
 62
  256
370
   -1
100
AcDbLine
 10
9.570431131299999
 20
7.58748169056
 11
9.570431131299999
 21
7.53645065425
  0
LINE
  5
639
100
AcDbEntity
  8
HIDDEN
  6
ByLayer
 62
  256
370
   -1
100
AcDbLine
 10
9.570431131299999
 20
7.53645065425
 11
7.44911078774
 21
6.31170578286
  0
LINE
  5
63A
100
AcDbEntity
  8
HIDDEN
  6
ByLayer
 62
  256
370
   -1
100
AcDbLine
 10
9.9239845219
 20
7.33232650902
 11
9.570431131299999
 21
7.53645065425
  0
INSERT
  5
63B
100
AcDbEntity
  8
CONTINUOUS
  6
ByLayer
 62
  256
370
   -1
100
AcDbBlockReference
  2
BLOCK6
 10
0
 20
0
 30
0
 41
1
 42
1
 43
0
 50
0
 70
    1
 71
    1
 44
0
 45
0
  0
ENDBLK
  5
C8
330
C6
100
AcDbEntity
  8
0
100
AcDbBlockEnd
  0
BLOCK
  5
CA
330
C9
100
AcDbEntity
  8
0
100
AcDbBlockBegin
  2
L-Q9
 70
    0
 10
0
 20
0
  3
L-Q9
  1

  0
LINE
  5
63C
100
AcDbEntity
  8
VISIBLE
  6
ByLayer
 62
  256
370
   -1
100
AcDbLine
 10
8.964574053910001
 20
6.17977241794
 11
8.964574053910001
 21
6.22977241794
  0
LINE
  5
63D
100
AcDbEntity
  8
VISIBLE
  6
ByLayer
 62
  256
370
   -1
100
AcDbLine
 10
4.16457405391
 20
6.17977241794
 11
4.16457405391
 21
6.22977241794
  0
LINE
  5
63E
100
AcDbEntity
  8
VISIBLE
  6
ByLayer
 62
  256
370
   -1
100
AcDbLine
 10
8.964574053910001
 20
6.22977241794
 11
4.16457405391
 21
6.22977241794
  0
LINE
  5
63F
100
AcDbEntity
  8
VISIBLE
  6
ByLayer
 62
  256
370
   -1
100
AcDbLine
 10
8.964574053910001
 20
6.17977241794
 11
4.16457405391
 21
6.17977241794
  0
LINE
  5
640
100
AcDbEntity
  8
HIDDEN
  6
ByLayer
 62
  256
370
   -1
100
AcDbLine
 10
4.62082405391
 20
6.17977241794
 11
4.62082405391
 21
6.22977241794
  0
LINE
  5
641
100
AcDbEntity
  8
HIDDEN
  6
ByLayer
 62
  256
370
   -1
100
AcDbLine
 10
8.620824053910001
 20
6.17977241794
 11
8.620824053910001
 21
6.22977241794
  0
LINE
  5
642
100
AcDbEntity
  8
HIDDEN
  6
ByLayer
 62
  256
370
   -1
100
AcDbLine
 10
4.50832405391
 20
6.17977241794
 11
4.50832405391
 21
6.22977241794
  0
LINE
  5
643
100
AcDbEntity
  8
HIDDEN
  6
ByLayer
 62
  256
370
   -1
100
AcDbLine
 10
8.50832405391
 20
6.17977241794
 11
8.50832405391
 21
6.22977241794
  0
LINE
  5
644
100
AcDbEntity
  8
HIDDEN
  6
ByLayer
 62
  256
370
   -1
100
AcDbLine
 10
8.56457405391
 20
6.22977241794
 11
8.56457405391
 21
6.17977241794
  0
LINE
  5
645
100
AcDbEntity
  8
HIDDEN
  6
ByLayer
 62
  256
370
   -1
100
AcDbLine
 10
4.56457405391
 20
6.22977241794
 11
4.56457405391
 21
6.17977241794
  0
DIMENSION
  5
646
100
AcDbEntity
  8
DIMENSIONS
  6
ByLayer
 62
  256
370
   -1
100
AcDbDimension
 10
0
 20
0
 30
0
 11
7.66715669407
 21
11.9879277481
 31
0
 70
   32
  1
<>
 71
    5
 72
    0
  3
Standard
 53
0
210
0
220
0
230
1
100
AcDbAlignedDimension
 13
4.16457405391
 23
6.17977241794
 33
0
 14
4.16457405391
 24
6.22977241794
 34
0
 50
270
100
AcDbRotatedDimension
  0
LINE
  5
647
100
AcDbEntity
  8
VISIBLE
  6
ByLayer
 62
  256
370
   -1
100
AcDbLine
 10
4.16457405391
 20
6.71967034903
 11
4.16457405391
 21
7.11967034903
  0
ARC
  5
648
100
AcDbEntity
  8
VISIBLE
  6
ByLayer
 62
  256
370
   -1
100
AcDbCircle
 10
4.56457405391
 20
6.91967034903
 40
0.05625
100
AcDbArc
 50
90.0000000008
 51
270
  0
LINE
  5
649
100
AcDbEntity
  8
VISIBLE
  6
ByLayer
 62
  256
370
   -1
100
AcDbLine
 10
8.964574053910001
 20
6.71967034903
 11
4.16457405391
 21
6.71967034903
  0
LINE
  5
64A
100
AcDbEntity
  8
VISIBLE
  6
ByLayer
 62
  256
370
   -1
100
AcDbLine
 10
8.964574053910001
 20
6.71967034903
 11
8.964574053910001
 21
7.11967034903
  0
ARC
  5
64B
100
AcDbEntity
  8
VISIBLE
  6
ByLayer
 62
  256
370
   -1
100
AcDbCircle
 10
4.56457405391
 20
6.91967034903
 40
0.05625
100
AcDbArc
 50
270
 51
90.0000000008
  0
ARC
  5
64C
100
AcDbEntity
  8
VISIBLE
  6
ByLayer
 62
  256
370
   -1
100
AcDbCircle
 10
8.56457405391
 20
6.91967034903
 40
0.05625
100
AcDbArc
 50
90
 51
270
  0
LINE
  5
64D
100
AcDbEntity
  8
VISIBLE
  6
ByLayer
 62
  256
370
   -1
100
AcDbLine
 10
4.16457405391
 20
7.11967034903
 11
8.964574053910001
 21
7.11967034903
  0
ARC
  5
64E
100
AcDbEntity
  8
VISIBLE
  6
ByLayer
 62
  256
370
   -1
100
AcDbCircle
 10
8.56457405391
 20
6.91967034903
 40
0.05625
100
AcDbArc
 50
270
 51
90
  0
DIMENSION
  5
64F
100
AcDbEntity
  8
DIMENSIONS
  6
ByLayer
 62
  256
370
   -1
100
AcDbDimension
 10
0
 20
0
 30
0
 11
9.995653011290001
 21
14.7260807225
 31
0
 70
   32
  1
<>
 71
    5
 72
    0
  3
Standard
 53
0
210
0
220
0
230
1
100
AcDbAlignedDimension
 13
4.16457405391
 23
7.11967034903
 33
0
 14
8.964574053910001
 24
7.11967034903
 34
0
100
AcDbRotatedDimension
  0
DIMENSION
  5
650
100
AcDbEntity
  8
DIMENSIONS
  6
ByLayer
 62
  256
370
   -1
100
AcDbDimension
 10
0
 20
0
 30
0
 11
7.08837100052
 21
13.0477869387
 31
0
 70
   32
  1
<>
 71
    5
 72
    0
  3
Standard
 53
0
210
0
220
0
230
1
100
AcDbAlignedDimension
 13
4.16457405391
 23
6.71967034903
 33
0
 14
4.16457405391
 24
7.11967034903
 34
0
 50
90
100
AcDbRotatedDimension
  0
DIMENSION
  5
651
100
AcDbEntity
  8
DIMENSIONS
  6
ByLayer
 62
  256
370
   -1
100
AcDbDimension
 10
0
 20
0
 30
0
 11
10.7291481078
 21
14.3187743818
 31
0
 70
   32
  1
<>
 71
    5
 72
    0
  3
Standard
 53
0
210
0
220
0
230
1
100
AcDbAlignedDimension
 13
4.56457405391
 23
6.91967034903
 33
0
 14
8.56457405391
 24
6.97592034903
 34
0
100
AcDbRotatedDimension
  0
DIMENSION
  5
652
100
AcDbEntity
  8
DIMENSIONS
  6
ByLayer
 62
  256
370
   -1
100
AcDbDimension
 10
0
 20
0
 30
0
 11
7.45972096601
 21
14.3077754381
 31
0
 70
   32
  1
<>
 71
    5
 72
    0
  3
Standard
 53
0
210
0
220
0
230
1
100
AcDbAlignedDimension
 13
4.16457405391
 23
7.11967034903
 33
0
 14
4.56457405391
 24
6.91967034903
 34
0
 50
90
100
AcDbRotatedDimension
  0
DIMENSION
  5
653
100
AcDbEntity
  8
DIMENSIONS
  6
ByLayer
 62
  256
370
   -1
100
AcDbDimension
 10
0
 20
0
 30
0
 11
9.48863348773
 21
14.0779143964
 31
0
 70
   32
  1
<>
 71
    5
 72
    0
  3
Standard
 53
0
210
0
220
0
230
1
100
AcDbAlignedDimension
 13
4.56457405391
 23
6.97592034903
 33
0
 14
4.56457405391
 24
6.86342034903
 34
0
 50
270
100
AcDbRotatedDimension
  0
LINE
  5
654
100
AcDbEntity
  8
VISIBLE
  6
ByLayer
 62
  256
370
   -1
100
AcDbLine
 10
9.45447193056
 20
6.17977241794
 11
9.45447193056
 21
6.22977241794
  0
LINE
  5
655
100
AcDbEntity
  8
VISIBLE
  6
ByLayer
 62
  256
370
   -1
100
AcDbLine
 10
9.854471930560001
 20
6.22977241794
 11
9.854471930560001
 21
6.17977241794
  0
LINE
  5
656
100
AcDbEntity
  8
VISIBLE
  6
ByLayer
 62
  256
370
   -1
100
AcDbLine
 10
9.45447193056
 20
6.22977241794
 11
9.854471930560001
 21
6.22977241794
  0
LINE
  5
657
100
AcDbEntity
  8
VISIBLE
  6
ByLayer
 62
  256
370
   -1
100
AcDbLine
 10
9.854471930560001
 20
6.17977241794
 11
9.45447193056
 21
6.17977241794
  0
LINE
  5
658
100
AcDbEntity
  8
HIDDEN
  6
ByLayer
 62
  256
370
   -1
100
AcDbLine
 10
9.71072193056
 20
6.17977241794
 11
9.71072193056
 21
6.22977241794
  0
LINE
  5
659
100
AcDbEntity
  8
HIDDEN
  6
ByLayer
 62
  256
370
   -1
100
AcDbLine
 10
9.598221930559999
 20
6.22977241794
 11
9.598221930559999
 21
6.17977241794
  0
LINE
  5
65A
100
AcDbEntity
  8
VISIBLE
  6
ByLayer
 62
  256
370
   -1
100
AcDbLine
 10
9.957510977449999
 20
8.605338847200001
 11
10.2403536899
 21
8.768638163389999
  0
ELLIPSE
  5
65B
100
AcDbEntity
  8
VISIBLE
  6
ByLayer
 62
  256
370
   -1
100
AcDbEllipse
 10
10.3817750462
 20
8.52368918911
 30
0
 11
-0.05625
 21
0
 31
0
 40
0.57735026919
 41
0
 42
0.785398163397
  0
ELLIPSE
  5
65C
100
AcDbEntity
  8
VISIBLE
  6
ByLayer
 62
  256
370
   -1
100
AcDbEllipse
 10
10.3817750462
 20
8.52368918911
 30
0
 11
-0.05625
 21
0
 31
0
 40
0.57735026919
 41
-2.35619449018
 42
0
  0
ELLIPSE
  5
65D
100
AcDbEntity
  8
VISIBLE
  6
ByLayer
 62
  256
370
   -1
100
AcDbEllipse
 10
10.3817750462
 20
8.482864360060001
 30
0
 11
-0.05625
 21
0
 31
0
 40
0.57735026919
 41
-2.46191883468
 42
-2.35619449021
  0
LINE
  5
65E
100
AcDbEntity
  8
VISIBLE
  6
ByLayer
 62
  256
370
   -1
100
AcDbLine
 10
13.3516235271
 20
6.60492222393
 11
13.3516235271
 21
6.64574705298
  0
ELLIPSE
  5
65F
100
AcDbEntity
  8
VISIBLE
  6
ByLayer
 62
  256
370
   -1
100
AcDbEllipse
 10
13.2102021709
 20
6.84987119821
 30
0
 11
-0.05625
 21
0
 31
0
 40
0.57735026919
 41
-2.35619449019
 42
-0.679673818908
  0
LINE
  5
660
100
AcDbEntity
  8
VISIBLE
  6
ByLayer
 62
  256
370
   -1
100
AcDbLine
 10
13.6344662396
 20
6.80904636916
 11
13.6344662396
 21
6.76822154012
  0
LINE
  5
661
100
AcDbEntity
  8
VISIBLE
  6
ByLayer
 62
  256
370
   -1
100
AcDbLine
 10
9.957510977449999
 20
8.564514018160001
 11
9.957510977449999
 21
8.605338847200001
  0
LINE
  5
662
100
AcDbEntity
  8
VISIBLE
  6
ByLayer
 62
  256
370
   -1
100
AcDbLine
 10
13.3516235271
 20
6.64574705298
 11
9.957510977449999
 21
8.605338847200001
  0
ELLIPSE
  5
663
100
AcDbEntity
  8
VISIBLE
  6
ByLayer
 62
  256
370
   -1
100
AcDbEllipse
 10
13.2102021709
 20
6.84987119821
 30
0
 11
-0.05625
 21
0
 31
0
 40
0.57735026919
 41
-2.46191883468
 42
-2.35619449019
  0
LINE
  5
664
100
AcDbEntity
  8
VISIBLE
  6
ByLayer
 62
  256
370
   -1
100
AcDbLine
 10
13.3516235271
 20
6.64574705298
 11
13.6344662396
 21
6.80904636916
  0
ELLIPSE
  5
665
100
AcDbEntity
  8
VISIBLE
  6
ByLayer
 62
  256
370
   -1
100
AcDbEllipse
 10
10.3817750462
 20
8.52368918911
 30
0
 11
-0.05625
 21
0
 31
0
 40
0.57735026919
 41
-3.14159265359
 42
-2.35619449018
  0
ELLIPSE
  5
666
100
AcDbEntity
  8
VISIBLE
  6
ByLayer
 62
  256
370
   -1
100
AcDbEllipse
 10
10.3817750462
 20
8.52368918911
 30
0
 11
-0.05625
 21
0
 31
0
 40
0.57735026919
 41
0.785398163397
 42
3.14159265359
  0
LINE
  5
667
100
AcDbEntity
  8
VISIBLE
  6
ByLayer
 62
  256
370
   -1
100
AcDbLine
 10
13.6344662396
 20
6.76822154012
 11
13.3516235271
 21
6.60492222393
  0
ELLIPSE
  5
668
100
AcDbEntity
  8
VISIBLE
  6
ByLayer
 62
  256
370
   -1
100
AcDbEllipse
 10
13.2102021709
 20
6.89069602725
 30
0
 11
-0.05625
 21
-9e-16
 31
0
 40
0.57735026919
 41
0
 42
0.785398163397
  0
ELLIPSE
  5
669
100
AcDbEntity
  8
VISIBLE
  6
ByLayer
 62
  256
370
   -1
100
AcDbEllipse
 10
13.2102021709
 20
6.89069602725
 30
0
 11
-0.05625
 21
-9e-16
 31
0
 40
0.57735026919
 41
-2.35619449019
 42
0
  0
LINE
  5
66A
100
AcDbEntity
  8
VISIBLE
  6
ByLayer
 62
  256
370
   -1
100
AcDbLine
 10
10.2403536899
 20
8.768638163389999
 11
13.6344662396
 21
6.80904636916
  0
ELLIPSE
  5
66B
100
AcDbEntity
  8
VISIBLE
  6
ByLayer
 62
  256
370
   -1
100
AcDbEllipse
 10
10.3817750462
 20
8.482864360060001
 30
0
 11
-0.05625
 21
0
 31
0
 40
0.57735026919
 41
-2.35619449021
 42
-0.679673818908
  0
LINE
  5
66C
100
AcDbEntity
  8
VISIBLE
  6
ByLayer
 62
  256
370
   -1
100
AcDbLine
 10
13.3516235271
 20
6.60492222393
 11
9.957510977449999
 21
8.564514018160001
  0
ELLIPSE
  5
66D
100
AcDbEntity
  8
VISIBLE
  6
ByLayer
 62
  256
370
   -1
100
AcDbEllipse
 10
13.2102021709
 20
6.89069602725
 30
0
 11
-0.05625
 21
-9e-16
 31
0
 40
0.57735026919
 41
3.14159265359
 42
3.92699081699
  0
ELLIPSE
  5
66E
100
AcDbEntity
  8
VISIBLE
  6
ByLayer
 62
  256
370
   -1
100
AcDbEllipse
 10
13.2102021709
 20
6.89069602725
 30
0
 11
-0.05625
 21
-9e-16
 31
0
 40
0.57735026919
 41
0.785398163397
 42
3.14159265359
  0
ELLIPSE
  5
66F
100
AcDbEntity
  8
HIDDEN
  6
ByLayer
 62
  256
370
   -1
100
AcDbEllipse
 10
10.3817750462
 20
8.482864360060001
 30
0
 11
-0.05625
 21
0
 31
0
 40
0.57735026919
 41
0.785398163397
 42
3.14159265359
  0
ELLIPSE
  5
670
100
AcDbEntity
  8
HIDDEN
  6
ByLayer
 62
  256
370
   -1
100
AcDbEllipse
 10
10.3817750462
 20
8.482864360060001
 30
0
 11
-0.05625
 21
0
 31
0
 40
0.57735026919
 41
-3.14159265359
 42
-2.46191883468
  0
LINE
  5
671
100
AcDbEntity
  8
HIDDEN
  6
ByLayer
 62
  256
370
   -1
100
AcDbLine
 10
10.2403536899
 20
8.72781333434
 11
9.957510977449999
 21
8.564514018160001
  0
ELLIPSE
  5
672
100
AcDbEntity
  8
HIDDEN
  6
ByLayer
 62
  256
370
   -1
100
AcDbEllipse
 10
13.2102021709
 20
6.84987119821
 30
0
 11
-0.05625
 21
0
 31
0
 40
0.57735026919
 41
-0.679673818908
 42
0
  0
ELLIPSE
  5
673
100
AcDbEntity
  8
HIDDEN
  6
ByLayer
 62
  256
370
   -1
100
AcDbEllipse
 10
13.2102021709
 20
6.84987119821
 30
0
 11
-0.05625
 21
0
 31
0
 40
0.57735026919
 41
0
 42
0.785398163397
  0
ELLIPSE
  5
674
100
AcDbEntity
  8
HIDDEN
  6
ByLayer
 62
  256
370
   -1
100
AcDbEllipse
 10
13.2102021709
 20
6.84987119821
 30
0
 11
-0.05625
 21
0
 31
0
 40
0.57735026919
 41
0.785398163397
 42
3.14159265359
  0
ELLIPSE
  5
675
100
AcDbEntity
  8
HIDDEN
  6
ByLayer
 62
  256
370
   -1
100
AcDbEllipse
 10
13.2102021709
 20
6.84987119821
 30
0
 11
-0.05625
 21
0
 31
0
 40
0.57735026919
 41
-3.14159265359
 42
-2.46191883468
  0
LINE
  5
676
100
AcDbEntity
  8
HIDDEN
  6
ByLayer
 62
  256
370
   -1
100
AcDbLine
 10
13.6344662396
 20
6.76822154012
 11
10.2403536899
 21
8.72781333434
  0
LINE
  5
677
100
AcDbEntity
  8
HIDDEN
  6
ByLayer
 62
  256
370
   -1
100
AcDbLine
 10
10.2403536899
 20
8.768638163389999
 11
10.2403536899
 21
8.72781333434
  0
ELLIPSE
  5
678
100
AcDbEntity
  8
HIDDEN
  6
ByLayer
 62
  256
370
   -1
100
AcDbEllipse
 10
10.3817750462
 20
8.482864360060001
 30
0
 11
-0.05625
 21
0
 31
0
 40
0.57735026919
 41
-0.679673818908
 42
0
  0
ELLIPSE
  5
679
100
AcDbEntity
  8
HIDDEN
  6
ByLayer
 62
  256
370
   -1
100
AcDbEllipse
 10
10.3817750462
 20
8.482864360060001
 30
0
 11
-0.05625
 21
0
 31
0
 40
0.57735026919
 41
0
 42
0.785398163397
  0
LINE
  5
67A
100
AcDbEntity
  8
HIDDEN
  6
ByLayer
 62
  256
370
   -1
100
AcDbLine
 10
10.4380250462
 20
8.482864360060001
 11
10.4380250462
 21
8.52368918911
  0
LINE
  5
67B
100
AcDbEntity
  8
HIDDEN
  6
ByLayer
 62
  256
370
   -1
100
AcDbLine
 10
10.3255250462
 20
8.482864360060001
 11
10.3255250462
 21
8.52368918911
  0
LINE
  5
67C
100
AcDbEntity
  8
HIDDEN
  6
ByLayer
 62
  256
370
   -1
100
AcDbLine
 10
13.1539521709
 20
6.84987119821
 11
13.1539521709
 21
6.89069602725
  0
LINE
  5
67D
100
AcDbEntity
  8
HIDDEN
  6
ByLayer
 62
  256
370
   -1
100
AcDbLine
 10
13.2664521709
 20
6.84987119821
 11
13.2664521709
 21
6.89069602725
  0
LINE
  5
67E
100
AcDbEntity
  8
TANGENT EDGES
  6
ByLayer
 62
  256
370
   -1
100
AcDbLine
 10
13.2499769273
 20
6.87283516455
 11
13.2499769273
 21
6.91365999359
  0
LINE
  5
67F
100
AcDbEntity
  8
TANGENT EDGES
  6
ByLayer
 62
  256
370
   -1
100
AcDbLine
 10
10.4215498026
 20
8.5058283264
 11
10.4215498026
 21
8.54665315545
  0
LINE
  5
680
100
AcDbEntity
  8
HIDDEN
  6
ByLayer
 62
  256
370
   -1
100
AcDbLine
 10
13.1704274145
 20
6.86773206092
 11
13.1704274145
 21
6.82690723187
  0
LINE
  5
681
100
AcDbEntity
  8
HIDDEN
  6
ByLayer
 62
  256
370
   -1
100
AcDbLine
 10
10.3420002897
 20
8.500725222770001
 11
10.3420002897
 21
8.459900393730001
  0
INSERT
  5
682
100
AcDbEntity
  8
CONTINUOUS
  6
ByLayer
 62
  256
370
   -1
100
AcDbBlockReference
  2
BLOCK6
 10
0
 20
0
 30
0
 41
1
 42
1
 43
0
 50
0
 70
    1
 71
    1
 44
0
 45
0
  0
ENDBLK
  5
CB
330
C9
100
AcDbEntity
  8
0
100
AcDbBlockEnd
  0
BLOCK
  5
CD
330
CC
100
AcDbEntity
  8
0
100
AcDbBlockBegin
  2
A$C00294823
 70
    0
 10
0
 20
0
  3
A$C00294823
  1

  0
LINE
  5
683
100
AcDbEntity
  8
VISIBLE
  6
ByLayer
 62
  256
370
   -1
100
AcDbLine
 10
9.00001247408
 20
1.60000008917
 11
9.00000013401
 21
8.92155612e-08
  0
LINE
  5
684
100
AcDbEntity
  8
VISIBLE
  6
ByLayer
 62
  256
370
   -1
100
AcDbLine
 10
1.24743463914e-05
 20
1.60006950204
 11
1.342802598e-07
 21
6.95020874701e-05
  0
LINE
  5
685
100
AcDbEntity
  8
VISIBLE
  6
ByLayer
 62
  256
370
   -1
100
AcDbLine
 10
9.00000013401
 20
8.92155612e-08
 11
1.342802598e-07
 21
6.95020874701e-05
  0
LINE
  5
686
100
AcDbEntity
  8
VISIBLE
  6
ByLayer
 62
  256
370
   -1
100
AcDbLine
 10
9.00001247408
 20
1.60000008917
 11
1.24743463914e-05
 21
1.60006950204
  0
ENDBLK
  5
CE
330
CC
100
AcDbEntity
  8
0
100
AcDbBlockEnd
  0
BLOCK
  5
D0
330
CF
100
AcDbEntity
  8
0
100
AcDbBlockBegin
  2
A$C496F36BF
 70
    0
 10
0
 20
0
  3
A$C496F36BF
  1

  0
LINE
  5
687
100
AcDbEntity
  8
VISIBLE
  6
ByLayer
 62
  256
370
   -1
100
AcDbLine
 10
3.95437398006
 20
-2.9613352e-09
 11
3.5843204e-09
 21
-2.9613352e-09
  0
LINE
  5
688
100
AcDbEntity
  8
VISIBLE
  6
ByLayer
 62
  256
370
   -1
100
AcDbLine
 10
3.95437398006
 20
1.29166666371
 11
3.95437398006
 21
-2.9613352e-09
  0
LINE
  5
689
100
AcDbEntity
  8
VISIBLE
  6
ByLayer
 62
  256
370
   -1
100
AcDbLine
 10
3.5843204e-09
 20
-2.9613352e-09
 11
0.916666670251
 21
1.29166666371
  0
LINE
  5
68A
100
AcDbEntity
  8
VISIBLE
  6
ByLayer
 62
  256
370
   -1
100
AcDbLine
 10
0.916666670251
 20
1.29166666371
 11
3.95437398006
 21
1.29166666371
  0
ENDBLK
  5
D1
330
CF
100
AcDbEntity
  8
0
100
AcDbBlockEnd
  0
BLOCK
  5
D3
330
D2
100
AcDbEntity
  8
0
100
AcDbBlockBegin
  2
A$C6BED7900
 70
    0
 10
0
 20
0
  3
A$C6BED7900
  1

  0
LINE
  5
68B
100
AcDbEntity
  8
VISIBLE
  6
ByLayer
 62
  256
370
   -1
100
AcDbLine
 10
0.749999985799
 20
1.65111231323
 11
-1.42011203e-08
 21
1.65111231323
  0
LINE
  5
68C
100
AcDbEntity
  8
VISIBLE
  6
ByLayer
 62
  256
370
   -1
100
AcDbLine
 10
5.96603487866
 20
4.90111231323
 11
5.46603487866
 21
4.90111231323
  0
LINE
  5
68D
100
AcDbEntity
  8
VISIBLE
  6
ByLayer
 62
  256
370
   -1
100
AcDbLine
 10
5.46603487866
 20
5.65111231323
 11
5.96603487866
 21
5.65111231323
  0
LINE
  5
68E
100
AcDbEntity
  8
VISIBLE
  6
ByLayer
 62
  256
370
   -1
100
AcDbLine
 10
5.46603487866
 20
4.90111231323
 11
5.46603487866
 21
2.46361231323
  0
LINE
  5
68F
100
AcDbEntity
  8
VISIBLE
  6
ByLayer
 62
  256
370
   -1
100
AcDbLine
 10
-1.42011203e-08
 20
2.15111231323
 11
5.46603487866
 21
5.65111231323
  0
LINE
  5
690
100
AcDbEntity
  8
VISIBLE
  6
ByLayer
 62
  256
370
   -1
100
AcDbLine
 10
5.96603487866
 20
5.65111231323
 11
5.96603487866
 21
4.90111231323
  0
LINE
  5
691
100
AcDbEntity
  8
VISIBLE
  6
ByLayer
 62
  256
370
   -1
100
AcDbLine
 10
5.15353487866
 20
2.15111231323
 11
0.749999985799
 21
2.15111231323
  0
LINE
  5
692
100
AcDbEntity
  8
VISIBLE
  6
ByLayer
 62
  256
370
   -1
100
AcDbLine
 10
-1.42011203e-08
 20
1.65111231323
 11
-1.42011203e-08
 21
2.15111231323
  0
LINE
  5
693
100
AcDbEntity
  8
VISIBLE
  6
ByLayer
 62
  256
370
   -1
100
AcDbLine
 10
0.749999985799
 20
2.15111231323
 11
0.749999985799
 21
1.65111231323
  0
LINE
  5
694
100
AcDbEntity
  8
VISIBLE
  6
ByLayer
 62
  256
370
   -1
100
AcDbLine
 10
5.46603487866
 20
2.46361231323
 11
5.15353487866
 21
2.15111231323
  0
DIMENSION
  5
695
100
AcDbEntity
  8
DIMENSIONS
  6
ByLayer
 62
  256
370
   -1
100
AcDbDimension
 10
3.76819207951
 20
0.765769514088
 30
0
 11
54.6428462331
 21
-43.2324138871
 31
0
 70
   34
  1
<>
 71
    5
 72
    0
  3
Standard
 53
0
210
0
220
0
230
1
100
AcDb2LineAngularDimension
 13
5.46603487866
 23
1.65111231323
 33
0
 14
5.46603487866
 24
0.0624999999046
 34
0
 15
5.15353487866
 25
2.15111231323
 35
0
 16
54.6428462331
 26
-43.2324138871
 36
0
  0
ENDBLK
  5
D4
330
D2
100
AcDbEntity
  8
0
100
AcDbBlockEnd
  0
BLOCK
  5
D6
330
D5
100
AcDbEntity
  8
0
100
AcDbBlockBegin
  2
A$C566E6E2D
 70
    0
 10
0
 20
0
  3
A$C566E6E2D
  1

  0
LINE
  5
696
100
AcDbEntity
  8
VISIBLE
  6
ByLayer
 62
  256
370
   -1
100
AcDbLine
 10
0.749999985799
 20
1.636027207e-07
 11
-1.42011345e-08
 21
1.636027207e-07
  0
LINE
  5
697
100
AcDbEntity
  8
VISIBLE
  6
ByLayer
 62
  256
370
   -1
100
AcDbLine
 10
5.96603487866
 20
3.2500001636
 11
5.46603487866
 21
3.2500001636
  0
LINE
  5
698
100
AcDbEntity
  8
VISIBLE
  6
ByLayer
 62
  256
370
   -1
100
AcDbLine
 10
5.46603487866
 20
4.0000001636
 11
5.96603487866
 21
4.0000001636
  0
LINE
  5
699
100
AcDbEntity
  8
VISIBLE
  6
ByLayer
 62
  256
370
   -1
100
AcDbLine
 10
5.46603487866
 20
3.2500001636
 11
5.46603487866
 21
0.812500163603
  0
LINE
  5
69A
100
AcDbEntity
  8
VISIBLE
  6
ByLayer
 62
  256
370
   -1
100
AcDbLine
 10
-1.42011345e-08
 20
0.500000163603
 11
5.46603487866
 21
4.0000001636
  0
LINE
  5
69B
100
AcDbEntity
  8
VISIBLE
  6
ByLayer
 62
  256
370
   -1
100
AcDbLine
 10
5.96603487866
 20
4.0000001636
 11
5.96603487866
 21
3.2500001636
  0
LINE
  5
69C
100
AcDbEntity
  8
VISIBLE
  6
ByLayer
 62
  256
370
   -1
100
AcDbLine
 10
5.15353487866
 20
0.500000163603
 11
0.749999985799
 21
0.500000163603
  0
LINE
  5
69D
100
AcDbEntity
  8
VISIBLE
  6
ByLayer
 62
  256
370
   -1
100
AcDbLine
 10
-1.42011345e-08
 20
1.636027207e-07
 11
-1.42011345e-08
 21
0.500000163603
  0
LINE
  5
69E
100
AcDbEntity
  8
VISIBLE
  6
ByLayer
 62
  256
370
   -1
100
AcDbLine
 10
0.749999985799
 20
0.500000163603
 11
0.749999985799
 21
1.636027207e-07
  0
LINE
  5
69F
100
AcDbEntity
  8
VISIBLE
  6
ByLayer
 62
  256
370
   -1
100
AcDbLine
 10
5.46603487866
 20
0.812500163603
 11
5.15353487866
 21
0.500000163603
  0
ENDBLK
  5
D7
330
D5
100
AcDbEntity
  8
0
100
AcDbBlockEnd
  0
ENDSEC
  0
SECTION
  2
ENTITIES
  0
MTEXT
  5
6A0
100
AcDbEntity
  8
0
  6
ByLayer
 62
  256
370
   -1
100
AcDbMText
 10
233.826078998
 20
73.55355915849999
 30
0
 40
2
 41
5.777777777777777
 71
    1
 72
    5
  1
FEET
  7
standard
210
0
220
0
230
1
 50
0
 73
    1
 44
1
  0
LINE
  5
6A1
100
AcDbEntity
  8
VISIBLE
  6
ByLayer
 62
  256
370
   -1
100
AcDbLine
 10
231
 20
63
 11
237
 21
63
  0
LINE
  5
6A2
100
AcDbEntity
  8
VISIBLE
  6
ByLayer
 62
  256
370
   -1
100
AcDbLine
 10
237
 20
69
 11
231
 21
69
  0
LINE
  5
6A3
100
AcDbEntity
  8
VISIBLE
  6
ByLayer
 62
  256
370
   -1
100
AcDbLine
 10
231
 20
69
 11
231
 21
63
  0
LINE
  5
6A4
100
AcDbEntity
  8
VISIBLE
  6
ByLayer
 62
  256
370
   -1
100
AcDbLine
 10
237
 20
63
 11
237
 21
69
  0
CIRCLE
  5
6A5
100
AcDbEntity
  8
0
  6
ByLayer
 62
  256
370
   -1
100
AcDbCircle
 10
234
 20
66
 40
1.2
  0
MTEXT
  5
6A6
100
AcDbEntity
  8
0
  6
ByLayer
 62
  256
370
   -1
100
AcDbMText
 10
243
 20
67
 30
0
 40
2
 41
13.66666666666666
 71
    1
 72
    1
  1
Q17 - [x4]
  7
standard
210
0
220
0
230
1
 50
0
 73
    2
 44
1
  0
LINE
  5
6A7
100
AcDbEntity
  8
VISIBLE
  6
ByLayer
 62
  256
370
   -1
100
AcDbLine
 10
231.028601239
 20
51.9407673413
 11
231.028601239
 21
53.9407673413
  0
LINE
  5
6A8
100
AcDbEntity
  8
VISIBLE
  6
ByLayer
 62
  256
370
   -1
100
AcDbLine
 10
231.028601239
 20
53.9407673413
 11
235.028601239
 21
51.9407673413
  0
LINE
  5
6A9
100
AcDbEntity
  8
VISIBLE
  6
ByLayer
 62
  256
370
   -1
100
AcDbLine
 10
235.028601239
 20
51.9407673413
 11
231.028601239
 21
51.9407673413
  0
MTEXT
  5
6AA
100
AcDbEntity
  8
0
  6
ByLayer
 62
  256
370
   -1
100
AcDbMText
 10
239
 20
54
 30
0
 40
2
 41
13.44444444444457
 71
    1
 72
    1
  1
Q15 - [x8]
  7
standard
210
0
220
0
230
1
 50
0
 73
    2
 44
1
  0
MTEXT
  5
6AB
100
AcDbEntity
  8
0
  6
ByLayer
 62
  256
370
   -1
100
AcDbMText
 10
233
 20
46
 30
0
 40
1
 41
17.16666645466452
 71
    1
 72
    5
  1
LOWER HOPPER SUPPORT
  7
standard
210
0
220
0
230
1
 50
0
 73
    1
 44
1
  0
LINE
  5
6AC
100
AcDbEntity
  8
VISIBLE
  6
ByLayer
 62
  256
370
   -1
100
AcDbLine
 10
160.724
 20
57
 11
160.724
 21
63
  0
LINE
  5
6AD
100
AcDbEntity
  8
VISIBLE
  6
ByLayer
 62
  256
370
   -1
100
AcDbLine
 10
160.724
 20
63
 11
186
 21
63
  0
LINE
  5
6AE
100
AcDbEntity
  8
VISIBLE
  6
ByLayer
 62
  256
370
   -1
100
AcDbLine
 10
186
 20
57
 11
160.724
 21
57
  0
LINE
  5
6AF
100
AcDbEntity
  8
VISIBLE
  6
ByLayer
 62
  256
370
   -1
100
AcDbLine
 10
186
 20
63
 11
186
 21
57
  0
LINE
  5
6B0
100
AcDbEntity
  8
VISIBLE
  6
ByLayer
 62
  256
370
   -1
100
AcDbLine
 10
165.724
 20
50
 11
165.724
 21
52.5
  0
LINE
  5
6B1
100
AcDbEntity
  8
VISIBLE
  6
ByLayer
 62
  256
370
   -1
100
AcDbLine
 10
186
 20
50
 11
165.724
 21
50
  0
LINE
  5
6B2
100
AcDbEntity
  8
VISIBLE
  6
ByLayer
 62
  256
370
   -1
100
AcDbLine
 10
186
 20
52.5
 11
186
 21
50
  0
LINE
  5
6B3
100
AcDbEntity
  8
VISIBLE
  6
ByLayer
 62
  256
370
   -1
100
AcDbLine
 10
165.724
 20
52.5
 11
186
 21
52.5
  0
MTEXT
  5
6B4
100
AcDbEntity
  8
0
  6
ByLayer
 62
  256
370
   -1
100
AcDbMText
 10
167
 20
72
 30
0
 40
1
 41
15.38888867688674
 71
    1
 72
    5
  1
REAR GRATE SUPPORT
  7
standard
210
0
220
0
230
1
 50
0
 73
    1
 44
1
  0
MTEXT
  5
6B5
100
AcDbEntity
  8
0
  6
ByLayer
 62
  256
370
   -1
100
AcDbMText
 10
190
 20
61
 30
0
 40
2
 41
4.000000000000123
 71
    1
 72
    1
  1
Q13
  7
standard
210
0
220
0
230
1
 50
0
 73
    2
 44
1
  0
MTEXT
  5
6B6
100
AcDbEntity
  8
0
  6
ByLayer
 62
  256
370
   -1
100
AcDbMText
 10
191
 20
52
 30
0
 40
2
 41
4.222222222222221
 71
    1
 72
    1
  1
Q14
  7
standard
210
0
220
0
230
1
 50
0
 73
    2
 44
1
  0
MTEXT
  5
6B7
100
AcDbEntity
  8
0
  6
ByLayer
 62
  256
370
   -1
100
AcDbMText
 10
134
 20
71
 30
0
 40
1
 41
10.19444444444444
 71
    1
 72
    5
  1
LOWER HOPPER \PSUPPORT
  7
standard
210
0
220
0
230
1
 50
0
 73
    1
 44
1
  0
LINE
  5
6B8
100
AcDbEntity
  8
VISIBLE
  6
ByLayer
 62
  256
370
   -1
100
AcDbLine
 10
132.85182657
 20
64.9841209273
 11
135.35182657
 21
64.9841209273
  0
LINE
  5
6B9
100
AcDbEntity
  8
VISIBLE
  6
ByLayer
 62
  256
370
   -1
100
AcDbLine
 10
135.35182657
 20
60.9841209273
 11
132.85182657
 21
60.9841209273
  0
LINE
  5
6BA
100
AcDbEntity
  8
VISIBLE
  6
ByLayer
 62
  256
370
   -1
100
AcDbLine
 10
132.85182657
 20
60.9841209273
 11
132.85182657
 21
64.9841209273
  0
CIRCLE
  5
6BB
100
AcDbEntity
  8
VISIBLE
  6
ByLayer
 62
  256
370
   -1
100
AcDbCircle
 10
134.10182657
 20
62.9841209273
 40
0.40625
  0
LINE
  5
6BC
100
AcDbEntity
  8
VISIBLE
  6
ByLayer
 62
  256
370
   -1
100
AcDbLine
 10
135.35182657
 20
64.9841209273
 11
135.35182657
 21
60.9841209273
  0
LINE
  5
6BD
100
AcDbEntity
  8
CENTER
  6
ByLayer
 62
  256
370
   -1
100
AcDbLine
 10
134.141196648
 20
62.9841209273
 11
134.062456491
 21
62.9841209273
  0
LINE
  5
6BE
100
AcDbEntity
  8
CENTER
  6
ByLayer
 62
  256
370
   -1
100
AcDbLine
 10
134.10182657
 20
63.023491006
 11
134.10182657
 21
62.9447508486
  0
LINE
  5
6BF
100
AcDbEntity
  8
CENTER
  6
ByLayer
 62
  256
370
   -1
100
AcDbLine
 10
134.180566727
 20
62.9841209273
 11
134.63307657
 21
62.9841209273
  0
LINE
  5
6C0
100
AcDbEntity
  8
CENTER
  6
ByLayer
 62
  256
370
   -1
100
AcDbLine
 10
134.023086412
 20
62.9841209273
 11
133.57057657
 21
62.9841209273
  0
LINE
  5
6C1
100
AcDbEntity
  8
CENTER
  6
ByLayer
 62
  256
370
   -1
100
AcDbLine
 10
134.10182657
 20
63.0628610848
 11
134.10182657
 21
63.5153709273
  0
LINE
  5
6C2
100
AcDbEntity
  8
CENTER
  6
ByLayer
 62
  256
370
   -1
100
AcDbLine
 10
134.10182657
 20
62.9053807698
 11
134.10182657
 21
62.4528709273
  0
MTEXT
  5
6C3
100
AcDbEntity
  8
0
  6
ByLayer
 62
  256
370
   -1
100
AcDbMText
 10
137
 20
64
 30
0
 40
2
 41
12.33333333333333
 71
    1
 72
    1
  1
Q9 - [x8]
  7
standard
210
0
220
0
230
1
 50
0
 73
    2
 44
1
  0
LINE
  5
6C4
100
AcDbEntity
  8
0
  6
ByLayer
 62
  256
370
   -1
100
AcDbLine
 10
146
 20
20
 11
158
 21
20
  0
LINE
  5
6C5
100
AcDbEntity
  8
0
  6
ByLayer
 62
  256
370
   -1
100
AcDbLine
 10
158
 20
20
 11
170
 21
20
  0
DIMENSION
  5
6C6
100
AcDbEntity
  8
0
  6
ByLayer
 62
  256
370
   -1
100
AcDbDimension
  2
*D1
 10
158
 20
16.2941287654
 30
0
 11
152
 21
16.2941287654
 31
0
 70
   32
 71
    5
 72
    0
  3
Standard
 53
0
210
0
220
0
230
1
100
AcDbAlignedDimension
 13
146
 23
21.5996000297
 33
0
 14
158
 24
21.3599029554
 34
0
100
AcDbRotatedDimension
  0
DIMENSION
  5
6C7
100
AcDbEntity
  8
0
  6
ByLayer
 62
  256
370
   -1
100
AcDbDimension
  2
*D2
 10
170
 20
13.208174377
 30
0
 11
158
 21
13.208174377
 31
0
 70
   32
 71
    5
 72
    0
  3
Standard
 53
0
210
0
220
0
230
1
100
AcDbAlignedDimension
 13
146
 23
20.5996000297
 33
0
 14
170
 24
20
 34
0
100
AcDbRotatedDimension
  0
LINE
  5
6C8
100
AcDbEntity
  8
0
  6
ByLayer
 62
  256
370
   -1
100
AcDbLine
 10
170
 20
20
 11
170
 21
20.8657448529
  0
LINE
  5
6C9
100
AcDbEntity
  8
VISIBLE
  6
ByLayer
 62
  256
370
   -1
100
AcDbLine
 10
95.98990561949999
 20
57.6720647391
 11
84.12678369
 21
57.6720647391
  0
LINE
  5
6CA
100
AcDbEntity
  8
VISIBLE
  6
ByLayer
 62
  256
370
   -1
100
AcDbLine
 10
95.98990561949999
 20
61.5470647391
 11
95.98990561949999
 21
57.6720647391
  0
LINE
  5
6CB
100
AcDbEntity
  8
VISIBLE
  6
ByLayer
 62
  256
370
   -1
100
AcDbLine
 10
84.12678369
 20
57.6720647391
 11
86.87678369
 21
61.5470647391
  0
LINE
  5
6CC
100
AcDbEntity
  8
VISIBLE
  6
ByLayer
 62
  256
370
   -1
100
AcDbLine
 10
86.87678369
 20
61.5470647391
 11
95.98990561949999
 21
61.5470647391
  0
MTEXT
  5
6CD
100
AcDbEntity
  8
0
  6
ByLayer
 62
  256
370
   -1
100
AcDbMText
 10
90
 20
70
 30
0
 40
1
 41
4.888888676886864
 71
    1
 72
    5
  1
SADDLE
  7
standard
210
0
220
0
230
1
 50
0
 73
    1
 44
1
  0
LINE
  5
6CE
100
AcDbEntity
  8
VISIBLE
  6
ByLayer
 62
  256
370
   -1
100
AcDbLine
 10
97.2868833799
 20
38.1586533012
 11
97.2868833799
 21
33.4086533012
  0
LINE
  5
6CF
100
AcDbEntity
  8
VISIBLE
  6
ByLayer
 62
  256
370
   -1
100
AcDbLine
 10
78.7286622563
 20
38.1586533012
 11
97.2868833799
 21
38.1586533012
  0
LINE
  5
6D0
100
AcDbEntity
  8
VISIBLE
  6
ByLayer
 62
  256
370
   -1
100
AcDbLine
 10
97.2868833799
 20
33.4086533012
 11
78.7286622563
 21
33.4086533012
  0
LINE
  5
6D1
100
AcDbEntity
  8
VISIBLE
  6
ByLayer
 62
  256
370
   -1
100
AcDbLine
 10
78.7286622563
 20
33.4086533012
 11
78.7286622563
 21
38.1586533012
  0
LINE
  5
6D2
100
AcDbEntity
  8
VISIBLE
  6
ByLayer
 62
  256
370
   -1
100
AcDbLine
 10
77.7286622563
 20
45.5336533012
 11
77.7286622563
 21
49.4086533012
  0
LINE
  5
6D3
100
AcDbEntity
  8
VISIBLE
  6
ByLayer
 62
  256
370
   -1
100
AcDbLine
 10
77.7286622563
 20
49.4086533012
 11
96.2868833799
 21
49.4086533012
  0
LINE
  5
6D4
100
AcDbEntity
  8
VISIBLE
  6
ByLayer
 62
  256
370
   -1
100
AcDbLine
 10
96.2868833799
 20
45.5336533012
 11
77.7286622563
 21
45.5336533012
  0
LINE
  5
6D5
100
AcDbEntity
  8
VISIBLE
  6
ByLayer
 62
  256
370
   -1
100
AcDbLine
 10
96.2868833799
 20
49.4086533012
 11
96.2868833799
 21
45.5336533012
  0
MTEXT
  5
6D6
100
AcDbEntity
  8
0
  6
ByLayer
 62
  256
370
   -1
100
AcDbMText
 10
100
 20
61
 30
0
 40
2
 41
12.55555555555555
 71
    1
 72
    1
  1
Q4 - [x2]
  7
standard
210
0
220
0
230
1
 50
0
 73
    2
 44
1
  0
MTEXT
  5
6D7
100
AcDbEntity
  8
0
  6
ByLayer
 62
  256
370
   -1
100
AcDbMText
 10
101
 20
48
 30
0
 40
2
 41
2.888888888889013
 71
    1
 72
    1
  1
Q3
  7
standard
210
0
220
0
230
1
 50
0
 73
    2
 44
1
  0
MTEXT
  5
6D8
100
AcDbEntity
  8
0
  6
ByLayer
 62
  256
370
   -1
100
AcDbMText
 10
102
 20
37
 30
0
 40
2
 41
2.888888888889013
 71
    1
 72
    1
  1
Q5
  7
standard
210
0
220
0
230
1
 50
0
 73
    2
 44
1
  0
MTEXT
  5
6D9
100
AcDbEntity
  8
0
  6
ByLayer
 62
  256
370
   -1
100
AcDbMText
 10
140
 20
50
 30
0
 40
4
 41
25.11111111111111
 71
    1
 72
    1
  1
Q9 - [x4]
  7

210
0
220
0
230
1
 50
0
 73
    2
 44
1
  0
MTEXT
  5
6DA
100
AcDbEntity
  8
0
  6
ByLayer
 62
  256
370
   -1
100
AcDbMText
 10
140
 20
60
 30
0
 40
2
 41
12.55555555555555
 71
    1
 72
    1
  1
Q9 - [x4]
  7

210
0
220
0
230
1
 50
0
 73
    2
 44
1
  0
MTEXT
  5
6DB
100
AcDbEntity
  8
0
  6
ByLayer
 62
  256
370
   -1
100
AcDbMText
 10
140
 20
50
 30
0
 40
4
 41
25.11111111111111
 71
    1
 72
    1
  1
Q9 - [x4]
  7

210
0
220
0
230
1
 50
0
 73
    2
 44
1
  0
ENDSEC
  0
SECTION
  2
OBJECTS
  0
DICTIONARY
  5
C
330
0
100
AcDbDictionary
281
    1
  3
ACAD_GROUP
350
D
  0
DICTIONARY
  5
D
330
C
100
AcDbDictionary
281
    1
  0
ENDSEC
  0
EOF
